
//----- song id: rair
#TITLE:らいらら;
#ARTIST:KRD8 【兵庫】;
#TITLETRANSLIT:Rairara;
#ARTISTTRANSLIT:KRD 8 [Hyougo];
#BANNER:Rairara.png;
#BACKGROUND:Rairara-bg.png;
#CDTITLE:./CDTitles/DDR (2014).png;
#MUSIC:Rairara.ogg;
#SAMPLESTART:54.917;
#SAMPLELENGTH:15;
#DISPLAYBPM:155;
#BPMS:0=155;
#NOTES:
     dance-single:
     :
     Beginner:
     2:
     :
0000
0000
0000
0000
,
0000
0000
0000
0000
,
0000
0000
0000
0000
,
0000
0000
0000
0000
,
0000
0000
0000
0000
,
0000
0000
0000
0000
,
0001
0000
0001
0000
,
1000
0000
1000
0000
,
0001
0000
0001
0000
,
1000
0000
1000
0000
,
0001
0000
0100
0000
,
1000
0000
0100
0000
,
0001
0000
1000
0000
,
0001
0000
0000
0000
,
1000
0000
0100
0000
,
0001
0000
0100
0000
,
1000
0000
0001
0000
,
1001
0000
0000
0000
,
0001
0000
0001
0000
,
1000
0000
1000
0000
,
0100
0000
0010
0000
,
0100
0000
0000
0000
,
1000
0000
1000
0000
,
0001
0000
0001
0000
,
0010
0000
0100
0000
,
0010
0000
0000
0000
,
1000
1000
0000
0000
,
0100
0100
0000
0000
,
0001
0001
0000
0000
,
0010
0010
0000
0000
,
2000
0000
3000
0000
,
0002
0000
0003
0000
,
1001
0000
0000
0000
,
0000
0000
0000
0000
,
1001
0000
0000
0000
,
1001
0000
0000
0000
,
0001
0000
0010
0000
,
0100
0000
1000
0000
,
0001
0000
1000
0000
,
0100
0000
0010
0000
,
2002
0000
3003
0000
,
1000
0000
0100
0000
,
0010
0000
0001
0000
,
1000
0000
0001
0000
,
2002
0000
0000
0000
,
3003
0000
0000
0000
,
1000
1000
1000
0000
,
0100
0000
0100
0000
,
0001
0001
0001
0000
,
0010
0000
0010
0000
,
0001
0000
0001
0000
,
1000
0000
1000
0000
,
0100
0000
0010
0000
,
0100
0000
0000
0000
,
1000
0000
1000
0000
,
0001
0000
0001
0000
,
0010
0000
0100
0000
,
0010
0000
0000
0000
,
0000
0000
0000
0000
;
#NOTES:
     dance-single:
     :
     Easy:
     5:
     :
0000
0000
0000
0000
,
0000
0000
0000
0000
,
0000
0000
0000
0000
,
0000
0000
0000
0000
,
0000
0000
0000
0000
,
0000
0000
0000
0000
,
0001
0001
0001
0000
,
1000
1000
1000
0000
,
0001
0001
0001
0000
,
1000
1000
1000
0000
,
0010
0001
0100
0000
,
0001
1000
0100
0000
,
1000
0000
0001
0000
,
1000
0000
0000
0000
,
0010
1000
0100
0000
,
0010
0001
1000
0000
,
0100
0000
0010
0000
,
0110
0000
0000
0000
,
1000
0100
0001
0000
,
1000
0010
0001
0000
,
0020
0000
0230
0000
,
0310
0000
0000
0000
,
0001
0100
1000
0000
,
0001
0010
1000
0000
,
0020
0000
0230
0000
,
0310
0000
0110
0000
,
0000
1000
1000
1000
,
0000
0001
0001
0001
,
0000
1000
1000
1000
,
0000
0001
0001
0001
,
1002
0000
0013
0000
,
2001
0000
3010
0000
,
1001
0000
0000
0000
,
0000
0000
0000
0000
,
1001
0000
0000
0000
,
1001
0000
0000
0000
,
0010
0001
0010
0000
,
1000
0001
0001
0000
,
2000
0000
3200
0000
,
0320
0000
0032
0000
,
1003
1000
1001
0000
,
0100
1000
0100
0000
,
0001
1000
1000
0000
,
0002
0000
0023
0000
,
0230
0000
2300
0000
,
3001
0000
0000
0000
,
0001
0010
0001
0000
,
0100
0010
0100
0000
,
1000
0001
1000
0000
,
0100
0010
0100
0000
,
1000
0100
0001
0000
,
1000
0010
0001
0000
,
0020
0000
0230
0000
,
0310
0000
0000
0000
,
0001
0100
1000
0000
,
0001
0010
1000
0000
,
0020
0000
0230
0000
,
0310
0000
0110
0000
,
0000
0000
0000
0000
;
#NOTES:
     dance-single:
     :
     Medium:
     7:
     :
0000
0000
0000
0000
,
0000
0000
0000
0000
,
0000
0000
0000
0000
,
0000
0000
0000
0000
,
0000
0000
0000
0000
,
0000
0000
0000
0000
,
1000
0000
1000
0000
1000
0000
1000
0010
,
0100
0100
0100
0100
,
0001
0000
0001
0000
0001
0000
0001
0010
,
1000
1000
1000
1000
,
0010
0000
0010
0010
0002
0000
1003
0000
,
0100
0000
0100
0100
2000
0000
3001
0000
,
0010
0100
1000
0001
,
0100
1000
0100
0000
,
0010
0000
0010
0010
2000
0000
3001
0000
,
0100
0000
0100
0100
0002
0000
1003
0000
,
0100
0010
0001
0000
,
0010
0100
1001
0000
,
0010
0000
0001
0100
0002
0000
1003
0000
,
0010
0000
1000
0100
2000
0000
3001
0000
,
0100
0010
1000
0001
,
0100
1000
0100
0000
,
0010
0000
1000
0100
2000
0000
3001
0000
,
0010
0000
0001
0100
0002
0000
1003
0000
,
0100
0010
0001
0100
,
0001
1000
0001
1000
0001
0000
0000
0000
,
0000
0000
1000
0010
1000
0000
1000
0000
,
0000
0000
0010
0100
0010
0000
0010
0000
,
0000
0000
0100
0001
0100
0000
0100
0000
,
0000
0000
0001
1000
0001
0000
0001
0000
,
1000
0100
0010
0001
,
0010
0100
0010
0100
,
0110
1000
0000
0001
,
0000
0000
1000
0000
0000
0001
0000
0001
,
0000
0010
0000
0100
,
0110
0000
0000
0000
,
0001
0000
1000
0000
0100
0000
1000
0001
,
1000
0100
0010
0000
,
2000
3001
0002
1003
,
0200
0001
1000
0301
,
0010
0100
1000
0000
,
1000
0000
0001
0000
0100
0000
0001
1000
,
0001
0010
0100
0000
,
1000
0100
0010
0001
,
2000
0010
0001
0010
,
0002
0000
3003
0000
,
0100
0000
0100
0000
0100
0000
0100
0010
,
1000
1000
1000
1000
,
0100
0000
0100
0000
0100
0000
0100
0010
,
0001
0001
0001
0001
,
0010
0000
0001
0100
0002
0000
1003
0010
,
0000
0000
1000
0100
2000
0000
3001
0000
,
0100
0010
1000
0001
,
0100
1000
0100
0000
,
0010
0000
1000
0100
2000
0000
3001
0010
,
0000
0000
0001
0100
0002
0000
1003
0000
,
0100
0010
0001
0100
,
0001
0000
0001
1000
0001
0000
0000
0000
,
0000
0000
0000
0000
;
#NOTES:
     dance-single:
     :
     Hard:
     10:
     :
0000
0000
0000
0000
,
0000
0000
0000
0000
,
0000
0000
0000
0000
,
0000
0000
0000
0000
,
0000
0000
0000
0000
,
0000
0000
0000
0000
,
0001
0010
0100
1000
0010
0000
0100
0010
,
0000
0001
0010
0100
1000
0000
1001
0000
,
1000
0100
0010
0001
0010
0000
0100
1000
,
0000
1000
0100
0000
0010
0000
0011
0000
,
0001
0010
0100
1000
0001
0010
0100
0000
,
1000
0100
0010
0001
1000
0100
0010
0000
,
0002
0023
2030
3020
,
0031
0000
0100
0010
0100
0000
0000
0000
,
1000
0100
0010
0001
1000
0100
0010
0000
,
0001
0010
0100
1000
0001
0010
0100
0000
,
2000
3020
0032
0000
,
0013
0000
1000
0001
1000
0000
0000
0000
,
0001
0100
0010
1000
0001
0100
1000
0000
,
0001
0010
0100
1000
0100
0001
0100
0000
,
0011
0110
1100
1001
,
0101
0000
0010
1000
0010
0000
0000
0000
,
1000
0010
0100
0001
1000
0010
0001
0000
,
1000
0100
0010
0001
0010
1000
0010
0000
,
1100
0110
0011
1001
,
0100
0001
0100
0001
0100
0000
0010
1000
,
0200
0000
0310
0001
2000
0000
3001
0100
,
0020
0000
1030
0100
0002
0000
0103
0000
,
0020
0001
0100
1000
,
0100
0031
1000
0001
,
0200
0001
0001
0310
,
0020
0000
1000
0000
1030
0000
0010
0100
,
0110
0000
0000
0000
,
0000
0000
0000
0000
0000
0001
1000
0001
,
0000
0000
0000
0000
,
0110
0000
0001
0010
,
0200
0000
1300
0001
0200
0000
0310
1000
,
0200
0000
0310
0001
0200
0000
0300
0010
,
0100
0010
1000
0001
0010
1000
0010
0001
,
2000
0000
0100
0000
0001
0000
3010
0100
,
0002
0000
1003
0100
0010
0000
0000
0000
,
0200
0000
1300
0001
0200
0000
0310
1000
,
0200
0000
0310
0001
0200
0000
0300
0010
,
1000
0100
1000
0100
0010
0000
0001
0000
,
2000
0100
0001
0010
,
0020
0000
3030
0000
,
0000
1000
0001
0100
0000
0010
1000
0001
,
0000
0010
0100
1000
0100
0000
0110
0000
,
0000
1000
0001
0010
0000
0100
1000
0001
,
0000
0100
0010
1000
1010
0000
0101
0000
,
0001
0100
0010
1000
0001
0100
1000
0100
,
0000
0010
0100
1000
0100
0001
0100
0000
,
0011
0110
1100
1001
,
0101
0000
0010
1000
0010
0000
0000
0000
,
1000
0010
0100
0001
1000
0010
0001
0010
,
0000
0100
0010
0001
0010
1000
0010
0000
,
1100
0110
0011
1001
,
0101
0000
0100
0001
0100
0000
0000
0000
,
0000
0000
0000
0000
;
#NOTES:
     dance-double:
     :
     Easy:
     5:
     :
00000000
00000000
00000000
00000000
,
00000000
00000000
00000000
00000000
,
00000000
00000000
00000000
00000000
,
00000000
00000000
00000000
00000000
,
00000000
00000000
00000000
00000000
,
00000000
00000000
00000000
00000000
,
00010000
00010000
00010000
00000000
,
00001000
00001000
00001000
00000000
,
00010000
00010000
00010000
00000000
,
00001000
00001000
00001000
00000000
,
00000010
00000001
00000100
00000000
,
00000001
00001000
00000100
00000000
,
00010000
00000000
00001000
00000000
,
00010000
00000000
00000000
00000000
,
00100000
10000000
01000000
00000000
,
00100000
00010000
10000000
00000000
,
01000000
00000000
00100000
00000000
,
01100000
00000000
00000000
00000000
,
10000000
01000000
00010000
00000000
,
00001000
00000010
00000001
00000000
,
00000020
00000000
00000230
00000000
,
00000310
00000000
00000000
00000000
,
00000001
00000100
00001000
00000000
,
00010000
00100000
10000000
00000000
,
00200000
00000000
02300000
00000000
,
03100000
00000000
01100000
00000000
,
00000000
00001000
00001000
00001000
,
00000000
00010000
00010000
00010000
,
00000000
00001000
00001000
00001000
,
00000000
00010000
00010000
00010000
,
00021000
00000000
00130000
00000000
,
00012000
00000000
00003010
00000000
,
00011000
00000000
00000000
00000000
,
00000000
00000000
00000000
00000000
,
00011000
00000000
00000000
00000000
,
00011000
00000000
00000000
00000000
,
00000010
00000001
00000010
00000000
,
00001000
00000001
00000001
00000000
,
00000020
00000000
00002030
00000000
,
00023000
00000000
02030000
00000000
,
13000000
10000000
10010000
00000000
,
01000000
10000000
01000000
00000000
,
00010000
10000000
10000000
00000000
,
00200000
00000000
00320000
00000000
,
00032000
00000000
00003200
00000000
,
00000301
00000000
00000000
00000000
,
00000001
00000010
00000001
00000000
,
00000100
00000010
00000100
00000000
,
00001000
00010000
00001000
00000000
,
01000000
00100000
01000000
00000000
,
10000000
01000000
00010000
00000000
,
00001000
00000010
00000001
00000000
,
00000020
00000000
00000230
00000000
,
00000310
00000000
00000000
00000000
,
00000001
00000100
00001000
00000000
,
00010000
00100000
10000000
00000000
,
00200000
00000000
02300000
00000000
,
03100000
00000000
01100000
00000000
,
00000000
00000000
00000000
00000000
;
#NOTES:
     dance-double:
     :
     Medium:
     7:
     :
00000000
00000000
00000000
00000000
,
00000000
00000000
00000000
00000000
,
00000000
00000000
00000000
00000000
,
00000000
00000000
00000000
00000000
,
00000000
00000000
00000000
00000000
,
00000000
00000000
00000000
00000000
,
10000000
00000000
10000000
00000000
10000000
00000000
10000000
01000000
,
00010000
00010000
00010000
00010000
,
00001000
00000000
00001000
00000000
00001000
00000000
00001000
00000010
,
00000001
00000001
00000001
00000001
,
00000100
00000000
00000100
00000100
00000002
00000000
00001003
00000000
,
00000010
00000000
00000010
00000010
00002000
00000000
00003001
00000000
,
00000100
00001000
00010000
00001000
,
00010000
00100000
10000000
00000000
,
00100000
00000000
00100000
00100000
20000000
00000000
30010000
00000000
,
01000000
00000000
01000000
01000000
00020000
00000000
10030000
00000000
,
01000000
00010000
00001000
00000000
,
00010000
00001000
00011000
00000000
,
00000010
00000000
00000001
00000100
00000002
00000000
00001003
00000000
,
00000010
00000000
00001000
00000100
00002000
00000000
00003001
00000000
,
00000010
00001000
00010000
00001000
,
00010000
00100000
10000000
00000000
,
00100000
00000000
10000000
01000000
20000000
00000000
30010000
00000000
,
00100000
00000000
00010000
01000000
00020000
00000000
10030000
00000000
,
00100000
00010000
00001000
00010000
,
00001000
00010000
00001000
00010000
00001000
00000000
00000000
00000000
,
00000000
00000000
00001000
00000010
00001000
00000000
00001000
00000000
,
00000000
00000000
00000010
00000001
00000010
00000000
00000010
00000000
,
00000000
00000000
00000001
00000100
00000001
00000000
00000001
00000000
,
00000000
00000000
00000100
00000010
00000100
00000000
00000100
00000000
,
00000001
00001000
00000001
00001000
,
00000010
00000100
00000010
00000100
,
00000110
00001000
00000000
00010000
,
00000000
00000000
00001000
00000000
00000000
00010000
00000000
00010000
,
00000000
00100000
00000000
10000000
,
10010000
00000000
00000000
00000000
,
10000000
00000000
01000000
00000000
00010000
00000000
00001000
00010000
,
00001000
00000010
00000001
00000000
,
00002000
00003001
00000002
00001003
,
00000200
00000001
00001000
00000301
,
00000010
00000100
00001000
00000000
,
00000001
00000000
00000100
00000000
00001000
00000000
00010000
00001000
,
00010000
00100000
10000000
00000000
,
10000000
01000000
00100000
00010000
,
00002000
00000100
00000001
00000010
,
00020000
00000000
00033000
00000000
,
01000000
00000000
01000000
00000000
01000000
00000000
01000000
00100000
,
10000000
10000000
10000000
10000000
,
01000000
00000000
01000000
00000000
01000000
00000000
01000000
00010000
,
00001000
00001000
00001000
00001000
,
00000010
00000000
00000001
00000100
00000002
00000000
00001003
00000010
,
00000000
00000000
00001000
00000100
00002000
00000000
00003001
00000000
,
00000010
00001000
00010000
00001000
,
00010000
00100000
10000000
00000000
,
00100000
00000000
10000000
01000000
20000000
00000000
30010000
00100000
,
00000000
00000000
00010000
01000000
00020000
00000000
10030000
00000000
,
01000000
00010000
00001000
00010000
,
00001000
00000000
00001000
00010000
00001000
00000000
00000000
00000000
,
00000000
00000000
00000000
00000000
;
#NOTES:
     dance-double:
     :
     Hard:
     10:
     :
00000000
00000000
00000000
00000000
,
00000000
00000000
00000000
00000000
,
00000000
00000000
00000000
00000000
,
00000000
00000000
00000000
00000000
,
00000000
00000000
00000000
00000000
,
00000000
00000000
00000000
00020000
,
10030000
01000000
00000000
01000000
00000000
01000000
00000000
01000000
,
00010000
00001000
00000000
00001000
00000000
00001000
00010000
00001000
,
00000010
00000001
00000000
00000001
00000000
00000001
00000000
00000001
,
00001000
00000100
00001000
00000100
00000010
00000010
00000010
00000010
,
00000001
00000010
00000100
00001000
00000001
00000010
00000100
00000000
,
00001000
00000100
00000010
00000001
00001000
00000100
00000010
00000000
,
00000002
00000023
00002030
00023000
,
00130000
00000000
00100000
10000000
00100000
00000000
00000000
00000000
,
10000000
01000000
00100000
00010000
10000000
01000000
00100000
00000000
,
00010000
00100000
01000000
10000000
00010000
00100000
01000000
00000000
,
20000000
30200000
00320000
00000000
,
00031000
00000000
00000010
00000001
00000010
00000000
00000000
00000000
,
00000001
00000010
00001000
00010000
00000010
00001000
00000100
00000000
,
00000010
00000001
00001000
00000100
00010000
00001000
00000010
00000000
,
00000011
00000110
00001100
00011000
,
01010000
00000000
00100000
10000000
00100000
00000000
00000000
00000000
,
10000000
01000000
00010000
00001000
01000000
00010000
00100000
00000000
,
01000000
10000000
00010000
00100000
00001000
00010000
01000000
00000000
,
11000000
01100000
01010000
00011000
,
00000100
00000001
00000100
00000001
00000100
00000000
00002000
00000000
,
00000001
00000000
00000001
00000000
00000001
00000000
00003001
00000100
,
00000020
00000000
00010000
00000000
00010000
00000000
00010030
00001000
,
00200000
00000000
00001000
00000000
00001000
00000000
00301000
00010000
,
01000000
00000000
10000000
00000000
10000000
01000000
10000000
01000000
,
00020000
00000000
00001000
00001000
00001000
00000000
00031000
00000100
,
00000002
00000000
00000010
00000010
00000010
00000000
00000013
00000100
,
00000110
00000000
00000000
00000000
,
00000000
00000000
00000000
00000000
00000000
00010000
10000000
00010000
,
00000000
00000000
00000000
00000000
,
00000110
00000000
00000001
00000010
,
00000200
00000000
00001300
00000001
00000020
00000000
00001030
00010000
,
00000020
00000000
00000130
00001000
00010000
00000000
00000000
00100000
,
01000000
00100000
10000000
00010000
00100000
10000000
00100000
00010000
,
00002000
00000000
00000100
00000000
00000001
00000000
00003010
00000100
,
00000002
00000000
00001003
00000100
00000010
00000000
00000000
00000000
,
00000200
00000000
00001300
00000001
00000020
00000000
00001030
00010000
,
00000020
00000000
00000130
00001000
00010000
00000000
00000000
00100000
,
10000000
01000000
10000000
01000000
00100000
00000000
00010000
00000000
,
00002000
00000000
00000100
00000000
00000001
00000000
00000010
00000010
,
00000020
00000000
00003030
00000000
,
00000000
00001000
00000001
00000100
00000000
00000010
00001000
00000001
,
00000000
00000100
00001000
00010000
00100000
00100000
00100000
00100000
,
00000000
10000000
00010000
00100000
00000000
01000000
10000000
00010000
,
00000000
00100000
01000000
00010000
00001000
00000010
00000100
00001000
,
00000001
00000010
00001000
00010000
00000010
00001000
00000100
00000020
,
00000000
00000031
00001000
00000100
00010000
00001000
00000010
00000000
,
00000011
00000110
00001100
00011000
,
01010000
00000000
00100000
10000000
00100000
00000000
00000000
00000000
,
10000000
01000000
00010000
00001000
01000000
00010000
00100000
02000000
,
00000000
13000000
00010000
00100000
00001000
00010000
01000000
00000000
,
11000000
01100000
01010000
00011000
,
00001100
00000000
00000100
00000001
00000100
00000000
00000000
00000000
,
00000000
00000000
00000000
00000000
;
