
//----- song ID: peit -----//
#TITLE:Plan 8;
#ARTIST:Ryu☆;
#BANNER:Plan 8.png;
#BACKGROUND:Plan 8-bg.png;
#CDTITLE:./CDTitles/bm IIDX 20 tricoro.png;
#MUSIC:Plan 8.ogg;
#SAMPLESTART:11.321;
#SAMPLELENGTH:15;
#BPMS:0=212;
#BGSTAGE:14;
#NOTES:
     dance-single:
     :
     Beginner:
     4:
     :
0000
0000
0000
0000
,
0000
0000
0000
0000
,
0000
0000
0000
0000
,
0000
0000
0000
0000
,
0000
0000
0000
0000
,
1001
0000
0000
0000
,
0000
0000
0000
0000
,
0001
0000
1000
0000
,
0010
0010
0010
0010
,
0020
0000
0030
0000
,
0001
0000
1000
0000
,
0001
0001
0001
0000
,
1000
0000
0001
0000
,
1000
1000
1000
0000
,
0010
0000
1000
0000
,
0010
0010
0010
0000
,
0010
0000
0001
0000
,
0010
0010
0010
0000
,
0002
0000
0003
0000
,
0200
0000
0300
0000
,
2000
0000
3000
0000
,
0020
0000
0030
0000
,
0002
0000
0003
0000
,
0020
0000
0030
0000
,
2000
0000
3000
0000
,
0200
0000
0300
0000
,
0001
0001
0001
0000
,
0010
0010
0010
0000
,
1000
1000
1000
0000
,
0100
0100
0100
0000
,
0001
0001
0001
0000
,
0010
0010
0010
0000
,
1000
1000
1000
0000
,
0001
0000
0010
0000
,
1000
0000
0010
0000
,
0001
0000
0010
0000
,
1000
0000
0010
0000
,
0001
0000
0010
0000
,
1000
0000
0100
0000
,
0001
0000
0100
0000
,
1000
0000
0100
0000
,
0001
0000
0000
0000
,
1001
0000
0000
0000
,
0000
0000
0000
0000
,
0000
0000
0000
0000
,
0000
0000
0000
0000
,
1001
0000
0000
0000
,
0000
0000
0000
0000
,
0001
0000
1000
0000
,
1001
0000
0000
0000
,
0010
0010
0010
0000
,
0001
0000
1000
0000
,
0010
0010
0010
0000
,
1000
0000
0001
0000
,
0010
0010
0010
0000
,
0100
0000
0100
0000
,
0010
0010
0010
0000
,
1000
0000
0001
0000
,
1000
0000
0001
0000
,
1000
0000
0001
0000
,
1001
0000
1001
0000
,
1001
0000
1001
0000
,
0010
0010
0010
0010
,
0010
0010
0010
0010
,
0000
0000
0000
0000
,
2000
0000
0000
3000
,
0000
0000
0000
0000
,
0020
0000
0000
0030
,
0000
0000
0000
0000
,
0002
0000
0000
0003
,
0000
0000
0000
0000
,
0200
0000
0000
0300
,
0000
0000
0000
0000
,
2000
0000
0000
3000
,
0000
0000
0000
0000
,
0200
0000
0000
0300
,
0000
0000
0000
0000
,
0002
0000
0000
0003
,
0000
0000
0000
0000
,
0020
0000
0000
0030
,
0000
0000
0000
0000
,
0001
0000
0010
0000
,
0100
0000
1000
0000
,
0001
0000
0100
0000
,
0010
0000
1000
0000
,
0001
0000
0000
0000
,
1000
0000
0000
0000
,
0001
0000
1000
0000
,
0001
0000
1000
0000
,
0000
0000
0000
0000
,
0001
0001
0001
0000
,
0100
0000
0010
0000
,
1000
1000
1000
0000
,
0100
0000
0010
0000
,
0001
0001
0001
0000
,
0100
0000
0010
0000
,
1000
1000
1000
0000
,
0000
0000
0000
0000
,
0010
0000
1000
0000
,
0001
0000
0010
0000
,
0100
0000
1000
0000
,
0001
0000
1000
0000
,
0001
0000
0100
0000
,
0010
0000
1000
0000
,
0001
0001
0001
0000
,
1000
1000
1000
0000
,
1001
0000
0000
0000
,
0000
0000
0000
0000
;
#NOTES:
     dance-single:
     :
     Easy:
     8:
     :
0000
0000
0000
0000
,
0000
0000
0000
0000
,
0000
0000
0000
0000
,
0000
0000
0000
0000
,
0000
0000
0000
0010
,
1001
0000
0000
0000
,
0000
0000
0000
0000
,
1000
1000
0001
0001
,
0010
0010
0100
0100
,
2000
0000
0000
3100
,
0011
0011
0100
0010
,
0001
0100
0010
0000
,
1001
1001
0100
0001
,
0010
0100
1000
0010
,
0110
0110
0010
0100
,
1000
0010
0001
0000
,
1001
1001
0100
1000
,
0010
0100
0001
0010
,
2000
0000
0000
3000
,
0020
0000
0000
0030
,
0200
0000
0000
0300
,
0002
0000
0000
1003
,
0100
0100
0010
0010
,
0001
0001
0100
0100
,
0010
0010
1000
1000
,
0100
0100
0001
0000
,
1000
0100
1000
0100
,
0010
0001
1000
0001
,
0001
0100
0001
0100
,
0010
1000
0001
1000
,
0001
0010
0100
1000
,
0001
0100
0010
1000
,
0001
0001
0010
0100
,
0010
0000
0000
0000
,
0001
0200
0001
0301
,
1000
0200
1000
1300
,
0001
0020
0001
0031
,
1000
0020
1000
1030
,
0100
0020
0100
0130
,
0001
0020
0001
0031
,
0100
0020
0100
0130
,
0001
0100
1000
0000
,
1001
0000
0000
0000
,
0000
0000
0010
1000
,
1010
0000
0000
0000
,
0000
0000
0001
0010
,
0011
0000
0000
0000
,
0000
0000
0010
0010
,
0001
0100
0010
1000
,
0100
0010
0100
0000
,
0011
0011
1000
0001
,
0010
0100
1000
0000
,
1010
1010
0001
1000
,
0010
0100
0010
0000
,
0101
0101
0010
0100
,
0010
1000
0001
0000
,
1100
1100
0010
0100
,
0010
0001
0100
0000
,
0010
1000
0100
0000
,
0010
0001
0100
0000
,
1000
0010
0001
0010
,
1000
0010
0001
0010
,
0100
0001
0010
1000
,
0100
0100
0100
0200
,
0000
0000
0000
0310
,
1002
0000
0000
0000
,
0000
0000
0000
0003
,
0200
0000
0000
0000
,
0000
0000
0000
0300
,
0020
0000
0000
0000
,
0000
0000
0000
0030
,
2000
0000
0000
0000
,
0000
0000
0000
3000
,
0200
0000
0000
0300
,
2000
3000
0002
0003
,
0200
0000
0000
0300
,
0020
0030
0100
0001
,
2000
0000
0000
3000
,
0200
0300
0020
0030
,
0002
0000
0000
0000
,
0000
0003
2000
3000
,
0100
0100
0001
0000
,
0001
0001
0010
0000
,
0010
0010
1000
0000
,
1000
1000
0100
0000
,
0010
0010
0100
0100
,
0001
0001
1000
1000
,
0100
0001
0010
1000
,
0100
0100
0001
1000
,
0002
0000
0000
1003
,
0100
0100
1000
1000
,
0001
0010
0100
1000
,
0010
0010
1000
1000
,
0001
0100
0010
1000
,
0001
0001
0010
0010
,
1000
0100
0001
0010
,
1000
1000
0001
0001
,
0100
0010
0100
0000
,
1000
0100
0010
0001
,
1000
0100
0001
0100
,
1000
0100
0010
0001
,
1000
0010
0001
0010
,
1000
1000
0001
0001
,
1000
1000
0001
0001
,
1000
0010
0001
0100
,
1000
0010
0001
0000
,
1001
0000
0000
0000
,
0000
0000
0000
0000
;
#NOTES:
     dance-single:
     :
     Medium:
     11:
     :
0000
0000
0000
0000
,
0000
0000
0000
0000
,
0000
0000
0000
0000
,
0000
0000
0000
0000
,
0000
0000
0000
0010
,
1001
0000
0000
0000
,
0000
0000
0000
0000
,
1000
0010
1000
0000
0001
0010
0001
0000
,
0100
0010
0100
0010
1000
0001
1000
0001
,
2000
0000
0000
3010
,
1010
0000
0101
0000
1000
0001
0100
0000
,
0010
1000
0100
0000
1000
0000
1000
0000
,
0011
0000
1100
0000
0001
1000
0100
0000
,
0010
0000
0001
0000
1000
0001
1000
0000
,
1010
0000
0101
0000
0010
1000
0001
0000
,
1000
0100
1000
0000
0001
0000
0001
0000
,
0101
0000
1100
0000
0010
0001
0100
0000
,
1000
0010
0001
0100
,
2000
0000
0000
0000
,
3200
0000
0000
0000
,
0320
0000
0000
0000
,
0032
0000
0000
1003
,
0010
0010
0100
0100
,
0001
0001
0010
0010
,
0001
0010
0001
0000
1000
0100
1000
0000
,
0010
1000
0010
1000
0001
0100
0001
0000
,
1000
0000
1000
0000
0010
0000
0001
0100
,
0010
0000
0010
0000
1000
0001
0100
0001
,
1000
0000
1000
0000
0100
0000
0010
0001
,
0100
0000
0100
0000
0001
1000
0001
0000
,
1000
0000
1000
0000
0100
0000
0010
0001
,
0010
0000
0010
0000
0100
1000
0100
0010
,
0001
0000
0001
0000
0100
0000
0010
0100
,
0010
0000
0100
0000
,
0001
0010
0010
0000
0001
0000
1001
0000
,
1000
0010
0010
0000
1000
0000
1001
0000
,
0001
0010
0010
0000
0100
0000
0110
0000
,
1000
0010
0010
0000
0100
0000
0110
0000
,
0001
1000
1000
0000
0010
0000
1010
0000
,
0001
0010
0010
0000
0001
0000
0011
0000
,
0100
1000
1000
0000
0100
0000
1001
0000
,
0001
0010
1000
0001
,
0010
0000
0001
0100
0000
0100
0000
0100
,
0000
0010
0000
0010
0100
0010
0100
0000
,
0010
0000
1000
0100
0000
0100
0000
0100
,
0000
0010
0000
0010
0001
0010
0001
0000
,
1000
0000
0010
1000
0000
1000
0000
1000
,
0000
0001
0000
0001
0100
0001
0100
0000
,
0001
0100
0010
0000
0001
0100
0010
0000
,
1000
0100
1000
0100
0010
0001
0010
0000
,
0011
0000
1100
0000
0001
1000
0100
0000
,
0010
0001
0010
0000
0100
0000
1001
0000
,
1010
0000
0101
0000
1000
0001
0100
0000
,
0010
0000
0100
0000
0001
1000
0001
0000
,
0011
0000
1100
0000
0010
0001
0100
0000
,
0010
0100
0010
0000
0100
0000
0101
0000
,
1100
0000
0101
0000
0010
1000
0100
0000
,
0010
0100
0010
0000
0001
0000
1000
0000
,
0010
0100
0010
0000
1000
0000
0001
0000
,
0010
0100
0010
0000
0001
0000
1000
0000
,
0010
0010
0001
0001
,
0100
0100
1000
1000
,
0010
0001
0100
1000
,
0010
0100
0010
0100
0010
0100
0020
0000
,
0000
0000
0000
0130
,
2002
0000
0000
0000
,
0000
0000
3000
0000
,
0020
0000
0000
0000
,
0000
0000
0003
0000
,
0200
0000
0000
0000
,
0000
0000
0030
0000
,
2000
0000
0000
0000
,
0000
0000
0300
0000
,
0020
0000
3000
0000
,
2030
0000
3002
0000
,
0020
0000
0003
0000
,
0230
0000
0320
0032
,
2000
0000
0003
0000
,
3020
0000
0230
0000
,
0002
0000
0000
0000
,
0300
0000
2000
3003
,
0010
0010
0001
0001
,
0100
0100
1000
1000
,
0010
0010
0001
0001
,
0100
0100
1000
1000
,
0100
0010
0100
0000
0010
0001
0010
0000
,
0001
0100
0001
0000
1000
0010
1000
0000
,
0010
0001
0100
1000
,
0010
1000
0010
1000
0001
0100
0001
0100
,
0002
0000
0000
1003
,
0010
0000
0010
0000
1000
0001
0010
0001
,
1000
0001
1100
0101
,
1000
0000
0100
0000
0010
0001
1000
0001
,
0010
0010
0011
1100
,
0001
0000
0001
0000
0100
0010
1000
0010
,
0100
0001
0110
1001
,
1000
0000
0100
0000
0010
0001
1000
0001
,
0010
0010
0010
0100
,
1000
0000
0010
0000
0100
0010
1000
0000
,
0100
0010
0001
0000
0100
0000
0010
0000
,
0001
0000
0010
0000
0100
1000
0010
0000
,
0100
0001
0010
0000
0100
0000
0010
0000
,
1000
0010
1000
0000
0001
0010
0001
0000
,
1000
0100
1000
0000
0001
0100
0001
0000
,
1000
0100
0001
0010
,
0100
0010
0100
0010
0001
1000
0001
0000
,
0110
0000
0000
0000
,
0000
0000
0000
0000
;
#NOTES:
     dance-single:
     :
     Hard:
     14:
     :
0000
0000
0000
0000
,
0000
0000
0000
0000
,
0000
0000
0000
0000
,
0000
0000
0000
0000
,
0000
0000
0000
0010
,
1001
0000
0000
0000
,
0000
0000
0000
0000
,
0001
0100
0001
0100
0010
1000
0010
1000
,
0100
1000
0010
0100
0001
0010
0100
1000
,
0200
0000
0000
0310
,
0011
0000
1100
0000
0001
1000
0100
0000
,
0010
0001
0100
0010
0100
0000
1001
0000
,
1010
0000
0101
0000
1000
0001
0100
0000
,
0010
1000
0100
0010
0001
1000
0001
1000
,
0001
0000
1100
0000
0010
0001
0100
0000
,
1000
0100
0001
0100
1000
0000
0101
0000
,
1100
0000
0101
0000
0010
1000
0100
0000
,
0001
0100
1000
0100
0001
0010
0100
1000
,
0002
0000
0000
0000
,
0203
0000
0000
0000
,
0320
0000
0000
0000
,
2030
0000
0000
3001
,
0010
0100
0100
0001
,
0001
0010
0100
1000
,
1000
0010
1000
0010
0100
0001
0100
0001
,
1000
0100
0010
0001
0100
0010
1000
0000
,
0001
0100
0001
0100
0010
0100
1000
0100
,
0001
0100
0001
0100
0001
0010
0100
1000
,
0001
0100
0001
0100
0010
0100
1000
0100
,
0001
0010
0001
0010
0100
1000
0001
0000
,
1000
0100
1000
0100
0010
0100
0001
0100
,
1000
0100
1000
0100
1000
0010
0100
0001
,
1000
0100
1000
0100
0010
0100
0001
0100
,
1000
1000
0001
0001
,
1000
0000
0010
0000
0010
0000
0000
0000
1000
0000
0001
1000
0000
0001
1000
0000
,
0001
0000
0010
0000
0010
0000
0000
0000
0001
0000
1000
0001
0000
1000
0001
0000
,
1000
0000
0010
0000
0010
0000
0000
0000
0100
0000
0010
0100
0000
0010
0100
0000
,
0001
0000
0010
0000
0010
0000
0000
0000
0100
0000
0010
0100
0000
0010
0100
0000
,
1000
0000
0001
0000
0001
0000
1000
0000
0001
0000
0010
0001
0000
0010
0001
0000
,
1000
0000
0010
0000
0010
0000
1000
0000
0010
0000
0100
0010
0000
0100
0010
0000
,
0100
0000
0001
0000
0001
0000
0100
0000
0001
0000
1000
0001
0000
1000
0001
0000
,
1000
0010
0001
1001
,
0010
0000
1000
0100
0000
0100
0000
0100
,
0000
0010
0001
0100
0010
1000
0010
0000
,
0001
0000
1000
0100
0000
0100
0000
0100
,
0000
0010
0100
0010
0100
1000
0001
0000
,
0100
0000
0010
1000
0000
1000
0000
1000
,
0000
0001
0100
0010
0100
0010
1000
0000
,
1000
0100
0010
0001
1000
0100
0010
0001
,
0100
0010
1000
0100
0010
0001
1000
0000
,
1010
0000
0101
0000
1000
0001
0100
0000
,
0010
1000
0100
0010
0100
0000
1001
0000
,
0011
0000
1100
0000
0001
1000
0100
0000
,
0010
0001
0100
0010
1000
0001
1000
0001
,
1000
0000
0101
0000
0010
1000
0100
0000
,
0001
0100
1000
0100
0001
0000
1100
0000
,
0101
0000
1100
0000
0010
0001
0100
0000
,
1000
0100
0001
0100
1000
0010
0100
0000
,
0001
0100
0001
0100
0010
1000
0100
0000
,
0001
0100
0001
0100
0010
1000
0100
0000
,
0011
0100
1010
0100
,
0011
0100
1010
0100
,
0010
1000
0010
0100
0010
0001
0010
0100
,
0010
0100
0010
0100
0010
0100
0010
0100
0010
0100
0010
0100
0020
0000
0000
0000
,
0000
0000
0000
0130
,
2002
0000
0000
0000
,
0000
0000
0003
0000
,
0020
0000
0000
0000
,
0000
0000
3000
0000
,
0200
0000
0000
0000
,
0000
0000
0030
0000
,
0002
0000
0000
0000
,
0000
0000
0300
0000
,
0020
0000
0003
0000
,
0032
0000
2003
0000
,
0020
0000
3000
0000
,
0230
0000
0320
2030
,
0002
0000
3000
0000
,
0023
0000
0230
0000
,
2000
0000
0000
0000
,
0300
0000
0002
3003
,
0010
0000
0000
0000
0001
0010
0100
1000
,
0000
0000
0001
0100
,
1000
0000
0000
0000
0001
0100
0000
0010
,
0000
0000
0100
1000
,
0001
0100
0001
0100
0010
1000
0010
1000
,
0100
1000
0100
1000
0001
0010
0001
0010
,
0001
0100
0010
1000
0100
0010
0001
0100
,
0010
0100
0001
0010
0100
1000
0010
0100
,
0020
0000
0000
0130
,
1000
0100
0010
0001
1000
0100
0010
0001
,
1000
0001
1000
0000
0101
0000
1100
0000
,
0001
0010
0100
1000
0001
0010
0100
1000
,
0001
1000
0001
0000
1010
0000
0011
0000
,
1000
0010
0100
0001
1000
0010
0100
0001
,
1000
0001
1000
0000
0110
0000
1001
0000
,
0001
0100
0010
1000
0001
0100
0010
1000
,
0001
0001
0001
1000
,
0001
0000
0010
0000
0100
0010
0001
0010
,
0100
1000
0100
0001
0100
0000
0010
0000
,
1000
0000
0010
0000
0100
0010
1000
0010
,
0100
0001
0100
1000
0100
0000
0010
0000
,
0001
0010
0001
0010
0100
1000
0100
1000
,
0001
0100
0001
0100
0010
1000
0010
1000
,
0001
0100
0010
1000
0010
0100
0001
1000
,
0001
1000
0001
1000
0001
1000
0001
1000
0001
1000
0001
1000
0001
0000
0000
0000
,
0110
0000
0000
0000
,
0000
0000
0000
0000
;
#NOTES:
     dance-single:
     :
     Challenge:
     18:
     :
0000
0000
0000
0000
,
0000
0000
0000
0000
,
0000
0000
0000
0000
,
0000
0000
0000
0000
,
0000
0000
0000
0100
,
1001
0000
0000
0000
0001
0000
1000
0100
0010
0000
0001
0000
0100
0000
0001
0000
,
0010
0000
0000
0000
0001
0000
1000
0010
0100
0000
0001
0000
0100
0000
0010
0000
,
1000
0000
1000
0000
0001
0000
0001
0000
0100
0000
0100
0000
0010
0100
0010
0000
,
1000
0100
1000
0100
1000
0100
1000
0100
0010
0001
0010
0001
0010
0001
0010
0001
,
1000
0100
0010
0001
0100
0010
1000
0100
0010
0001
0100
0010
1000
0000
0000
0000
,
1100
0000
0000
0000
0101
0000
0000
0000
0001
0000
1000
0000
0100
0000
0000
1000
,
0100
0010
0001
0100
0010
0000
1001
0000
,
1100
0000
0000
0000
0101
0000
0000
0000
1000
0000
0001
0000
0100
0000
0000
0001
,
0010
0100
1000
0001
0100
0001
0010
0001
,
0100
0000
0010
0000
1000
0000
0010
0000
0100
0000
0001
0010
0001
0010
0001
0000
,
0010
0100
1000
0000
0100
0000
0010
0001
0010
0000
0001
1000
0001
0000
0000
0000
,
0110
0000
0001
0000
1000
0000
0010
0000
0100
0001
0100
0000
0010
1000
0010
0000
,
1000
0100
0010
0001
1000
0100
0010
0001
0100
0010
1000
0001
0100
0000
0000
0000
,
0001
0010
0001
0010
0001
0100
1000
0100
,
0010
1000
0010
1000
0100
0001
0100
1000
,
0010
0100
0010
0100
1000
0100
0001
0010
,
0100
0010
0100
0010
0001
1000
1001
0000
,
0011
0000
0001
0000
0100
0000
0010
0000
1000
0000
0100
0000
0010
0001
0010
0000
,
0100
0000
1000
0100
1000
0000
0100
1000
0100
0000
0010
0000
0001
0000
1000
0000
,
0010
1000
0010
0000
0100
0001
0100
0000
0001
0010
0001
0000
1000
0100
1000
0000
,
0001
0100
0010
1000
0100
0010
0001
1000
0010
0100
0001
0100
0010
0000
0000
0000
,
1000
0000
0010
0000
1000
0000
0100
0000
1000
0000
0010
1000
0000
0010
1000
0000
,
0001
0000
0010
0000
0001
0000
0100
0000
0001
0000
0010
0001
0000
0010
0001
0000
,
0100
0000
0010
0000
1000
0000
0100
0000
0010
0000
0001
1000
0000
0001
1000
0000
,
0100
0000
0010
0000
0001
0000
0100
0000
0010
0000
1000
0001
0000
1000
0010
0000
,
0100
0000
0001
0000
0010
0000
0001
0000
0100
0000
0001
0010
0000
0001
0100
0000
,
0010
0000
1000
0000
0100
0000
1000
0000
0010
0000
1000
0100
0000
0010
0001
0000
,
0100
0000
0010
0000
1000
0000
0001
0000
0010
0000
0100
1000
0000
0001
0100
0000
,
0002
1000
1000
1003
,
0010
0000
1000
0000
1000
0000
0010
0000
1000
0000
0010
1000
0000
0010
0100
0010
,
0100
0000
0010
0000
0010
0000
0100
0000
0001
0000
0100
0001
0000
0010
0001
0010
,
0100
0000
1000
0000
1000
0000
0001
0000
0100
0000
0010
1000
0000
0010
1000
0010
,
0100
0000
0010
0000
0010
0000
0100
0000
0010
0000
0100
0010
0000
1000
0100
0010
,
0001
0000
0100
0010
0100
0000
0001
0000
0010
0000
0100
1000
0000
0001
0100
0001
,
0100
0000
0010
0100
0010
0000
1000
0000
0010
0000
1000
0100
0000
0010
0001
0010
,
0100
0000
1000
0010
1000
0000
0100
0000
0010
0000
0001
0100
0000
0001
1000
0001
,
1000
0001
0220
0330
,
1000
0100
1000
0100
1000
0000
0001
0000
0000
0000
0001
0000
0100
0000
0010
0000
,
1000
0100
1000
0000
0001
0100
0001
0000
1000
0000
0010
0100
0000
0100
0010
0000
,
0100
0000
0001
0000
1000
0000
0001
0010
0100
0010
0100
0010
0001
0000
0100
0010
,
1000
0100
0002
0000
0103
1000
0001
0000
,
0010
0001
0100
0010
1000
0000
0100
0000
0010
0000
0001
0000
1000
0100
0010
0000
,
0001
0100
0001
0100
0001
1000
0010
0000
1000
0100
1000
0100
1000
0000
0100
0010
,
0001
1000
0100
0000
0010
0100
0010
0000
0001
0100
0010
0000
1000
0100
0010
0000
,
0001
0100
0010
1000
0100
0010
0001
0010
0100
1000
0010
0100
0001
0000
0000
0000
,
1100
0000
0000
0000
0011
0000
0000
0000
0010
0000
0100
0000
1000
0000
0000
1000
,
0010
0100
0001
0010
0100
0000
0110
0000
,
0011
0000
0000
0000
1100
0000
0000
0000
1000
0000
0100
0000
0010
0000
0000
0001
,
0010
0000
1000
0000
0010
0000
0001
0000
0100
0010
1000
0000
0001
0100
0010
0000
,
1010
0000
0000
0000
0101
0000
0000
0000
0100
0000
0001
0000
1000
0000
0000
0001
,
0010
0100
1000
0001
0100
0000
0110
0000
,
0101
0000
0000
0000
1010
0000
0000
0000
0001
0000
1000
0000
0100
0000
0000
0010
,
0001
0010
0001
0010
0100
0100
1100
0000
,
1000
0010
1000
0010
0100
0100
0101
0000
,
0001
0010
1000
0010
0001
0001
1001
0000
,
1000
0100
0001
0100
1000
0100
0001
0100
,
1000
0010
0001
0010
1000
0010
0001
0010
,
1000
0010
1000
0010
0100
0001
1000
0001
0010
0100
0010
0100
1000
0001
0100
0010
,
1000
0001
1000
0001
1000
0001
1000
0001
1000
0001
1000
0001
1000
0000
0000
0000
,
0000
0000
0000
0001
,
2002
0000
0000
0003
,
3002
0000
0023
0000
,
0200
0000
0000
0030
,
2000
0000
0000
0300
3002
0000
0203
0000
,
0020
0000
0000
0300
,
0230
0000
0002
0300
,
2000
0000
0003
3002
,
0023
0230
2300
3002
,
2000
0000
0000
0003
,
3002
0000
0203
0000
,
0020
0000
0000
0300
,
2030
0000
3002
0023
,
0200
0000
0000
0030
,
0320
0000
0002
0030
,
2000
0000
0000
0000
,
0000
0003
0002
3003
,
1001
0000
0000
0000
0001
0100
0010
2000
,
0000
0000
3002
0023
,
0230
0000
0000
0000
1300
0002
0000
2003
,
0000
0000
3001
0110
,
0001
0100
0010
0010
1000
0100
0010
0010
,
0001
1000
0001
0001
1000
0001
1000
1000
,
0001
0100
0001
0100
0010
1000
0010
1000
0001
0010
0001
0010
0100
1000
0100
1000
,
0001
0010
0100
0010
0001
1000
0010
0100
0010
1000
0001
0100
0010
1000
0100
0010
,
0001
1000
1000
1000
,
1100
0000
0100
0000
0010
0000
0001
0000
0100
0000
0010
0100
0000
0100
0010
0000
,
1010
0000
1000
0000
0001
0000
0010
0000
1000
0000
0010
0100
0000
0100
0010
0000
,
0011
0000
0001
0000
1000
0000
0010
0000
0001
0000
0010
0100
0000
0100
0010
0000
,
0110
0000
0001
0000
1000
0000
0010
0000
0100
0000
0001
1000
0000
1000
0001
0000
,
1001
0000
0001
0000
1000
0000
0001
0000
0010
0000
0100
0010
0000
0001
0100
0001
,
0100
0000
0001
0000
0100
0000
0010
0000
1000
0000
0001
0010
0000
0100
1000
0100
,
1000
0000
0010
0000
0100
0000
0001
0000
0100
0000
0010
1000
0000
0010
1000
0001
,
0010
0001
0100
0010
1000
0001
0010
0100
1000
0001
0100
0010
1000
0000
0000
0000
,
0001
0100
1000
0100
0001
0000
0010
0000
0100
0000
1000
0100
0001
0000
0100
0000
,
1000
0010
0001
0000
1000
0100
0001
0000
0010
0000
0100
1000
0000
1000
0001
0000
,
0100
0000
0010
0000
0100
0001
0010
0000
0100
1000
0010
0100
0001
0000
0010
0001
,
0100
0000
0010
0000
1000
0000
0010
0000
0001
0000
0010
1000
0100
0000
0010
0000
,
0001
0010
1000
0010
0001
0000
1000
0000
0010
0000
0001
0000
1000
0100
0001
0000
,
1000
0010
0100
0001
0010
0000
0100
1000
0000
0001
0100
0000
0010
1000
0000
0000
,
0100
1000
0001
0100
0010
1000
0001
0010
0100
1000
0010
0100
0001
1000
0100
0010
,
0001
0010
0110
0000
,
1001
0000
0000
0000
,
0000
0000
0000
0000
;
#NOTES:
     dance-double:
     :
     Easy:
     8:
     :
00000000
00000000
00000000
00000000
,
00000000
00000000
00000000
00000000
,
00000000
00000000
00000000
00000000
,
00000000
00000000
00000000
00000000
,
00000000
00000000
00000000
00000010
,
00001001
00000000
00000000
00000000
,
00000000
00000000
00000000
00000000
,
00000001
00000001
00000100
00001000
,
00010000
00010000
00100000
10000000
,
00020000
00000000
00000000
00130000
,
01000000
01000000
00100000
00001000
,
00010000
00001000
00000100
00000000
,
00000010
00000010
00001000
00000100
,
00000010
00001000
00010000
01000000
,
00100000
00100000
00010000
01000000
,
00100000
10000000
00010000
00000000
,
10000000
10000000
01000000
00010000
,
00001000
00000010
00000001
00001000
,
00000002
00000000
00000000
00000003
,
00002000
00000000
00000000
00003000
,
00000020
00000000
00000000
00000030
,
00000200
00000000
00000000
00000301
,
00000100
00000100
00000010
00000010
,
00010000
00010000
00001000
00001000
,
00100000
00100000
00010000
00010000
,
10000000
10000000
01000000
00000000
,
00100000
10000000
01000000
00010000
,
00001000
00001000
00010000
00010000
,
00001000
00000010
00000001
00000100
,
00000010
00000010
00000100
00000100
,
00001000
00010000
00001000
00000100
,
00000001
00000001
00001000
00001000
,
00000001
00000010
00001000
00010000
,
00001000
00000000
00000000
00000000
,
00002000
00100000
00010000
00103000
,
00020000
00000010
00001000
00030010
,
00002000
01000000
00010000
01003000
,
00020000
00000100
00001000
00030100
,
00002000
00000000
00010000
00013000
,
00200000
00000000
10000000
10300000
,
02000000
00000000
00100000
03100000
,
00010000
10000000
00010000
00000000
,
10010000
00000000
00000000
00000000
,
00000000
00000000
00001000
00010000
,
00011000
00000000
00000000
00000000
,
00000000
00000000
00000001
00001000
,
00001001
00000000
00000000
00000000
,
00000000
00000000
00000010
00000010
,
00000001
00000100
00001000
00010000
,
00100000
10000000
00010000
00000000
,
01000000
01000000
00100000
00001000
,
00010000
00001000
00000100
00000000
,
00000010
00000010
00001000
00000100
,
00000010
00001000
00010000
01000000
,
00100000
00100000
00010000
01000000
,
00100000
10000000
00010000
00000000
,
10000000
10000000
01000000
00010000
,
00001000
00000010
00000001
00001000
,
00000010
00000001
00000100
00000000
,
00000010
00001000
00000100
00000000
,
00000001
00000001
00000100
00000100
,
00001000
00001000
00010000
00010000
,
01000000
10000000
00100000
01000000
,
00010000
00100000
00001000
00020000
,
00000000
00000000
00000000
00031000
,
00002000
00000000
00000000
00000000
,
00000000
00000000
00000000
00003000
,
00000200
00000000
00000000
00000000
,
00000000
00000000
00000000
00000300
,
00000020
00000000
00000000
00000000
,
00000000
00000000
00000000
00000030
,
00000002
00000000
00000000
00000000
,
00000000
00000000
00000000
00000003
,
00000200
00000000
00000000
00000300
,
00002000
00003000
00020000
00030000
,
02000000
00000000
00000000
03000000
,
20000000
30000000
00100000
01000000
,
00020000
00000000
00000000
00030000
,
00200000
00300000
00002000
00003000
,
00020000
00000000
00000000
00000000
,
00000000
00030000
00000010
00000000
,
00000100
00000100
00000001
00000000
,
00000010
00000010
00000100
00000000
,
00010000
00010000
00001000
00000000
,
00100000
00100000
00010000
00000000
,
01000000
00100000
10000000
01000000
,
00100000
01000000
00010000
00001000
,
00000010
00000001
00001000
00000010
,
00000100
00000001
00001000
00000001
,
00002000
00000000
00000000
00003010
,
00000100
00000100
00000010
00000010
,
00000001
00000100
00001000
00010000
,
00100000
00100000
01000000
01000000
,
00010000
01000000
00100000
10000000
,
00010000
00010000
10000000
10000000
,
01000000
00100000
00001000
00010000
,
00001000
00001000
00000010
00000010
,
00000001
00001000
00000001
00000000
,
00000001
00000100
00000010
00001000
,
00000010
00010000
00001000
00100000
,
00010000
10000000
00100000
01000000
,
00010000
01000000
00010000
00000000
,
10000000
10000000
01000000
01000000
,
00010000
00001000
00000100
00000001
,
00000010
00000100
00000010
00001000
,
00010000
00001000
00010000
00000000
,
00011000
00000000
00000000
00000000
,
00000000
00000000
00000000
00000000
;
#NOTES:
     dance-double:
     :
     Medium:
     11:
     :
00000000
00000000
00000000
00000000
,
00000000
00000000
00000000
00000000
,
00000000
00000000
00000000
00000000
,
00000000
00000000
00000000
00000000
,
00000000
00000000
00000000
00000000
,
00011000
00000000
00000000
00000000
,
00000000
00000000
00000000
00000000
,
00010000
00000010
00000100
00000001
,
00001000
00000100
00000010
00000000
00000001
00000100
00001000
00000000
,
00021000
00000000
00000000
00031000
,
00101000
00000000
00110000
00000000
00010000
01000000
00100000
00000000
,
10000000
01000000
10000000
00000000
00100000
00000000
00100000
00000000
,
00110000
00000000
00011000
00000000
00010000
00000010
00001000
00000000
,
00000100
00000000
00001000
00000000
00000001
00000100
00000001
00000000
,
00000110
00000000
00001001
00000000
00000100
00010000
00001000
00000000
,
00100000
00010000
00100000
00000000
01000000
00000000
01000000
00000000
,
01010000
00000000
11000000
00000000
00100000
00010000
01000000
00000000
,
10000000
00100000
00010000
00001000
,
00020000
00000000
00000000
00030000
,
00000200
00000000
00000000
00000300
,
00000020
00000000
00000000
00000030
,
00000002
00000000
00000000
00001003
,
00000010
00000010
00000100
00000100
,
00001000
00001000
00010000
00010000
,
00100000
10000000
00100000
00000000
01000000
00010000
01000000
00000000
,
00100000
00000000
10000000
00000000
01000000
00100000
01000000
00000000
,
00010000
00000000
00010000
00000000
00001000
00000000
00000010
00000001
,
00001000
00000000
00001000
00000000
00000010
00000100
00000001
00000000
,
00001000
00000000
00001000
00000000
00000100
00000000
00000010
00000100
,
00010000
00000000
00010000
00000000
00001000
00010000
00100000
00000000
,
01000000
00000000
01000000
00000000
00100000
00000000
10000000
00010000
,
01000000
00000000
01000000
00000000
00100000
10000000
01000000
00000000
,
00010000
00000000
00010000
00000000
00001000
00000000
00010000
00001000
,
00010000
00000000
00000000
00000000
,
00000010
00001000
00000010
00000000
00010000
00000000
00011000
00000000
,
00100000
00010000
00100000
00000000
00001000
00000000
00011000
00000000
,
00000100
00001000
00000100
00000000
00010000
00000000
00011000
00000000
,
01000000
00010000
01000000
00000000
00001000
00000000
00011000
00000000
,
00001000
00000100
00000010
00000000
00001000
00000000
00011000
00000000
,
00010000
01000000
00100000
00000000
00010000
00000000
00011000
00000000
,
00001000
00000100
00000010
00000000
00001000
00000000
00011000
00000000
,
00100000
00100000
00100000
00100000
,
00010000
00000000
01000000
00100000
00000000
00100000
00000000
00100000
,
00000000
10000000
00000000
10000000
01000000
00100000
01000000
00000000
,
00010000
00000000
00001000
00010000
00000000
00010000
00000000
00010000
,
00000000
00000100
00000000
00000100
00000010
00000100
00000010
00000000
,
00000001
00000000
00001000
00000010
00000000
00000010
00000000
00000010
,
00000000
00000100
00000000
00000100
00000001
00000100
00000001
00000000
,
00000100
00001000
00000100
00000000
00001000
00010000
00001000
00000000
,
00010000
00100000
00010000
00100000
01000000
00100000
01000000
00000000
,
10010000
00000000
00110000
00000000
00010000
01000000
00100000
00000000
,
10000000
01000000
10000000
00000000
00100000
00000000
00100000
00000000
,
00110000
00000000
00011000
00000000
00010000
00000010
00001000
00000000
,
00000100
00000000
00001000
00000000
00000001
00000100
00000001
00000000
,
00000110
00000000
00001001
00000000
00000100
00010000
00001000
00000000
,
00100000
00010000
00100000
00000000
01000000
00000000
01000000
00000000
,
01010000
00000000
11000000
00000000
00100000
00010000
01000000
00000000
,
10000000
00100000
00010000
00001000
,
00100000
00001000
00010000
00000000
00000100
00000000
00000100
00000000
,
00000010
00000100
00001000
00000000
00000001
00000000
00000001
00000000
,
00000100
00001000
00010000
01000000
,
10000000
00100000
00010000
00001000
,
00000010
00000001
00001000
00000100
,
00010000
00001000
00010000
00001000
00010000
00001000
00020000
00000000
,
00000000
00000000
00000000
00031000
,
00020000
00000000
00000000
00000000
,
00000000
00000000
00000000
00030000
,
00200000
00000000
00000000
00000000
,
00000000
00000000
00000000
00300000
,
20000000
00000000
00000000
00000000
,
00000000
00000000
00000000
30000000
,
02000000
00000000
00000000
03000000
,
01000000
00010000
00001000
00000100
,
00000002
00000000
00000000
00000000
,
00002003
00000000
00003020
00000000
,
00000230
00000000
00000000
00000000
,
00000302
00000000
00000013
00001000
,
00020000
00000000
00000000
00000000
,
00032000
00000000
00203000
00000000
,
00320000
00000000
00000000
00000000
,
00000000
00000000
02000000
03030000
,
00100000
00100000
10000000
10000000
,
01000000
01000000
00010000
00010000
,
00001000
00001000
00000100
00000100
,
00000001
00000001
00000010
00000010
,
00000100
00000010
00000100
00000000
00010000
00001000
00010000
00000000
,
00001000
00100000
00001000
00000000
01000000
00010000
01000000
00000000
,
00100000
10000000
01000000
00010000
,
00001000
00010000
00001000
00010000
00001000
00010000
00001000
00010000
,
00002000
00000000
00000000
00013000
,
00000010
00000000
00000010
00000000
00001000
00000010
00000100
00000010
,
00001000
00000001
00000100
00000100
,
00001000
00000000
00010000
00000000
00100000
10000000
00010000
10000000
,
00100000
10000000
00010000
01000000
,
00001000
00000000
00001000
00000000
00010000
01000000
00100000
01000000
,
00010000
01000000
10000000
00100000
,
00010000
00000000
00010000
00000000
00001000
00010000
00001000
00010000
,
00001000
00001000
00001000
00000010
,
00000001
00000000
00001000
00000000
00000010
00001000
00000001
00000000
,
00000010
00000001
00001000
00000000
00000001
00000000
00000100
00000000
,
00001000
00000000
00010000
00000000
00100000
01000000
00010000
00000000
,
00100000
01000000
10000000
00000000
00010000
00000000
10000000
00000000
,
00100000
10000000
00100000
00000000
01000000
00010000
01000000
00000000
,
00001000
00010000
00001000
00000000
00010000
00000010
00010000
00000000
,
00001000
00000010
00000001
00000100
,
00000010
00000100
00000010
00000100
00000001
00001000
00000001
00000000
,
00000110
00000000
00000000
00000000
,
00000000
00000000
00000000
00000000
;
#NOTES:
     dance-double:
     :
     Hard:
     14:
     :
00000000
00000000
00000000
00000000
,
00000000
00000000
00000000
00000000
,
00000000
00000000
00000000
00000000
,
00000000
00000000
00000000
00000000
,
00000000
00000000
00000000
00100000
,
10010000
00000000
00000000
00000000
,
00000000
00000000
00000000
00000000
,
10000000
01000000
10000000
01000000
00100000
01000000
00100000
01000000
,
00100000
00001000
00010000
00000010
00001000
00000001
00000100
00000010
,
00002000
00000000
00000000
00003001
,
00000011
00000000
00001100
00000000
00000001
00000100
00001000
00000000
,
00010000
00100000
01000000
00100000
10000000
00000000
10010000
00000000
,
10100000
00000000
01010000
00000000
10000000
01000000
00010000
00000000
,
00001000
00100000
00010000
00100000
00001000
00010000
00000010
00001000
,
00000001
00000000
00000101
00000000
00000010
00000100
00000001
00000000
,
00000010
00000100
00010000
00001000
00010000
00000000
00011000
00000000
,
00110000
00000000
11000000
00000000
00100000
00010000
01000000
00000000
,
00100000
10000000
00010000
01000000
00001000
00010000
00000100
00001000
,
00000002
00000000
00000000
00000003
,
00000020
00000000
00000000
00000030
,
00002000
00000000
00000000
00003000
,
00000200
00000000
00000000
00010300
,
00001000
00001000
00010000
00100000
,
01000000
01000000
10000000
00010000
,
10000000
01000000
00100000
00000000
01000000
00100000
00010000
00000000
,
01000000
00001000
00010000
00000010
00010000
00001000
01000000
00000000
,
00100000
10000000
00100000
10000000
00100000
01000000
00001000
00010000
,
00000100
00001000
00000100
00001000
00000100
00000010
00000001
00000100
,
00000010
00000100
00000010
00000100
00000010
00010000
00001000
00100000
,
00010000
10000000
00010000
10000000
00010000
01000000
00100000
00000000
,
10000000
01000000
10000000
01000000
10000000
01000000
00100000
00010000
,
00001000
00010000
00001000
00010000
00001000
00000100
00000010
00000001
,
00000100
00000010
00000100
00000010
00000100
00000010
00010000
00001000
,
00010000
00000000
00000000
00000000
,
00001000
00000000
00100000
00000000
00010000
00000000
00000000
00000000
00100000
00000000
00000000
01000000
00000000
00000000
10000000
00000000
,
00100000
00000000
10000000
00000000
00010000
00000000
00000000
00000000
01000000
00000000
00000000
00010000
00000000
00000000
00001000
00000000
,
00000010
00000000
00000100
00000000
00000001
00000000
00000000
00000000
00001000
00000000
00000000
00000100
00000000
00000000
00000010
00000000
,
00000001
00000000
00000100
00000000
00000010
00000000
00000000
00000000
00000100
00000000
00000000
00001000
00000000
00000000
00010000
00000000
,
00100000
00000000
01000000
00000000
00010000
00000000
00000000
00000000
10000000
00000000
01000000
10000000
00000000
01000000
10000000
00000000
,
01000000
00000000
00100000
00000000
00010000
00000000
00000000
00000000
00100000
00000000
00001000
00010000
00000000
00001000
00010000
00000000
,
00000010
00000000
00001000
00000000
00000001
00000000
00000000
00000000
00000010
00000000
00000100
00000010
00000000
00000100
00000010
00000000
,
00000001
00000100
00000010
00001000
,
00000010
00000000
00001000
00010000
00000000
00010000
00000000
00010000
,
00000000
01000000
00000000
01000000
00100000
10000000
00100000
00000000
,
10000000
00000000
01000000
00100000
00000000
00100000
00000000
00100000
,
00000000
00010000
00000000
00010000
00001000
00010000
00001000
00000000
,
00000100
00000000
00000010
00000100
00000000
00000100
00000000
00000100
,
00000000
00000010
00000000
00000010
00000001
00000100
00000001
00000000
,
00001000
00000001
00000100
00000010
00001000
00000001
00001000
00000100
,
00010000
00001000
00100000
00010000
10000000
00100000
01000000
00000000
,
10100000
00000000
01010000
00000000
10000000
01000000
00010000
00000000
,
00001000
00000010
00000100
00000010
00000001
00000000
00001001
00000000
,
00000011
00000000
00001100
00000000
00000001
00000100
00001000
00000000
,
00010000
00000010
00001000
00000010
00010000
00001000
00100000
00010000
,
10000000
00000000
11000000
00000000
00100000
01000000
10000000
00000000
,
00100000
01000000
00001000
00010000
00001000
00000000
00011000
00000000
,
00001010
00000000
00000101
00000000
00000010
00001000
00000100
00000000
,
00000010
00000001
00001000
00000100
00010000
00001000
01000000
00000000
,
00100000
10000000
00100000
10000000
01000000
00100000
00010000
00000000
,
00001000
00000010
00001000
00000010
00000100
00000001
00001000
00000000
,
00000011
00000100
00001010
00010000
,
00110000
01000000
10100000
01000000
,
00100000
10000000
00100000
01000000
00100000
00010000
00100000
01000000
,
00100000
10000000
01000000
00010000
00001000
00000100
00000002
00000000
,
00000000
00000000
00000000
00000013
,
00000210
00000000
00000000
00000000
,
00000010
00000000
00001000
00000000
,
00020300
00000000
00000000
00000000
,
00000010
00000000
00031000
00010000
,
00002000
00000000
00000000
00000000
,
00023000
00000000
02030000
00000000
,
23000000
00000000
00000000
30010000
,
10000000
00100000
00010000
00001000
,
00000020
00000000
00000000
00000000
,
00000001
00000000
00000100
00000000
,
00002030
00000000
00000000
00000000
,
00010000
00000000
00003100
00000001
,
00002000
00000000
00000000
00000000
,
00023000
00000000
00230000
00000000
,
02300000
00000000
00000000
00000000
,
00000000
00000000
00100000
03000000
,
00010000
00000000
00000000
00000000
10000000
00100000
01000000
00010000
,
00000000
00000000
00100000
00001000
,
00000010
00000000
00000000
00000000
00000001
00001000
00000000
00000010
,
00000000
00000000
00000100
00000001
,
00000010
00000001
00000010
00000001
00001000
00000100
00001000
00000100
,
00010000
00001000
00010000
00001000
01000000
00010000
01000000
00010000
,
10000000
01000000
00100000
00010000
01000000
00100000
01000000
00001000
,
00010000
00000100
00001000
00000001
00000100
00000010
00001000
00000100
,
00000020
00000000
00000000
00000130
,
00000010
00000001
00000100
00000000
00000010
00001000
00010000
01000000
,
00100000
10000000
00010000
00000000
12000000
00000000
03010000
00000000
,
10000000
00100000
01000000
00000000
00010000
10000000
01000000
00100000
,
00010000
00001000
00010000
00000000
00012000
00000000
00003100
00000000
,
00000010
00001000
00000100
00000000
00000010
00000001
00001000
00000001
,
00000100
00000010
00001000
00000000
00000201
00000000
00001300
00000000
,
00000100
00001000
00010000
00000000
00001000
00010000
01000000
10000000
,
00100000
00100000
00100000
01000000
,
00100000
00010000
00001000
00000000
00000010
00000001
00001000
00000010
,
00000100
00000001
00000100
00000000
00001000
00000000
00010000
00000000
,
01000000
10000000
01000000
00000000
00100000
00010000
01000000
00100000
,
00010000
00001000
00010000
00000000
00001000
00000000
00000100
00000000
,
00000001
00000010
00000100
00000010
00000100
00010000
00001000
00010000
,
00001000
01000000
00010000
01000000
00100000
10000000
00100000
01000000
,
00010000
10000000
01000000
00010000
00001000
00000100
00000001
00000010
,
00000001
00001000
00000001
00001000
00000001
00001000
00000001
00001000
00000001
00001000
00000001
00001000
00000001
00000000
00000000
00000000
,
00000110
00000000
00000000
00000000
,
00000000
00000000
00000000
00000000
;
#NOTES:
     dance-double:
     :
     Challenge:
     18:
     :
00000000
00000000
00000000
00000000
,
00000000
00000000
00000000
00000000
,
00000000
00000000
00000000
00000000
,
00000000
00000000
00000000
00000000
,
00000000
00000000
00000000
00100000
,
10010000
00000000
00000000
00000000
10000000
00000000
00010000
00100000
01000000
00000000
10000000
00000000
00100000
00000000
01000000
00000000
,
00010000
00100000
00001000
00010000
00000100
00001000
00000010
00000100
,
00000001
00000001
00000100
00000100
00001000
00001000
00010000
00010000
,
00100000
10000000
01000000
00010000
01000000
10000000
00100000
00000000
,
10000000
01000000
10000000
01000000
00100000
00010000
00100000
00001000
00010000
00001000
00010000
00000100
00001000
00000000
00000000
00000000
,
00001010
00000000
00000000
00000000
00001100
00000000
00000000
00000000
00001000
00000000
00000001
00000000
00000100
00000000
00000000
00000001
,
00000100
00001000
00010000
00100000
10000000
00000000
10010000
00000000
,
00110000
00000000
00000000
00000000
01010000
00000000
00000000
00000000
00010000
00000000
10000000
00000000
01000000
00000000
00000000
10000000
,
01000000
00100000
00010000
00100000
00010000
00001000
00000100
00001000
,
00001010
00000000
00000000
00000000
00001100
00000000
00000000
00000000
00001000
00000000
00000001
00000000
00000100
00000000
00000000
00000001
,
00000100
00001000
00010000
00100000
10000000
00000000
10010000
00000000
,
10100000
00000000
11000000
00000000
10000000
00010000
01000000
00000000
,
00100000
10000000
00100000
10000000
00010000
00100000
00010000
00100000
00001000
00010000
00000100
00001000
00000020
00000000
00000000
00000000
,
00000031
00000010
00000001
00000010
00000001
00000010
00001000
00000100
,
00000001
00000100
00000001
00000100
00010000
01000000
10000000
01000000
,
00100000
10000000
00100000
10000000
00100000
10000000
00100000
00010000
,
01000000
10000000
01000000
10000000
01000000
00001000
00000100
00000010
,
00001000
00000000
00000001
00000010
00000001
00000000
00000100
00000000
00000010
00001000
00000010
00000000
00010000
00001000
00010000
00000000
,
00001000
00000000
01000000
00010000
01000000
00000000
00100000
00000000
10000000
00010000
10000000
00000000
01000000
00100000
01000000
00000000
,
10000000
00100000
01000000
00000000
00100000
00000000
00010000
00000000
00001000
00010000
00000010
00000000
00001000
00000000
00000100
00000000
,
00000010
00000001
00000010
00000001
00001000
00000100
00001000
00000100
00010000
00001000
00010000
00001000
00010000
00000000
00000000
00000000
,
00001000
00000000
00010000
00000000
00100000
00000000
00010000
00000000
00001000
00000000
01000000
00000000
00010000
00100000
00010000
00000000
,
10000000
01000000
00100000
00010000
00001000
00000100
00000010
00000001
,
00000100
00000000
00001000
00000000
00010000
00000000
00001000
00000000
00000100
00000000
00000010
00000000
00001000
00000100
00001000
00000000
,
00000001
00000100
00000010
00001000
00010000
01000000
00100000
10000000
,
01000000
00000000
00010000
00000000
00001000
00000000
00010000
00000000
00100000
00000000
10000000
00000000
00010000
10000000
00010000
00000000
,
10000000
00100000
01000000
00010000
00001000
00000010
00000100
00000001
,
00000010
00000000
00001000
00000000
00010000
00000000
00001000
00000000
00000100
00000000
00000001
00000000
00000010
00000100
00010000
00000000
,
00001000
00001000
00010000
00010000
01000000
10000000
00100000
00000000
,
10000000
00000000
00100000
00000000
00100000
00000000
01000000
00000000
00100000
00000000
01000000
00100000
00000000
01000000
00100000
00000000
,
10000000
01000000
00010000
01000000
00001000
01000000
00010000
00001000
,
00000010
00000000
00000100
00000000
00000100
00000000
00000010
00000000
00000100
00000000
00000010
00000100
00000000
00000010
00000100
00000000
,
00000001
00000100
00001000
00000100
00010000
00000100
00001000
00000100
,
00000010
00000001
00000100
00000000
00000100
00000000
00000010
00000000
00001000
00000000
00001000
00000100
00010000
00000000
00001000
00000000
,
01000000
00010000
00100000
00000000
00100000
00000000
01000000
00000000
10000000
00000000
10000000
00100000
10000000
00000000
00100000
00000000
,
01000000
00010000
01000000
00000000
00100000
00000000
00010000
00000000
00001000
00000000
00010000
00001000
00010000
00000000
00010000
00000000
,
00000100
00001000
00000010
00000001
00001000
00000100
00000001
00000010
,
00000100
00001000
00000100
00001000
00000100
00000000
00010000
00000000
00000000
00000000
00010000
00000000
00001000
00000000
00010000
00000000
,
00100000
01000000
00100000
00000000
10000000
00100000
10000000
00000000
00010000
00000000
01000000
00100000
00000000
00100000
01000000
00000000
,
00010000
00000000
00100000
00000000
01000000
00000000
00010000
00000000
00001000
00010000
00001000
00010000
00001000
00000000
00001000
00000010
,
00000001
00000100
00001000
00000100
00000001
00001000
00001001
00000000
,
00001000
00000001
00000010
00000100
00001000
00000000
00000010
00000000
00010000
00000000
00001000
00000000
00100000
00010000
00100000
00000000
,
01000000
10000000
01000000
10000000
00100000
00000000
01000000
00100000
00000000
00100000
01000000
00000000
00010000
00100000
00001000
00000000
,
00010000
00001000
00010000
00000000
00001000
00010000
00001000
00000000
00000100
00000010
00000100
00000000
00000010
00000000
00001000
00000000
,
00000001
00000100
00000001
00000100
00000010
00001000
00000010
00001000
00000100
00010000
00001000
00010000
00001000
00000000
00000000
00000000
,
01001000
00000000
00000000
00000000
00110000
00000000
00000000
00000000
00100000
00000000
00001000
00000000
00100000
00000000
00000000
00100000
,
01000000
00010000
00001000
00000010
00000100
00001000
00000010
00000000
,
00010010
00000000
00000000
00000000
00001100
00000000
00000000
00000000
00000100
00000000
00010000
00000000
00000100
00000000
00000000
00000001
,
00000100
00000000
00001000
00000000
00000010
00000000
00000100
00000000
00001000
00010000
00001000
00000000
01000000
00010000
00100000
00000000
,
00101000
00000000
00000000
00000000
01010000
00000000
00000000
00000000
00010000
00000000
10000000
00000000
01000000
00000000
00000000
10000000
,
00100000
00010000
00001000
00000100
00000010
00000000
00000110
00000000
,
00010010
00000000
00000000
00000000
00001100
00000000
00000000
00000000
00001000
00000000
00000001
00000000
00000010
00000000
00000000
00000010
,
00000001
00000100
00001000
00010000
00001000
00000010
00001000
00000000
,
00010000
00100000
00010000
00001000
00010000
01000000
10000000
00000000
,
10000000
00100000
00010000
00001000
00000100
00000001
00000010
00000000
,
00000001
00000000
00000010
00000100
00001000
00000000
00001000
00000000
00000010
00000000
00001000
00000100
00010000
00000000
00010000
00000000
,
00001000
00000000
00010000
00001000
01000000
00000000
01000000
00000000
00010000
00000000
00100000
01000000
10000000
00000000
10000000
00000000
,
00100000
01000000
00010000
00000000
00100000
01000000
00010000
00000000
00001000
00000010
00000100
00000000
00001000
00000010
00000100
00000000
,
00000001
00000100
00000010
00001000
00000100
00010000
00001000
00100000
00010000
01000000
00100000
10000000
01000000
00000000
00000000
00000000
,
00000000
00000000
00000000
00100000
,
02200000
00000000
00000000
03000000
,
00302000
00000000
00023000
00000000
,
00030200
00000000
00000000
00000000
,
00000001
00000000
00001300
00000010
,
00000200
00000000
00000000
00000000
,
00000001
00000000
00001000
00000000
,
00020300
00000000
00000000
01030000
,
00020000
00230000
02300000
23000000
,
00020000
00000000
00000000
30000000
,
00100000
00000000
00030020
00000000
,
00000200
00000000
00000000
00000030
,
00000001
00000000
00020300
02030000
,
00100000
00000000
00000000
00000000
,
10000000
00000000
03100000
00000000
,
00022000
00000000
00000000
00000000
,
00000000
00000000
00000000
00033000
,
00011000
00000000
00000000
00000000
00010000
00000100
00000010
00000002
,
00000000
00000003
00000002
00000203
,
00002300
00000000
00000000
00000000
00013000
00002000
00000000
02003000
,
00000000
00000000
03100000
01100000
,
01000000
00010000
00100000
00100000
00001000
00010000
00000010
00000010
,
00000100
00001000
00010000
00010000
00001000
01000000
00100000
00100000
,
10000000
01000000
10000000
01000000
00100000
00010000
00100000
00001000
00010000
00000100
00010000
00000100
00001000
00000010
00001000
00000010
,
00000100
00000001
00000100
00000010
00001000
00000010
00010000
00001000
00010000
00000100
00010000
00001000
01000000
00010000
00100000
01000000
,
10000000
00100000
00100000
00100000
,
10000000
00000000
00010000
01000000
00010000
00000000
00100000
00000000
00001000
00000000
00010000
00001000
00000000
00001000
00010000
00000000
,
00000100
00001000
00000010
00000001
00000010
00001000
00000100
00000001
,
00000100
00000000
00000010
00000001
00000010
00000000
00000100
00000000
00001000
00000000
00000010
00000100
00000000
00000100
00000010
00000000
,
00000001
00000010
00001000
00000010
00010000
00001000
01000000
00010000
,
00100000
00000000
01000000
10000000
00010000
00000000
01000000
00000000
00001000
00000000
00010000
00000100
00000000
00000100
00001000
00000000
,
00000010
00000100
00001000
00010000
00001000
00000010
00000001
00001000
,
00000010
00000000
00001000
00000100
00001000
00000000
00000010
00000000
00010000
00000000
00001000
00100000
00000000
00100000
00010000
00000000
,
01000000
00010000
01000000
00010000
10000000
00100000
10000000
01000000
00100000
01000000
00100000
01000000
00100000
00000000
00000000
00000000
,
00010000
00100000
01000000
00100000
00010000
00000000
01000000
00000000
00000000
00000000
01000000
00000000
00100000
00000000
00010000
00000000
,
00001000
00000100
00000001
00000000
00001000
00000000
00000100
00000000
00000001
00000000
00000100
00000010
00000000
00000010
00000100
00000000
,
00001000
00000000
00000010
00000000
00010000
00000000
00001000
00010000
00001000
00000000
01000000
00010000
01000000
00000000
00100000
00000000
,
10000000
00000000
01000000
00100000
00010000
00000000
00100000
00000000
00001000
00000000
00010000
00000000
00011000
00000000
00000000
00000000
,
00001000
00010000
00000010
00001000
00000010
00000000
00001000
00000000
00000001
00000000
00000100
00000000
00000010
00001000
00000010
00000000
,
00000100
00000000
00001000
00000000
00010000
00000000
00100000
01000000
00000000
00100000
01000000
00000000
00010000
10000000
00010000
00000000
,
10000000
00100000
01000000
00100000
01000000
00010000
00100000
00001000
00010000
00000100
00010000
00000100
00001000
00000010
00001000
00000100
,
00000010
00000001
00001000
00000000
,
00011000
00000000
00000000
00000000
,
00000000
00000000
00000000
00000000
;
