
//----- song id: papi
#TITLE:パ→ピ→プ→Yeah!;
#ARTIST:ヒゲドライバー join. shully & Nimo;
#TITLETRANSLIT:Pa→pi→pu→Yeah!;
#ARTISTTRANSLIT:Hige Driver join. shully & Nimo;
#BANNER:Pa pi pu Yeah!.png;
#BACKGROUND:Pa pi pu Yeah!-bg.png;
#CDTITLE:./CDTitles/DDR (2014).png;
#MUSIC:Pa pi pu Yeah!.ogg;
#SAMPLESTART:62.997;
#SAMPLELENGTH:15;
#BPMS:0=160;
#NOTES:
     dance-single:
     :
     Beginner:
     3:
     :
0000
0000
0000
0000
,
0000
0000
0000
0000
,
0000
0000
0000
0000
,
0000
0000
0000
0000
,
0000
0000
0000
0000
,
0000
0000
0000
0000
,
0010
0000
0000
0000
,
0000
0000
0000
0000
,
0010
0000
0000
0000
,
0000
0000
0000
0000
,
1000
0000
0000
0000
,
0000
0000
0000
0000
,
1000
0000
0000
0000
,
0000
0000
0000
0000
,
0001
0000
0000
0000
,
0000
0000
0000
0000
,
0001
0000
0000
0000
,
1000
0000
0000
0000
,
0001
0000
0000
0000
,
0000
0000
0000
0000
,
0010
0000
0000
0000
,
0000
0000
0000
0000
,
0010
0000
0000
0000
,
0000
0000
0000
0000
,
0001
0000
0000
0000
,
0001
0000
0000
0000
,
1000
0000
0000
0000
,
1000
0000
1000
0000
,
1000
0000
0000
0000
,
1000
0000
0000
0000
,
0001
0000
0000
0000
,
0001
0000
0001
0000
,
0001
0000
0000
0000
,
1000
0000
0000
0000
,
0001
0000
1000
0000
,
0001
0000
0000
0000
,
1000
0000
0001
0000
,
1000
0000
0000
0000
,
1000
0000
1000
0000
,
0001
0000
0000
0000
,
0001
0000
0001
0000
,
1000
0000
0000
0000
,
0001
0000
0001
0000
,
0001
0000
0000
0000
,
0010
0000
0000
0000
,
0010
0000
0000
0000
,
1000
0000
1000
0000
,
1000
0000
0000
0000
,
0010
0000
0000
0000
,
0010
0000
0000
0000
,
0001
0001
0001
0000
,
1000
1000
1000
0000
,
0010
0000
0000
0000
,
0010
0000
0000
0000
,
1000
0001
1000
0001
,
1000
0001
1000
0000
,
0010
0000
0010
0000
,
0000
0000
0000
0000
,
0010
0000
0000
0000
,
0010
0000
0000
0000
,
0010
0000
0000
0000
,
0010
0000
0000
0000
,
0000
0000
0000
0000
,
0000
0000
0000
0000
,
0000
0000
0000
0000
,
0000
0000
0000
0000
,
0010
0000
0000
0000
,
0010
0000
0000
0000
,
0010
0000
0000
0000
,
1001
0000
0000
0000
,
0000
0000
0000
0000
;
#NOTES:
     dance-single:
     :
     Easy:
     5:
     :
0000
0000
0000
0000
,
0000
0000
0000
0000
,
0000
0000
0000
0000
,
0000
0000
0000
0000
,
0000
0000
0000
0000
,
0000
0000
0000
0000
,
0010
0000
0000
0000
,
0010
0000
0000
0000
,
0010
0000
0000
0000
,
2002
0000
3003
0000
,
1000
0000
0000
0000
,
0001
0000
0000
0000
,
1000
0000
0000
0000
,
0010
0010
0010
0000
,
0001
0000
0001
0000
,
1000
0000
0000
0000
,
1000
0000
1000
0000
,
0001
0000
0000
0000
,
0200
0000
0300
0000
,
0100
0000
0100
0000
,
0010
0000
0000
0000
,
0010
0000
0000
0000
,
0010
0000
0000
0000
,
2002
0000
3003
0000
,
0001
0000
1000
0000
,
0001
0000
0000
0000
,
1000
0000
0001
0000
,
0010
0010
0010
0000
,
1000
0000
0001
0000
,
1000
0000
0010
0010
,
0001
0000
1000
0000
,
0001
0100
1000
0100
,
0002
0000
0000
0003
,
2000
0000
0000
3000
,
0200
0000
0000
0300
,
0020
0000
0000
0030
,
0001
0000
0001
0000
,
0100
0000
0000
0000
,
1000
0000
1000
0000
,
0100
0000
0000
0000
,
0020
0000
0030
0000
,
2002
0000
3003
0000
,
0010
0000
0010
0000
,
0100
0000
0000
0000
,
0010
0000
0010
0000
,
0010
0000
1001
1001
,
0010
0000
0100
0000
,
0010
0000
0000
0000
,
0010
0000
0010
0000
,
0100
0000
0000
0000
,
0010
0100
0010
0100
,
0010
0000
0000
0000
,
0010
0000
0010
0000
,
0010
0000
1001
1001
,
0001
1000
0001
1000
,
0001
1000
0001
0000
,
0010
0000
0010
0000
,
0000
0000
0000
0000
,
0010
0000
0000
0000
,
0010
0000
0000
0000
,
0010
0000
0000
0000
,
2002
0000
0000
3003
,
0000
0000
0000
0000
,
0000
0000
0000
0000
,
0000
0000
0000
0000
,
0000
0000
0000
0000
,
0010
0000
0000
0000
,
0010
0000
0000
0000
,
0010
0000
0000
0000
,
2002
0000
0000
3003
,
0000
0000
0000
0000
;
#NOTES:
     dance-single:
     :
     Medium:
     10:
     :
0000
0000
0000
0000
,
0000
0000
0000
0000
,
0000
0000
0000
0000
,
0000
0000
0000
0000
,
0110
0000
0110
0000
0010
1000
0100
0000
,
0110
0000
0110
0000
0010
0001
0100
0000
,
0010
0000
0000
0000
1000
0000
0000
0100
,
0010
0000
0000
0000
0001
0000
0000
0100
,
0010
0000
0000
0000
0110
0000
0000
1000
,
2002
0000
0000
0000
0000
3003
0000
0000
,
1000
0000
0001
0001
0010
0000
1000
1000
,
0010
0000
0000
0000
0000
0000
0000
0000
0100
0000
0000
0010
0000
0000
1000
0000
,
0001
0000
1000
0100
0010
0000
0001
1000
,
0010
0000
0100
0000
0001
1000
0001
1000
,
0001
0000
1000
0100
0010
0000
0001
0100
,
0010
0000
0000
0000
0000
0000
0000
0000
0100
0000
0000
0010
0000
0000
1000
0000
,
0001
0000
0100
0100
0010
0000
0000
0000
,
0001
1000
0100
0000
1000
0001
0100
0000
,
2200
0000
0000
0000
0000
3300
0000
0000
,
0100
0100
1000
0000
0001
0001
0010
0000
,
1010
0000
0000
0000
1001
0000
0000
0100
,
0011
0000
0000
0000
1001
0000
0000
0100
,
1010
0000
0000
0000
0110
0000
0000
0100
,
2002
0000
0000
0000
0000
3003
0000
0000
,
0001
0000
0010
0100
0010
0000
0001
1000
,
0001
0000
0000
0000
0010
0000
0100
0000
0010
0000
0000
0110
0000
0000
0001
0000
,
1000
0000
0010
0100
0010
0000
1000
0001
,
1000
0001
0100
0000
0001
1000
0100
0000
,
1000
0000
0010
0100
0010
0000
1000
0001
,
1000
0000
0000
0000
0010
0000
0100
0000
0010
0000
0000
0110
0000
0000
1000
0000
,
0001
0000
0010
0100
0010
0000
0001
1000
,
0001
1000
0001
1000
0100
0010
0100
0010
,
0200
0000
0300
0000
0000
1000
0010
0000
,
0110
0000
0000
0000
0100
0001
0100
0000
,
1000
0100
0001
0100
,
1000
1000
0010
0000
0100
0100
0010
0000
,
0200
0000
0000
0300
0000
0001
0010
0000
,
0110
0000
0000
0000
0001
0100
0001
0000
,
1000
1000
1000
0000
0001
0001
0001
0000
,
0010
1000
0100
0000
0010
0001
0100
0000
,
2002
0000
0000
0000
3003
0000
0000
2000
,
0020
0000
3030
0000
1010
0000
1000
0100
,
0010
0000
0010
0100
0100
0000
1000
0001
,
0100
0000
0100
0100
0010
0000
0000
0000
,
0010
1000
0100
0000
1000
0100
1000
0000
,
0001
1000
0100
0000
1100
0000
0101
0000
,
0010
0000
0010
0100
0100
0000
0001
1000
,
0100
0000
0100
0100
0010
0000
0010
0001
,
0100
0000
0001
0100
0001
0000
1000
0001
,
0100
0101
1100
1100
,
0010
0000
0100
0010
0100
0000
0001
1000
,
0100
0000
0010
0100
0010
0000
0010
0000
,
0010
0001
0100
0000
0001
0100
0001
0000
,
1000
0001
0100
0000
0101
0000
1100
0000
,
0010
1000
0100
0001
,
0010
0010
0010
0000
,
0010
0001
0100
0000
0001
0100
0001
0000
,
1000
0001
0100
0000
0001
0100
0101
0000
,
0010
0000
0000
0000
1000
0001
1000
0100
,
0010
0000
0000
0000
0001
1000
0001
0100
,
0010
0000
0000
0000
1000
0100
1000
0001
,
2002
0000
0000
0000
0000
3003
0000
0000
,
0000
0000
0000
0000
,
0000
0000
0000
0000
,
0110
0000
0110
0000
0010
1000
0100
0000
,
0110
0000
0110
0000
0010
0001
0100
0000
,
1010
0000
0000
1000
0010
0000
0000
0100
,
0011
0000
0000
0001
0010
0000
0000
0100
,
1010
0000
0000
0100
0010
0000
0000
0100
,
2002
0000
0000
0000
0000
0000
0000
3003
,
0000
0000
0000
0000
;
#NOTES:
     dance-single:
     :
     Hard:
     13:
     :
0000
0000
0000
0000
,
0000
0000
0000
0000
,
0000
0000
0000
0000
,
0000
0000
0000
0000
,
1001
0000
0000
0000
1001
0000
0000
0000
1000
0000
0000
0001
0000
0000
0100
0000
,
0110
0000
0000
0000
0110
0000
0000
0000
0100
0000
0000
0001
0000
0000
1000
0000
,
0100
1000
0100
1000
0010
1000
0010
1000
,
0001
0100
0001
0100
0010
1000
0010
1000
,
0100
1000
0100
1000
0001
1000
0001
1000
,
2002
0000
0000
0000
0000
3003
0000
0000
,
1000
0000
0100
0000
0001
0000
0100
0001
,
0100
0000
0000
0000
1000
0000
0000
0000
0010
0000
0000
0010
0000
0000
0001
0000
,
1000
0100
0001
0100
,
0001
0100
0001
0100
0010
1000
0010
1000
,
0001
0000
0100
0000
1000
0000
0100
1000
,
0100
0000
0000
0000
0001
0000
0000
0000
0010
0000
0000
0010
0000
0000
1000
0000
,
0001
0100
1000
0100
,
1000
0000
1000
0000
0001
1000
0001
0000
,
2002
0000
0000
3003
,
1000
0100
0100
0000
1000
0010
0010
0000
,
0100
0001
0100
0001
0010
0001
0010
0001
,
1000
0100
1000
0100
0010
0001
0010
0001
,
0100
0001
0100
0001
1000
0001
1000
0001
,
2002
0000
0000
0000
0000
3003
0000
0000
,
1000
0000
0100
0000
0001
0000
0100
0001
,
0010
0000
0000
0000
0100
0000
0000
0000
1100
0000
0000
1100
0000
0000
0101
0000
,
1000
0100
0001
0100
,
1000
0100
0001
0100
0001
0100
1000
0010
,
1000
0000
0100
0000
0001
0000
0100
0001
,
0100
0000
0000
0000
1000
0000
0000
0000
1100
0000
0000
1100
0000
0000
0011
0000
,
1000
0100
0001
0100
,
1000
0100
1000
0100
0010
0001
0010
0001
,
0200
0000
0000
0300
0000
0001
0001
0010
,
0011
0000
0000
1000
0000
0000
0101
0000
0000
0000
0000
0000
0000
0000
0010
0000
,
0100
0010
1010
1100
,
0022
0000
0000
0000
0000
0033
0000
0001
,
0100
0000
0000
0000
0100
0100
0001
0010
,
0011
0000
0000
1000
0000
0000
2200
0000
0000
0000
0000
0000
3300
0000
0000
0000
,
0001
0000
0000
1000
0000
0000
0100
0000
1000
0000
0000
0010
0000
0000
0100
0000
,
0001
0000
0000
0010
0000
0000
0100
0000
1000
0000
0000
0000
0001
0000
0000
0000
,
1000
0100
1000
0100
1000
0100
1000
0100
,
0022
0033
0011
1010
,
1000
0100
1000
0100
1000
0100
0001
0100
,
1000
0000
0000
0001
0000
0000
0101
0000
1010
0000
0000
0000
0000
0000
0000
0000
,
0100
0010
0000
1000
0000
0001
0000
1000
0100
0010
0000
0001
0000
1000
0000
0001
,
0100
0010
0000
1000
0000
0001
0000
1000
0100
0000
0000
0000
0011
0000
0000
0000
,
1000
0000
1000
0000
0100
0000
0000
0000
0010
0000
0000
0010
0000
0000
0100
0000
,
1000
0100
0000
1000
0020
0000
0030
0000
,
0100
0010
0000
1000
0000
0001
0000
1000
0100
0010
0000
0001
0000
1000
0000
0001
,
0000
0000
0010
0000
0001
0000
0100
0000
0010
0000
0000
1000
0000
0000
0100
0000
,
0001
0100
0001
0100
0001
0100
1000
0100
,
0001
0000
0000
1000
0000
0000
1100
0000
0011
0000
0000
0000
0010
0000
0001
0000
,
0100
0010
0000
1000
0000
0001
0000
1000
0100
0010
0000
0001
0000
1000
0000
0001
,
0100
0010
0000
1000
0000
0001
0000
1000
0100
0000
0000
0000
0011
0000
0000
0000
,
0001
0001
0001
0001
,
1000
0000
0000
0100
0000
0000
0010
0000
0001
0000
0000
0000
0000
0000
0000
0000
,
0100
0010
0000
1000
0000
0001
0000
1000
0100
0010
0000
0001
0000
1000
0000
0001
,
0000
0000
0010
0000
0001
0000
0100
0000
0010
0000
0000
1000
0000
0000
0100
0000
,
0001
0000
0000
0000
0000
0000
0000
0000
0100
0000
0000
0100
0000
0000
1000
0000
,
0010
0000
0000
0000
0000
0000
0000
0000
0100
0000
0000
0100
0000
0000
0001
0000
,
0010
0000
0000
0000
0000
0000
0000
0000
0001
0000
0000
0001
0000
0000
1000
0000
,
2002
0000
0000
0000
0000
0000
0000
3003
,
0000
0000
0000
0000
,
0000
0000
0000
0000
,
1001
0000
0000
0000
1001
0000
0000
0000
0001
0000
0000
1000
0000
0000
0100
0000
,
0110
0000
0000
0000
0110
0000
0000
0000
0100
0000
0000
1000
0000
0000
0001
0000
,
0100
0001
0100
0001
0010
0001
0010
0001
,
1000
0100
1000
0100
0010
0001
0010
0001
,
0100
0001
0100
0001
1000
0001
1000
0001
,
2002
0000
0000
0000
3003
0000
0000
0000
0001
0000
0000
0101
0000
0000
1100
0000
,
0022
0000
0033
0000
,
0000
0000
0000
0000
;
#NOTES:
     dance-double:
     :
     Easy:
     6:
     :
00000000
00000000
00000000
00000000
,
00000000
00000000
00000000
00000000
,
00000000
00000000
00000000
00000000
,
00000000
00000000
00000000
00000000
,
00000000
00000000
00000000
00000000
,
00000000
00000000
00000000
00000000
,
10000000
00000000
00000000
00000000
,
00100000
00000000
00000000
00000000
,
00010000
00000000
00000000
00000000
,
00002020
00000000
00003030
00000000
,
00000001
00000000
00000000
00000000
,
00000010
00000000
00000000
00000000
,
00001000
00000000
00000000
00000000
,
00000010
00001000
00010000
01000000
,
10000000
00000000
00000000
00000000
,
00100000
00000000
00000000
00000000
,
00010000
00000000
00000000
00000000
,
00100000
00000000
00010000
00000000
,
00001000
00000000
00000000
00000000
,
00010000
00001000
00000100
00000001
,
00000010
00000000
00000000
00000000
,
00001000
00000000
00000000
00000000
,
00010000
00000000
00000000
00000000
,
00220000
00000000
00330000
00000000
,
10000000
10000000
10000000
00000000
,
00100000
00100000
00100000
00000000
,
10000000
00010000
10000000
00000000
,
00100000
00010000
00001000
00000100
,
00000001
00000001
00000001
00000000
,
00000010
00000001
00000010
00001000
,
00010000
00000000
00001000
00000000
,
00000010
00000000
00001000
00000000
,
00010000
00000000
00000000
00000000
,
00001000
00010000
01000000
00000000
,
10000000
00000000
00100000
00000000
,
00010000
00000000
00001000
00000000
,
00000010
00000000
00000000
00000000
,
00000001
00000100
00001000
00000000
,
00000100
00000001
00000010
00000000
,
00000010
00001000
00010000
00000000
,
00220000
00000000
00000000
00330000
,
20200000
00000000
00000000
30300000
,
10000000
00000000
00010000
00000000
,
01010000
00000000
10100000
00000000
,
00100000
00010000
00001000
00000000
,
00010000
00001000
00000100
00000000
,
00000001
00000000
00001000
00000000
,
00001100
00000000
00000011
00000000
,
00000010
00001000
00010000
00000000
,
00001000
00010000
01000000
00000000
,
10000000
01000000
00100000
00010000
,
01010000
00000000
10100000
00000000
,
00100000
00010000
00001000
00000000
,
00010000
00001000
00000100
00000000
,
00000001
00000100
00000010
00001000
,
00001100
00000000
00000011
00000000
,
00000010
00001000
00010000
00000000
,
00001000
00010000
01000000
00000000
,
10010000
00000000
00100000
00010000
,
00011000
00000000
00001000
00000100
,
00000110
00000000
00000001
00000010
,
00002200
00000000
00000000
00003300
,
00000000
00000000
00000000
00000000
,
00000000
00000000
00000000
00000000
,
00000000
00000000
00000000
00000000
,
00000000
00000000
00000000
00000000
,
00000011
00000000
00000000
00000000
,
00001010
00000000
00000000
00000000
,
00011000
00000000
00000000
00000000
,
00220000
00000000
00330000
00000000
,
10010000
00000000
00000000
00000000
,
00000000
00000000
00000000
00000000
;
#NOTES:
     dance-double:
     :
     Medium:
     8:
     :
00000000
00000000
00000000
00000000
,
00000000
00000000
00000000
00000000
,
00000000
00000000
00000000
00000000
,
00000000
00000000
00000000
00000000
,
00000110
00000000
00000000
00000000
,
00001100
00000000
00110000
00000000
,
00010000
00000000
00000000
00000000
00000000
00000000
00000000
01000000
,
00100000
00000000
00000000
00000000
00000000
00000000
00000000
00100000
,
00010000
00000000
00000000
00000000
00000000
00000000
00000000
00001000
,
00000020
00000000
00000030
00000000
,
00001001
00000000
00000001
00000001
,
00001100
00000000
00000100
00000100
,
00000011
00000000
00000001
00000001
,
00000010
00000000
00001000
00000000
00010000
00001000
00010000
00000000
,
01010000
00000000
01000000
01000000
,
11000000
00000000
10000000
10000000
,
10100000
00000000
10000000
10000000
,
00100000
00000000
00010000
00000000
00001000
00010000
00001000
00000000
,
00000200
00000000
00000000
00000000
00000300
00000000
00000000
00000001
,
00000020
00000000
00000030
00000000
,
00001001
00000000
00000000
00000000
00000000
00000000
00000000
00000100
,
00000010
00000000
00000000
00000000
00000000
00000000
00000000
00000010
,
00001000
00000000
00000000
00000000
00000000
00000000
00000000
00010000
,
00200000
00000000
00300000
00000000
,
10010000
00000000
00010000
10000000
00010000
00000000
00000000
00000000
,
01010000
00000000
00010000
01000000
00010000
00000000
00000000
00000000
,
10100000
00000000
00100000
10000000
00100000
00000000
00000000
00000000
,
00100000
00010000
00001000
00000000
00010000
00001000
00000100
00000000
,
00000101
00000000
00000100
00000001
00000100
00000000
00000000
00000000
,
00001000
00000000
00000000
00000000
00000100
00000000
00000000
00000000
00001100
00000000
00000000
00001100
00000000
00000000
00000011
00000000
,
00000001
00000000
00001000
00000001
00001000
00000000
00000000
00000000
,
00001100
00000000
00001000
00000100
00001000
00000000
00000000
00000000
,
00000202
00000000
00000003
00000300
,
00000020
00000000
00000000
00000000
00000030
00000000
00000000
00000100
,
00002000
00000000
00013000
00000000
,
00200000
00000000
00000000
00000000
00300000
00000000
00000000
10000000
,
02000000
00000000
03000000
00000000
01000000
10000000
00100000
00000000
,
00100000
00010000
00001000
00000000
,
00001010
00000000
00001100
00000000
,
00000011
00000000
00000101
00000000
,
00001000
00000000
00000000
00000000
00000000
00000000
00000000
00000100
,
00000010
00000000
00000000
00000000
00000010
00000000
00001000
00010000
,
00011000
00000100
00010000
01000000
,
00001000
00000000
00110000
00000000
,
00100000
00010000
01000000
00000000
00100000
10000000
01000000
00000000
,
10000000
00100000
00010000
00001000
,
00011000
01000000
00001000
00000100
,
00010000
00000000
00001010
00000000
,
00000010
00001000
00000100
00000000
00000010
00000001
00000100
00000000
,
00000001
00000010
00001000
00010000
,
00011000
00000100
00010000
01000000
,
00001000
00000000
00000100
00000000
00000001
00000010
00000100
00000000
,
00000010
00001000
00010000
00000000
00001000
00010000
01000000
00000000
,
01000000
10000000
00100000
00000000
00110000
00000000
10100000
00000000
,
10000000
00100000
00010000
00001000
,
00000100
00000001
00000010
00000000
,
00000100
00001000
00000010
00000000
00000010
00000100
00000001
00000000
,
00001000
00000000
00000001
00000000
,
00001001
00000000
00000000
00000000
00000100
00000010
00000100
00000000
,
00000110
00000000
00000000
00000000
00001000
00000100
00001000
00000000
,
00001100
00000000
00000000
00000000
00010000
00001000
00010000
00000000
,
00220000
00000000
00000000
00330000
,
00000000
00000000
00000000
00000000
,
00000000
00000000
00000000
00000000
,
01100000
00000000
01100000
00000000
,
01010000
00000000
00001010
00000000
,
00001000
00000000
00000000
00000000
00000000
00000000
00000000
00000100
,
00000010
00000000
00000000
00000000
00000000
00000000
00000000
00000010
,
00001000
00000000
00000000
00000000
00000000
00000000
00000000
00010000
,
00200000
00000000
00000000
00000000
00000000
00300000
00000000
00000000
,
10010000
00000000
00000000
00000000
,
00000000
00000000
00000000
00000000
;
#NOTES:
     dance-double:
     :
     Hard:
     13:
     :
00000000
00000000
00000000
00000000
,
00000000
00000000
00000000
00000000
,
00000000
00000000
00000000
00000000
,
00000000
00000000
00000000
00000000
,
00100000
00000000
00000000
00000000
00010000
00000000
00000000
00000000
01000000
00000000
00000000
00001000
00000000
00000000
00010000
00000000
,
00000010
00000000
00000000
00000000
00001000
00000000
00000000
00000000
00000100
00000000
00000000
00010000
00000000
00000000
00001000
00000000
,
00100000
00010000
00100000
00010000
10000000
00100000
00010000
00001000
,
00000010
00000001
00000010
00000001
00000010
00001000
00010000
01000000
,
10000000
00100000
10000000
00100000
10000000
00100000
00010000
00001000
,
00000020
00000000
00000030
00000000
,
00000001
00000000
00000001
00000000
00000001
00000000
00000001
00000010
,
00000100
00000000
00000000
00000000
00000100
00000000
00000000
00000000
00010000
00000000
00000000
00001000
00000000
00000000
00100000
00000000
,
00010000
00000000
00010000
00000000
00010000
00000000
00010000
01000000
,
00100000
00010000
00001000
00000100
00000001
00000100
00001000
00010000
,
00100000
00000000
10000000
00000000
01000000
00000000
00100000
00010000
,
01000000
00000000
00000000
00000000
01000000
00000000
00000000
00000000
00001000
00000000
00000000
00010000
00000000
00000000
00000010
00000000
,
00001000
00000000
00001000
00000000
00001000
00000000
00001000
00000100
,
00000010
00000000
00000001
00000000
00000010
00001000
00010000
00000000
,
02000000
00000000
00000000
00000000
03000000
00000000
00000000
00100000
,
00010000
01000000
00100000
00010000
00001000
00000100
00000001
00000100
,
00000010
00001000
00000010
00001000
00000001
00000010
00001000
00010000
,
00100000
10000000
00100000
10000000
00100000
00010000
00001000
00000100
,
00000001
00000010
00000001
00000010
00000001
00000010
00001000
00010000
,
00200000
00000000
00300000
00000000
,
10000000
00000000
00100000
01000000
00100000
00000000
10000000
01000000
,
00100000
00000000
00000000
00000000
00010000
00000000
01000000
00000000
00001000
00000000
00000000
00010000
00000000
00000000
00000010
00000000
,
00001000
00000000
00000100
00000010
00000100
00000000
00001000
00000001
,
00000010
00001000
00010000
01000000
10000000
01000000
00010000
00001000
,
00000010
00000000
00000001
00000100
00000010
00000000
00001000
00000001
,
00000010
00000000
00000000
00000000
00000100
00000000
00000000
00000000
00010100
00000000
00000000
00011000
00000000
00000000
00101000
00000000
,
00010000
00000000
10000000
00000000
00100000
00000000
10000000
00100000
,
10000000
01000000
10000000
00100000
00010000
00001000
00000010
00000001
,
00000100
00000000
00000000
00000000
00000000
00000100
00000100
00000010
,
00001010
00000000
00000000
00011000
00000000
00000000
01010000
00000000
00000000
00000000
00000000
00000000
00000000
00000000
00010000
00000000
,
01000000
00000000
00010000
00000000
00100000
00010000
01000000
00000000
,
00010000
10000000
00100000
00010000
00001000
00010000
01000000
00000000
,
10000000
00000000
00000000
00000000
01000000
10000000
00010000
00100000
,
00101000
00000000
00000000
00011000
00000000
00000000
00010100
00000000
00000000
00000000
00000000
00000000
00000000
00000000
00000000
00000000
,
00001000
00000000
00000000
00001000
00000000
00000000
00001000
00000000
00000001
00000000
00000000
00000001
00000000
00000000
00000001
00000000
,
00000010
00000000
00000000
00001000
00000000
00000000
00010000
00000000
00001000
00000000
00000000
00000000
00010000
00000000
00000000
00000000
,
01000000
10000000
01000000
10000000
01000000
10000000
01000000
10000000
,
00010000
00000000
00000000
00000000
10000000
00000000
00010000
01000000
,
00011000
00000000
00010000
00001000
00000110
00000000
00000010
00000001
,
00000100
00000000
00000000
00001000
00000000
00000000
00010000
00000000
00100000
00000000
00000000
00000000
00000000
00000000
10000000
00000000
,
01000000
00100000
00000000
00010000
00000000
10000000
00000000
00010000
01000000
00100000
00000000
00010000
00000000
00001000
00000000
00000100
,
00000001
00000010
00000000
00000100
00000000
00001000
00000000
00000001
00000100
00000000
00000000
00000000
00001010
00000000
00000000
00000000
,
00000000
00000000
00000001
00000000
00000010
00000000
00000100
00000000
00000010
00000000
00000000
00001000
00000000
00000000
00010000
00000000
,
01000000
00000000
00000000
10000000
00000000
00000000
00010000
00000000
00100000
00000000
00000000
00000000
00010000
00000000
10000000
00000000
,
01000000
00100000
00000000
00010000
00000000
10000000
00000000
00010000
01000000
00100000
00000000
00010000
00000000
00001000
00000000
00000100
,
00000000
00000000
00000010
00000000
00001000
00000000
00000100
00000000
00000010
00000000
00000000
00001000
00000000
00000000
00010000
00000000
,
00011000
00000000
00000000
00010000
00000000
00000000
00001000
00000000
00000110
00000000
00000000
00000010
00000000
00000000
00000001
00000000
,
00000100
00000000
00000000
00001000
00000000
00000000
00010000
00000000
00100000
00000000
00000000
00000000
00000000
00000000
10000000
00000000
,
01000000
00100000
00000000
00010000
00000000
10000000
00000000
00010000
01000000
00100000
00000000
00010000
00000000
00001000
00000000
00000100
,
00000001
00000010
00000000
00000100
00000000
00001000
00000000
00000001
00000100
00000000
00000000
00000000
00001010
00000000
00000000
00000000
,
00000001
00000010
00001000
00010000
,
01000000
00000000
00000000
10000000
00000000
00000000
00010000
00000000
00100000
00000000
00000000
00000000
00010000
00000000
10000000
00000000
,
01000000
00100000
00000000
00010000
00000000
10000000
00000000
00010000
01000000
00100000
00000000
00010000
00000000
00001000
00000000
00000100
,
00000000
00000000
00000010
00000000
00001000
00000000
00000100
00000000
00000010
00000000
00000000
00001000
00000000
00000000
00010000
00000000
,
00011000
00000000
00000000
00000000
00000000
00000000
00000000
00000000
00001000
00000000
00000000
00010000
00000000
00000000
01000000
00000000
,
01100000
00000000
00000000
00000000
00000000
00000000
00000000
00000000
01000000
00000000
00000000
00010000
00000000
00000000
00001000
00000000
,
00011000
00000000
00000000
00000000
00000000
00000000
00000000
00000000
00010000
00000000
00000000
00001000
00000000
00000000
00000010
00000000
,
00000220
00000000
00000000
00000330
,
00000000
00000000
00000000
00000000
,
00000000
00000000
00000000
00000000
,
00000010
00000000
00000000
00000000
00001000
00000000
00000000
00000000
00000100
00000000
00000000
00010000
00000000
00000000
00001000
00000000
,
00100000
00000000
00000000
00000000
00010000
00000000
00000000
00000000
01000000
00000000
00000000
00001000
00000000
00000000
00010000
00000000
,
00000010
00001000
00000010
00001000
00000001
00000010
00001000
00010000
,
00100000
10000000
00100000
10000000
00100000
00010000
00001000
00000100
,
00000001
00000010
00000001
00000010
00000001
00000010
00001000
00010000
,
00100000
00000000
00000000
00000000
00000000
00000000
00000000
00000000
01100000
00000000
00000000
01010000
00000000
00000000
00011000
00000000
,
00002020
00000000
00003030
00000000
,
00000000
00000000
00000000
00000000
;
