#TITLE:PUNISHER;
#ARTIST:TAG×PON;
#BANNER:PUNISHER.png;
#BACKGROUND:PUNISHER-bg.png;
#CDTITLE:./CDTitles/DDR (2014).png;
#MUSIC:PUNISHER.ogg;
#SAMPLESTART:54;
#SAMPLELENGTH:15;
#DISPLAYBPM:180;
#BPMS:0=180;
#NOTES:
     dance-single:
     :
     Beginner:
     3:
     :
0000
0000
0000
0000
,
0000
0000
0000
0000
,
0000
0000
0000
0000
,
1001
0000
0000
0000
,
0000
0000
0000
0000
,
0000
0000
0000
0000
,
0000
0000
0000
0000
,
0001
0001
0001
0000
,
1000
0000
0001
0000
,
1000
1000
1000
0000
,
0001
0000
1000
0000
,
0010
0010
0010
0000
,
1000
0000
1000
0000
,
0010
0010
0010
0000
,
0001
0000
0001
0000
,
0010
0010
0010
0000
,
0100
0000
0100
0000
,
0010
0010
0010
0000
,
1001
0000
0000
0000
,
0001
0000
0000
0000
,
1000
0000
0000
0000
,
0001
0000
1000
0000
,
1001
0000
0000
0000
,
0010
0000
0000
0000
,
0100
0000
0000
0000
,
0010
0000
0100
0000
,
0110
0000
0000
0000
,
1000
0000
0001
0000
,
1001
0000
0000
0000
,
0002
0000
0003
0000
,
0020
0000
0030
0000
,
2000
0000
3000
0000
,
0200
0000
0300
0000
,
0002
0000
0003
0000
,
0200
0000
0300
0000
,
2000
0000
3000
0000
,
0002
0000
0003
0000
,
2000
0000
3000
0000
,
0002
0000
0003
0000
,
1001
0000
0000
0000
,
1001
0000
0000
0000
,
0010
0000
1000
0000
,
0001
0000
0000
0000
,
0010
0000
0001
0000
,
1000
0000
0000
0000
,
0001
0000
1000
0000
,
0100
0000
0000
0000
,
1000
0000
0001
0000
,
0100
0000
0100
0000
,
0100
0000
0100
0000
,
0000
0000
0000
0000
,
0000
0000
0000
0000
,
0000
0000
0000
0000
,
0000
0000
0000
0000
,
0001
0001
0001
0000
,
1000
1000
1000
0000
,
0020
0000
0030
0000
,
0200
0000
0300
0000
,
0020
0000
0030
0000
,
0200
0000
0300
0000
,
1001
0000
0000
0000
,
1001
0000
0000
0000
,
0001
0000
0010
0000
,
0001
0000
0000
0000
,
1000
0000
0010
0000
,
1000
0000
0000
0000
,
0001
0000
0010
0000
,
1000
0000
0010
0000
,
0001
0001
0001
0000
,
1000
0000
0001
0000
,
0100
0100
0100
0000
,
0001
0000
1000
0000
,
0100
0100
0100
0000
,
1000
0000
0001
0000
,
0010
0010
0010
0000
,
0001
0000
1000
0000
,
0010
0000
0010
0000
,
0010
0000
0010
0000
,
1000
1000
1000
0000
,
0010
0000
0100
0000
,
0001
0001
0001
0000
,
0010
0000
0100
0000
,
1000
1000
1000
0000
,
0001
0001
0001
0000
,
0100
0100
0100
0000
,
0010
0010
0010
0000
,
1001
0000
0000
0000
,
0000
0000
0000
0000
;
#NOTES:
     dance-single:
     :
     Easy:
     6:
     :
0000
0000
0000
0000
,
0000
0000
0000
0000
,
0000
0000
0000
0000
,
2002
0000
0000
0000
,
0000
0000
0000
0000
,
0000
0000
0000
0000
,
0000
0000
0000
3003
,
0010
0010
1000
0000
,
0001
0000
1000
0000
,
0010
0010
0001
0000
,
1000
0000
0001
0000
,
0100
0100
0010
0000
,
0001
0010
0001
0100
,
0010
0010
0100
0000
,
1000
0010
1000
0100
,
0001
0001
1000
0000
,
0001
0100
1000
0100
,
1000
1000
0001
0000
,
0010
0000
1001
0000
,
1000
0010
0100
0000
,
0001
0010
0100
0000
,
1000
1000
0001
0001
,
1000
0010
0001
0000
,
1000
0100
0010
0000
,
0001
0100
0010
0000
,
1000
1000
0001
0001
,
1000
0010
0001
0000
,
0001
0001
1000
1000
,
0001
0010
1000
0000
,
0002
0000
0100
0103
,
2000
0000
0100
3100
,
0020
0000
0100
0130
,
0001
1000
1001
0000
,
0002
0000
0010
0013
,
2000
0000
0010
3010
,
0200
0000
0300
0110
,
0002
0000
0003
1001
,
0020
0000
0030
0110
,
2000
0000
3000
1001
,
0010
0010
0000
0001
,
1000
1000
0000
0000
,
1001
0000
0110
0000
,
1000
0010
0100
0000
,
0001
0010
0100
1000
,
0100
1000
0100
0000
,
1000
0010
0100
0001
,
1000
0001
1000
0000
,
0001
0001
0010
0010
,
1001
0000
0110
0000
,
1001
0000
0110
0000
,
0002
0000
0000
0000
,
2003
0000
0000
0000
,
3020
0000
0000
0000
,
0230
0000
0000
0000
,
0301
0100
1000
0000
,
0001
0100
1000
0000
,
0020
0000
0030
0110
,
0002
0000
0003
1001
,
0200
0000
0300
0110
,
2000
0000
3000
1001
,
0010
0010
0000
0001
,
1000
1000
0000
0000
,
0010
0000
0100
0000
,
0002
0000
0000
0003
,
0010
0000
0100
0000
,
2000
0000
0000
3000
,
0000
0100
0000
0100
,
0000
0010
0000
0010
,
0001
0001
1000
1000
,
1001
0000
0110
0000
,
0001
0010
0100
0000
,
1000
0010
0100
0001
,
0100
0001
0100
0000
,
0001
0010
0100
1000
,
0001
1000
0001
0000
,
1000
1000
0010
0010
,
1001
0000
0110
0000
,
1001
0000
0110
0000
,
0100
0100
0010
0000
,
1000
0010
1000
0100
,
0010
0010
0100
0000
,
0001
0010
0001
0100
,
0010
0010
1000
0000
,
0001
0000
1000
0000
,
0010
0010
0001
0000
,
1000
1000
0001
1000
,
2002
0000
0000
0000
,
3003
0000
0000
0000
,
0000
0000
0000
0000
;
#NOTES:
     dance-single:
     :
     Medium:
     11:
     :
0000
0000
0000
0000
,
0000
0000
0000
0000
,
0000
0000
0000
0000
,
2002
0000
0000
0000
,
0000
0000
0000
0000
,
0000
0000
0000
0000
,
0000
0000
0000
3003
,
0010
0000
0000
0000
0010
0000
0000
0000
1000
0000
0000
0001
0000
0000
1000
0000
,
0000
0010
0010
0000
1000
0000
0001
0000
,
0010
0000
0000
0000
0010
0000
0000
0000
0001
0000
0000
1000
0000
0000
0001
0000
,
0000
0100
0100
0000
0010
0000
1000
0000
,
0100
0000
0010
0000
0100
0000
0000
0000
0010
0000
0000
0001
0000
0000
0100
0000
,
0000
0001
1000
0010
1000
0001
1000
0000
,
0010
0000
0100
0000
0010
0000
0000
0000
0100
0000
0000
0001
0000
0000
0010
0000
,
0000
0001
1000
0001
0010
0001
1000
0000
,
0100
0000
1000
0000
0100
0000
0000
0000
0010
0000
0000
0001
0000
0000
0100
0000
,
0000
0010
0100
0010
1000
0010
0100
0000
,
0001
0000
0000
0000
1000
0000
0000
0000
0010
0000
0000
1000
0000
0000
1001
0000
,
0000
0001
1000
0001
1000
0100
0010
0000
,
0001
0000
0010
0000
0100
1000
0001
0000
,
1000
0000
0010
0000
0100
0001
1000
0000
,
0001
0000
1000
0000
0110
0000
1000
0100
,
0000
0001
0100
0000
1000
0000
0001
0000
,
0100
0000
0010
0000
1000
0001
0010
0000
,
0100
0000
0010
0000
0001
1000
0010
0000
,
1000
0000
0001
0000
0110
0000
1000
0010
,
0000
0001
0010
0000
1000
0000
0100
0000
,
0010
0000
0001
0000
1001
0000
0100
0010
,
0000
1000
0002
0000
0000
0000
0003
0000
,
1000
0100
0010
0000
0001
0000
0001
0000
,
1000
0010
0100
0000
0001
0000
0001
0000
,
1000
0100
0010
0000
0100
0000
0100
0000
,
0010
0001
1000
0000
0220
0000
0330
0000
,
0001
1000
0100
0000
0010
0000
0010
0000
,
0001
1000
0010
0000
0100
0000
0100
0000
,
0001
0000
0000
0010
0000
0000
1000
0000
0000
0100
0000
0000
1100
0000
0000
0000
,
1000
0000
0000
0010
0000
0000
0001
0000
0000
0100
0000
0000
0101
0000
0000
0000
,
0001
0000
0000
0010
0000
0000
1000
0000
0000
0100
0000
0000
0110
0000
0000
0000
,
1000
0000
0000
0010
0000
0000
0001
0000
0000
0100
0000
0000
0110
0000
0000
0000
,
0010
0100
0010
0100
0000
0001
1000
0000
,
0100
0010
0100
0010
0000
0001
0001
0000
,
0011
0000
1100
0000
,
0001
0100
0010
1000
0000
0001
0100
0000
,
0010
1000
0100
0000
0010
0001
0100
0000
,
0010
0100
0001
1000
0000
0100
0010
0000
,
0001
1000
0100
0000
1000
0001
0100
0000
,
0001
1000
0010
0100
0000
0001
0010
0000
,
0100
1100
0010
0101
,
1000
0000
0100
0000
0010
0000
0000
0001
0000
0000
0100
0000
0010
0000
0000
1000
,
0000
0000
0100
0000
0010
0000
0000
0001
0000
0000
0100
0000
0010
0000
0000
0000
,
2000
0000
3002
0000
,
0023
0000
0032
0000
,
2003
0000
3020
0000
,
0230
0000
0302
0000
,
1003
0001
0100
0000
0010
1000
0100
0000
,
0010
0001
0100
1000
,
0010
0000
0000
1000
0000
0000
0100
0000
0000
0001
0000
0000
1001
0000
0000
0000
,
0010
0000
0000
0001
0000
0000
0100
0000
0000
1000
0000
0000
1001
0000
0000
0000
,
0010
0000
0000
1000
0000
0000
0100
0000
0000
0001
0000
0000
0011
0000
0000
0000
,
0010
0000
0000
0001
0000
0000
0100
0000
0000
1000
0000
0000
1010
0000
0000
0000
,
1000
0001
1000
0001
0000
0100
0010
0000
,
1000
0001
1000
0001
0000
0000
0000
0000
,
0010
0000
0100
0000
,
2200
0000
0000
3300
,
0010
0000
0100
0000
,
0201
0000
0000
0310
,
0100
0100
0001
0001
,
0010
0010
1000
1000
,
0011
1100
1010
0101
,
1000
0100
0010
0000
0001
0100
0010
0000
,
1000
0100
0010
0001
0000
1000
0100
0000
,
0010
0001
0100
0000
0010
1000
0100
0000
,
0010
0100
1000
0001
0000
0100
0010
0000
,
1000
0001
0100
0000
0001
1000
0100
0000
,
1000
0001
0010
0100
0000
1000
0010
0000
,
0100
0101
0010
1100
,
0001
0000
0100
0000
0010
0000
0000
1000
0000
0000
0100
0000
0010
0000
0000
0001
,
0000
0000
0100
0000
0010
0000
0000
1000
0000
0000
0100
0000
0010
0000
0000
0000
,
0100
0000
0010
0000
0100
0000
0000
0000
0010
0000
0000
1000
0000
0000
0100
0000
,
0000
1000
0001
0010
0001
1000
0001
0000
,
0010
0000
0100
0000
0010
0000
0000
0000
0100
0000
0000
1000
0000
0000
0010
0000
,
0000
1000
0001
1000
0010
1000
0001
0000
,
0010
0000
0000
0000
0010
0000
0000
0000
0001
0000
0000
1000
0000
0000
0001
0000
,
0000
0010
0010
0000
0001
0000
1000
0000
,
0010
0000
0000
0000
0010
0000
0000
0000
1000
0000
0000
0001
0000
0000
1000
0000
,
0000
0100
0100
0000
0010
0000
0001
0000
,
2002
0000
0000
0000
,
3003
0000
0000
0000
,
0000
0000
0000
0000
;
#NOTES:
     dance-single:
     :
     Hard:
     14:
     :
0000
0000
0000
0000
,
0000
0000
0000
0000
,
0000
0000
0000
0000
0000
0000
0000
0000
0000
0000
0000
0000
0000
0000
0010
1000
,
0002
0000
0000
0000
,
0000
0000
0000
0000
,
0000
0000
0000
0000
,
0000
0000
0000
0003
,
0010
0000
0000
0000
0010
0000
0000
0000
0001
0000
0000
0010
0000
0000
1100
0000
,
0000
0001
1000
0000
0110
0000
1001
0000
,
0010
0000
0000
0000
0010
0000
0000
0000
1000
0000
0000
0010
0000
0000
0101
0000
,
0000
1000
1000
0001
0010
0001
1000
0100
,
0010
0000
0100
0000
0010
0000
0000
0000
0100
0000
1000
0100
0000
0000
0010
0000
,
0001
1000
0001
0100
0001
1000
0001
0000
,
0100
0000
0010
0000
0100
0000
0000
0000
0010
0000
1000
0001
0000
0000
0100
0000
,
0010
1000
0001
1000
0100
1000
0001
0000
,
0010
0000
0001
0000
1000
0000
0000
0000
0010
0000
0100
0010
0000
0000
1000
0000
,
0001
0100
0010
0100
0001
0100
0010
0000
,
1000
0000
0000
0000
0001
0000
0000
0000
0110
0000
0000
1001
0000
0000
0110
0000
,
0000
1000
0001
1000
0001
0010
0100
1000
,
0000
0000
0001
0000
0100
0000
1000
0000
0100
0000
0010
0100
0000
0000
0001
0000
,
0000
0000
1000
0000
0100
0000
0001
0000
0100
0000
0010
0100
0000
0000
1000
0000
,
0001
0000
1000
0000
0110
0000
0001
0010
,
0000
1000
0100
0000
0001
0000
0100
0000
,
0000
0000
0001
0000
0010
0000
1000
0000
0010
0000
0100
0010
0000
0000
0001
0000
,
0000
0000
1000
0000
0010
0000
0001
0000
0010
0000
0100
0010
0000
0000
1000
0000
,
0001
0000
1000
0000
0110
0000
0001
0100
,
0000
1000
0010
0000
0001
0000
0010
0000
,
0100
0000
1000
0000
0101
0000
0010
0100
,
0000
0000
0001
0000
2000
0000
0000
0000
0001
0000
0000
0001
3000
0000
0001
0000
,
0010
0000
0001
0000
1000
0000
0010
0000
0100
0000
0000
0100
0000
0000
0100
0000
,
0010
0000
1000
0000
0001
0000
0010
0000
0100
0000
0000
0100
0000
0000
0000
0000
,
1000
0000
0001
0000
0100
0000
0010
0000
1000
0000
0000
1000
0000
0000
1000
0000
,
0001
0010
0100
0000
2002
0000
3003
0000
,
1000
0000
0100
0000
0010
0000
0100
0000
1000
0000
0000
1000
0000
0000
1000
0000
,
0001
0000
0100
0000
0010
0000
0100
0000
0001
0000
0000
0001
0000
0000
0000
0000
,
1000
0001
0000
0100
0001
0000
1000
0001
0000
0100
0001
0000
0101
0000
0000
0000
,
0001
1000
0000
0100
1000
0000
0001
1000
0000
0100
1000
0000
1100
0000
0000
0000
,
1000
0001
0000
0010
0001
0000
1000
0001
0000
0010
0001
0000
0011
0000
0000
0000
,
0001
1000
0000
0010
1000
0000
0001
1000
0000
0010
1000
0000
1010
0000
0000
0000
,
0010
0010
0100
0010
0000
1000
0001
0010
,
0100
0100
0010
0100
0000
1000
0001
0000
,
1000
0100
0000
0000
0001
0100
0000
0000
,
0001
0000
0010
0000
0100
0000
1000
0001
0000
0001
1000
0000
0100
0000
0010
0000
,
0001
1000
0100
0000
0010
0100
1000
0000
,
0010
0000
1000
0000
0001
0000
0100
0010
0000
0010
0100
0000
0010
0000
1000
0000
,
0001
0100
0010
0000
1000
0001
0100
0000
,
0010
0000
1000
0000
0100
0000
0010
0001
0000
0001
0010
0000
0100
0000
0010
0000
,
0001
0100
0010
0000
1000
0100
0010
0000
,
0001
0000
0010
0000
0100
0000
1000
0001
0000
0001
0100
0000
0010
0000
1000
0001
,
0000
0001
0010
0000
0100
0000
1000
0001
0000
0001
0100
0000
0010
0000
1000
0000
,
0002
0000
0203
0000
,
2300
0000
3020
0000
,
0032
0000
2003
0000
,
3020
0000
0230
0000
,
0301
0100
0010
0100
0001
0100
0010
0100
,
0001
0010
0100
1000
0010
0100
0001
1000
,
0001
0100
0000
0010
0100
0000
0001
0100
0000
0010
0100
0000
1001
0000
0000
0000
,
1000
0100
0000
0010
0100
0000
1000
0100
0000
0010
0100
0000
1001
0000
0000
0000
,
0001
0010
0000
0100
0010
0000
0001
0010
0000
0100
0010
0000
1001
0000
0000
0000
,
1000
0010
0000
0100
0010
0000
1000
0010
0000
0100
0010
0000
1001
0000
0000
0000
,
0010
0010
0100
0010
0000
0001
1000
0010
,
0100
0100
0010
0100
0000
0001
1000
0000
,
0001
0000
0010
0000
,
2200
0000
0000
3300
,
0001
0000
0100
0000
,
0010
0000
1000
0000
0010
0000
0100
0010
0000
0000
0000
0000
0100
0000
0000
0000
,
0010
1000
0010
0000
1000
0100
1000
0000
,
0100
0001
0100
0000
0001
0010
0001
0000
,
1010
1100
0101
0011
,
1000
0010
1000
0010
0100
0000
0000
0000
0001
0010
0001
0010
0100
0000
0000
0000
,
1000
0000
0010
0000
0100
0000
0001
1000
0000
1000
0001
0000
0100
0000
0010
0000
,
1000
0001
0100
0000
0010
0100
0001
0000
,
0010
0000
0001
0000
1000
0000
0100
0010
0000
0010
0100
0000
0010
0000
0001
0000
,
1000
0100
0010
0000
0001
1000
0100
0000
,
0010
0000
0001
0000
0100
0000
0010
1000
0000
1000
0010
0000
0100
0000
0010
0000
,
1000
0100
0010
0000
0001
0100
0010
0000
,
1000
0000
0010
0000
0100
0000
0001
1000
0000
1000
0100
0000
0010
0000
0001
1000
,
0000
1000
0010
0000
0100
0000
0001
1000
0000
1000
0100
0000
0010
0000
0001
0000
,
1000
0000
0100
0000
1000
0000
0100
0000
0010
0000
0100
0010
0000
0000
0001
0000
,
0100
1000
0100
0001
0100
1000
0100
0000
,
0001
0000
0100
0000
0001
0000
0100
0000
0010
0000
0100
0010
0000
0000
1000
0000
,
0100
0001
0100
1000
0100
0001
0100
0000
,
0010
0000
0000
0000
0010
0000
0000
0000
1000
0000
0000
0010
0000
0000
0101
0000
,
0000
1000
0001
0000
0110
0000
1001
0000
,
0010
0000
0000
0000
0010
0000
0000
0000
0001
0000
0000
0010
0000
0000
1100
0000
,
0000
0001
0001
1000
0010
0100
0001
1000
,
0002
0000
0000
0000
,
0003
0000
0000
0000
,
0000
0000
0000
0000
;
#NOTES:
     dance-double:
     :
     Easy:
     6:
     :
00000000
00000000
00000000
00000000
,
00000000
00000000
00000000
00000000
,
00000000
00000000
00000000
00000000
,
00002002
00000000
00000000
00000000
,
00000000
00000000
00000000
00000000
,
00000000
00000000
00000000
00000000
,
00000000
00000000
00000000
00003003
,
00000010
00000010
00000001
00000000
,
00000100
00000000
00000010
00000000
,
00010000
00010000
00001000
00000000
,
00100000
00000000
00010000
00000000
,
10000000
10000000
00100000
00000000
,
01000000
00100000
10000000
00100000
,
01000000
01000000
00010000
00000000
,
10000000
01000000
00100000
01000000
,
00010000
00010000
00001000
00000000
,
00010000
00000010
00000100
00000010
,
00001000
00001000
00000001
00000000
,
00000010
00000000
00000001
00000000
,
00000001
00000010
00000100
00000000
,
00001000
00000010
00000100
00000000
,
00001000
00001000
00010000
00010000
,
00001000
00010000
00100000
00000000
,
10000000
00010000
01000000
00000000
,
00010000
10000000
01000000
00000000
,
00100000
00100000
01000000
01000000
,
00010000
00001000
00010000
00000000
,
00001000
00001000
00010000
00010000
,
00001000
00000010
00000001
00000000
,
00002000
00000000
00000100
00003100
,
00000002
00000000
00000100
00000103
,
00000020
00000000
00000100
00000130
,
00001000
00010000
00011000
00000000
,
00002000
00000000
00100000
00103000
,
00020000
00000000
00000010
00030010
,
00002000
00000000
00003000
00001010
,
00020000
00000000
00030000
00110000
,
00002000
00000000
00003000
00001100
,
00020000
00000000
00030000
01010000
,
00100000
00100000
00000000
10000000
,
00010000
00010000
00000000
00000000
,
10010000
00000000
01100000
00000000
,
00010000
01000000
10000000
00000000
,
10000000
01000000
00100000
00010000
,
00001000
00010000
00001000
00000000
,
00010000
00001000
00000010
00000001
,
00001000
00000001
00001000
00000000
,
00000010
00001000
00000100
00001000
,
00001001
00000000
00000110
00000000
,
00001001
00000000
00000110
00000000
,
00000002
00000000
00000000
00000003
,
00000200
00000000
00000000
00000300
,
00002000
00000000
00000000
00003000
,
00020000
00000000
00000000
00030000
,
00100000
10000000
01000000
00000000
,
00100000
00010000
01000000
00000000
,
00002000
00000000
00003000
00101000
,
00020000
00000000
00030000
00010010
,
00002000
00000000
00003000
00101000
,
00020000
00000000
00030000
00010010
,
00001000
00001000
00000000
00000010
,
00000100
00000100
00000000
00000000
,
00000010
00000000
00000100
00000000
,
00000002
00000000
00000000
00000003
,
00000010
00000000
00000100
00000000
,
00002000
00000000
00000000
00003000
,
00000000
00000100
00000000
00000100
,
00000000
00010000
00000000
00010000
,
00001000
00001000
00010000
00010000
,
00002000
00003000
02000000
03000000
,
00100000
01000000
00010000
00000000
,
10000000
01000000
00100000
00010000
,
01000000
00010000
01000000
00000000
,
00001000
00010000
00000100
00001000
,
00000010
00000100
00000010
00000000
,
00000001
00000010
00001000
00000010
,
00001001
00000000
00000110
00000000
,
00001001
00000000
00000110
00000000
,
00000001
00000001
00000100
00000000
,
00001000
00010000
00001000
00010000
,
00100000
00100000
01000000
00000000
,
00010000
10000000
00010000
01000000
,
00100000
00100000
10000000
00000000
,
01000000
00000000
00100000
00000000
,
00001000
00001000
00010000
00000000
,
00000010
00001000
00000100
00000010
,
00002002
00000000
00000000
00000000
,
00003003
00000000
00000000
00000000
,
00000000
00000000
00000000
00000000
;
#NOTES:
     dance-double:
     :
     Medium:
     11:
     :
00000000
00000000
00000000
00000000
,
00000000
00000000
00000000
00000000
,
00000000
00000000
00000000
00000000
,
20020000
00000000
00000000
00000000
,
00000000
00000000
00000000
00000000
,
00000000
00000000
00000000
00000000
,
00000000
00000000
00000000
30030000
,
00100000
00000000
00000000
00000000
00100000
00000000
00000000
00000000
10000000
00000000
00000000
01000000
00000000
00000000
00100000
00000000
,
00000000
00001000
00001000
00000000
00000010
00000000
00000001
00000000
,
00001000
00000000
00000000
00000000
00001000
00000000
00000000
00000000
00000010
00000000
00000000
00000100
00000000
00000000
00000001
00000000
,
00000000
00000010
00000010
00000000
00001000
00000000
00010000
00000000
,
01000000
00000000
00100000
00000000
01000000
00000000
00000000
00000000
00100000
00000000
00000000
00010000
00000000
00000000
01000000
00000000
,
00000000
10100000
00000000
10010000
00000000
02020000
00000000
03030000
,
00001000
00000000
00010000
00000000
00001000
00000000
00000000
00000000
01000000
00000000
00000000
00001000
00000000
00000000
00000100
00000000
,
00000000
00000101
00000000
00001001
00000000
00002200
00000000
00003300
,
00000010
00000000
00000001
00000000
00000100
00000000
00000000
00000000
00000010
00000000
00000000
00000100
00000000
00000000
00000001
00000000
,
00000000
00001001
00000000
00001100
00000000
00022000
00000000
00033000
,
01000000
00000000
00010000
00000000
10000000
00000000
00000000
00000000
00100000
00000000
00000000
10000000
00000000
00000000
00010000
00000000
,
00000000
01100000
00000000
10010000
00000000
01000000
00100000
10000000
,
01000000
00000000
00100000
00000000
00010000
01000000
00100000
00000000
,
01000000
00000000
00001000
00000000
00010000
00001000
00000010
00000000
,
00000001
00000000
00001000
00000000
00000110
00000000
00000001
00001000
,
00000000
00000010
00000100
00000000
00000001
00000000
00001000
00000000
,
00000100
00000000
00010000
00000000
01000000
00100000
00010000
00000000
,
01000000
00000000
00100000
00000000
10000000
00100000
01000000
00000000
,
00010000
00000000
10000000
00000000
01100000
00000000
10000000
01000000
,
00000000
00010000
00001000
00000000
00010000
00000000
00000010
00000000
,
00000100
00000000
00000010
00000000
00001001
00000000
00000100
00000010
,
00000000
00000001
00002000
00000000
00000000
00000000
00003000
00000000
,
00000010
00000100
00000010
00000000
00010000
00000000
00010000
00000000
,
00100000
01000000
00100000
00000000
00010000
00000000
00010000
00000000
,
00000010
00000100
00000010
00000000
00001000
00000000
00001000
00000000
,
00000001
00000010
00000100
00000000
00022000
00000000
00033000
00000000
,
00100000
01000000
00100000
00000000
00001000
00000000
00001000
00000000
,
00000010
00000100
00000010
00000000
00001000
00000000
00001000
00000000
,
00010000
00000000
00000000
01000000
00000000
00000000
00100000
00000000
00000000
01000000
00000000
00000000
00010000
00000000
00000000
00000000
,
00001000
00000000
00000000
00000100
00000000
00000000
00000010
00000000
00000000
00000100
00000000
00000000
00001000
00000000
00000000
00000000
,
00010000
00000000
00000000
00100000
00000000
00000000
01000000
00000000
00000000
00100000
00000000
00000000
00010000
00000000
00000000
00000000
,
00001000
00000000
00000000
00000010
00000000
00000000
00000100
00000000
00000000
00000010
00000000
00000000
00001000
00000000
00000000
00000000
,
00010000
00010000
00001000
00010000
00000000
01000000
10000000
00000000
,
00010000
00010000
01000000
00100000
00000000
10000000
00010000
00000000
,
10100000
00000000
01010000
00000000
,
10000000
01000000
00100000
00010000
00000000
01000000
00001000
00000000
,
00010000
00001000
00000100
00000000
00000010
00001000
00000100
00000000
,
00000001
00000100
00001000
00000001
00000000
00000100
00000010
00000000
,
00010000
00000100
00000010
00000000
00000001
00001000
00000100
00000000
,
00010000
00001000
00100000
01000000
00000000
10000000
00100000
00000000
,
01000000
00010000
00100000
10000000
,
00010000
00000000
01000000
00000000
00100000
00000000
00000000
10000000
00000000
00000000
10000000
00000000
01000000
00000000
00000000
00010000
,
00000000
00000000
00010000
00000000
00001000
00000000
00000000
00000100
00000000
00000000
00000100
00000000
00000001
00000000
00000000
00000000
,
00002000
00000000
00003002
00000000
,
00000023
00000000
00000230
00000000
,
00020300
00000000
02030000
00000000
,
23000000
00000000
30020000
00000000
,
01030000
00100000
10000000
00000000
01000000
00100000
00010000
00000000
,
10000000
00100000
00010000
00001000
,
00010000
00000000
00000000
01000000
00000000
00000000
10000000
00000000
00000000
01000000
00000000
00000000
00010000
00000000
00000000
00000000
,
00001000
00000000
00000000
00000100
00000000
00000000
00000001
00000000
00000000
00000100
00000000
00000000
00001000
00000000
00000000
00000000
,
00010000
00000000
00000000
00100000
00000000
00000000
10000000
00000000
00000000
00100000
00000000
00000000
00010000
00000000
00000000
00000000
,
00001000
00000000
00000000
00000010
00000000
00000000
00000001
00000000
00000000
00000010
00000000
00000000
00001000
00000000
00000000
00000000
,
00010000
00010000
00001000
00010000
00000000
01000000
00100000
00000000
,
00010000
00010000
01000000
00100000
00000000
00000000
00000000
00000000
,
10000000
00000000
00010000
00000000
,
02200000
00000000
00000000
03300000
,
00010000
00000000
00001000
00000000
,
00000220
00000000
00000000
00000330
,
00001000
00001000
00010000
00010000
,
00100000
00100000
01000000
01000000
,
01001000
00011000
00010010
00001001
,
00000010
00000100
00000001
00000000
00000010
00000100
00001000
00000000
,
00000001
00000100
00000010
00001000
00000000
00000100
00010000
00000000
,
00001000
00010000
01000000
00000000
00100000
00010000
01000000
00000000
,
10000000
01000000
00010000
10000000
00000000
01000000
00100000
00000000
,
00001000
01000000
00100000
00000000
10000000
00010000
01000000
00000000
,
00001000
00010000
00000010
00000100
00000000
00000001
00000010
00000000
,
00000100
00001000
00000010
00000001
,
00001000
00000000
00000100
00000000
00000010
00000000
00000000
00000001
00000000
00000000
00000001
00000000
00000100
00000000
00000000
00001000
,
00000000
00000000
00001000
00000000
00010000
00000000
00000000
01000000
00000000
00000000
01000000
00000000
10000000
00000000
00000000
00000000
,
00100000
00000000
01000000
00000000
00100000
00000000
00000000
00000000
01000000
00000000
00000000
00010000
00000000
00000000
00100000
00000000
,
00000000
11000000
00000000
10010000
00000000
00220000
00000000
00330000
,
00001000
00000000
00010000
00000000
00001000
00000000
00000000
00000000
00100000
00000000
00000000
00001000
00000000
00000000
00000010
00000000
,
00000000
00000011
00000000
00001001
00000000
00002020
00000000
00003030
,
00000010
00000000
00000000
00000000
00000010
00000000
00000000
00000000
00000001
00000000
00000000
00000100
00000000
00000000
00000010
00000000
,
00000000
00010000
00010000
00000000
00100000
00000000
10000000
00000000
,
00010000
00000000
00000000
00000000
00010000
00000000
00000000
00000000
00100000
00000000
00000000
01000000
00000000
00000000
10000000
00000000
,
00000000
00100000
00100000
00000000
00010000
00000000
00001000
00000000
,
00022000
00000000
00000000
00000000
,
00033000
00000000
00000000
00000000
,
00000000
00000000
00000000
00000000
;
#NOTES:
     dance-double:
     :
     Hard:
     14:
     :
00000000
00000000
00000000
00000000
,
00000000
00000000
00000000
00000000
,
00000000
00000000
00000000
00000000
00000000
00000000
00000000
00000000
00000000
00000000
00000000
00000000
00000000
00000000
00001000
00010000
,
00002000
00000000
00000000
00000000
,
00000000
00000000
00000000
00000000
,
00000000
00000000
00000000
00000000
,
00000000
00000000
00000000
00003000
,
00010000
00000000
00000000
00000000
00010000
00000000
00000000
00000000
00000010
00000000
00000000
00000100
00000000
00000000
00000001
00000000
,
00000000
00000010
00000100
00000000
00001001
00000000
00000110
00000000
,
00001000
00000000
00000000
00000000
00001000
00000000
00000000
00000000
00010000
00000000
00000000
00100000
00000000
00000000
01000000
00000000
,
00000000
00100000
10000000
00000000
00010000
00100000
01000000
10000000
,
00010000
00000000
01000000
00000000
00100000
00000000
00000000
00000000
01000000
00000000
00001000
00010000
00000000
00000000
00000010
00000000
,
00001000
00000010
00010000
00001000
00010000
00000010
00001000
00000000
,
00000100
00000000
00000010
00000000
00000100
00000000
00000000
00000000
00000010
00000000
00000001
00001000
00000000
00000000
00000010
00000000
,
00000100
00000001
00001000
00000001
00000100
00001000
00010000
00000000
,
00010000
00000000
00000100
00000000
00000010
00000000
00000000
00000000
00000100
00000000
00010000
00001000
00000000
00000000
00100000
00000000
,
00010000
00100000
00001000
00010000
00001000
00100000
00010000
00000000
,
10000000
00000000
00000000
00000000
00010000
00000000
00000000
00000000
01100000
00000000
00000000
10010000
00000000
00000000
01100000
00000000
,
00000000
00100000
10000000
01000000
10000000
00010000
01000000
00001000
,
00000000
00000000
00010000
00000000
00001000
00000000
00000100
00000000
00000010
00000000
00000100
00000001
00000000
00000000
00001000
00000000
,
00000000
00000000
00000001
00000000
00001000
00000000
00000100
00000000
00000010
00000000
00000001
00000010
00000000
00000000
00000100
00000000
,
00001000
00000000
00010000
00000000
00011000
00000000
00001000
00100000
,
00000000
01000000
10000000
00000000
00010000
00000000
00010000
00000000
,
00000000
00000000
01000000
00000000
00100000
00000000
10000000
00000000
00100000
00000000
01000000
00010000
00000000
00000000
01000000
00000000
,
00000000
00000000
00001000
00000000
00010000
00000000
00000010
00000000
00001000
00000000
00000010
00000100
00000000
00000000
00000010
00000000
,
00001000
00000000
00000001
00000000
00000110
00000000
00001000
00000100
,
00000000
00000001
00000010
00000000
00001000
00000000
00001000
00000000
,
00010000
00000000
00001000
00000000
00011000
00000000
01000000
00100000
,
00000000
00000000
10000000
00000000
00020000
00000000
00000000
00000000
10000000
00000000
00000000
10000000
00030000
00000000
10000000
00000000
,
00010000
00000000
01000000
00000000
00100000
00000000
01000000
00000000
00010000
00000000
00000000
00010000
00000000
00000000
00010000
00000000
,
10000000
00000000
01000000
00000000
00100000
00000000
00010000
00000000
00001000
00000000
00000000
00001000
00000000
00000000
00000000
00000000
,
00000100
00000000
00000010
00000000
00000001
00000000
00000010
00000000
00000100
00000000
00000000
00000100
00000000
00000000
00000100
00000000
,
00001000
00000010
00000100
00000000
00002002
00000000
00003003
00000000
,
00000001
00000000
00001000
00000000
00000100
00000000
00010000
00000000
00000010
00000000
00000000
00000010
00000000
00000000
00000010
00000000
,
00000100
00000000
00001000
00000000
00010000
00000000
00001000
00000000
00100000
00000000
00000000
00100000
00000000
00000000
00000000
00000000
,
00001000
00100000
00000000
00010000
00100000
00000000
01000000
00100000
00000000
00010000
00100000
00000000
00002000
00000000
00000000
00000000
,
00013000
00000010
00000000
00001000
00000010
00000000
00000100
00000010
00000000
00001000
00000010
00000000
00020000
00000000
00000000
00000000
,
00031000
01000000
00000000
00010000
01000000
00000000
00100000
01000000
00000000
00010000
01000000
00000000
00002000
00000000
00000000
00000000
,
00013000
00000100
00000000
00001000
00000100
00000000
00000010
00000100
00000000
00001000
00000100
00000000
00020000
00000000
00000000
00000000
,
00030010
00000010
00000100
00000010
00000000
00001000
00000001
00000100
,
00001000
00001000
00010000
00001000
00000000
00010000
01000000
00000000
,
10000000
10000000
00000000
00000000
00010000
00010000
00000000
00000000
,
01000000
00000000
00100000
00000000
10000000
00000000
01000000
00100000
00000000
01000000
00100000
00000000
00010000
00000000
01000000
00000000
,
00001000
00010000
00000100
00000000
00000010
00000100
00001000
00000000
,
00000010
00000000
00001000
00000000
00000001
00000000
00000100
00000010
00000000
00000100
00000010
00000000
00000100
00000000
00001000
00000000
,
00010000
01000000
10000000
00000000
00010000
10000000
01000000
00000000
,
00100000
00000000
00010000
00000000
01000000
00000000
00001000
00010000
00000000
00001000
00010000
00000000
00000100
00000000
00010000
00000000
,
00001000
00000010
00000100
00000000
00001000
00000001
00000010
00000000
,
00000100
00000000
00001000
00000000
00000001
00000000
00000100
00000010
00000000
00001000
00000010
00000000
00010000
00000000
00001000
00100000
,
00000000
00010000
00100000
00000000
01000000
00000000
10000000
00010000
00000000
01000000
00010000
00000000
10000000
00000000
00100000
00000000
,
02000000
00000000
03020000
00000000
,
20030000
00000000
32000000
00000000
,
03020000
00000000
00032000
00000000
,
00003020
00000000
00000032
00000000
,
00001003
00000100
00000010
00000001
00000100
00000010
00001000
00000100
,
00000010
00001000
00010000
01000000
10000000
00100000
01000000
00010000
,
00100000
00010000
00000000
00100000
01000000
00000000
00100000
00010000
00000000
00100000
00001000
00000000
00020000
00000000
00000000
00000000
,
00030010
00001000
00000000
00000010
00000100
00000000
00000010
00001000
00000000
00000010
00010000
00000000
00002000
00000000
00000000
00000000
,
01003000
00010000
00000000
01000000
00100000
00000000
01000000
00010000
00000000
01000000
00001000
00000000
00020000
00000000
00000000
00000000
,
00030100
00001000
00000000
00000100
00000010
00000000
00000100
00001000
00000000
00000100
00010000
00000000
00002000
00000000
00000000
00000000
,
00103000
00100000
01000000
00100000
00000000
00010000
10000000
01000000
,
00010000
00001000
00000100
00000001
00000000
00001000
00000100
00000000
,
00001000
00000000
00000010
00000000
,
00000202
00000000
00000000
00000303
,
00000010
00000000
00001000
00000000
,
00010000
00000000
00001000
00000000
00000100
00000000
00001000
00010000
00000000
00000000
00000000
00000000
00001000
00000000
00000000
00000000
,
00010000
01000000
10000000
00000000
00010000
01000000
00100000
00000000
,
10000000
00100000
00010000
00000000
10000000
01000000
00010000
00000000
,
00110000
00011000
00001100
00000110
,
00000001
00000010
00000001
00000010
00000001
00000000
00000000
00000000
00001000
00000010
00001000
00000010
00001000
00000000
00000000
00000000
,
00000100
00000000
00000010
00000000
00000001
00000000
00000100
00000010
00000000
00000100
00000010
00000000
00001000
00000000
00000100
00000000
,
00010000
00001000
01000000
00000000
00100000
01000000
00010000
00000000
,
00100000
00000000
00010000
00000000
10000000
00000000
01000000
00100000
00000000
01000000
00100000
00000000
01000000
00000000
00010000
00000000
,
00001000
00000100
00000001
00000000
00001000
00000001
00000100
00000000
,
00000010
00000000
00001000
00000000
00000100
00000000
00010000
00001000
00000000
00010000
00001000
00000000
01000000
00000000
00001000
00000000
,
00010000
00100000
01000000
00000000
00010000
10000000
00100000
00000000
,
01000000
00000000
00010000
00000000
10000000
00000000
01000000
00100000
00000000
00010000
00100000
00000000
00001000
00000000
00010000
00000010
,
00000000
00001000
00000010
00000000
00000100
00000000
00000001
00001000
00000000
00000100
00001000
00000000
00000001
00000000
00000000
00000000
,
00001000
00000000
00000100
00000000
00000010
00000000
00000000
00000000
00000100
00000000
00010000
00001000
00000000
00000000
00100000
00000000
,
00010000
00100000
00001000
00010000
00001000
00100000
00010000
00000000
,
01000000
00000000
00100000
00000000
01000000
00000000
00000000
00000000
00100000
00000000
10000000
00010000
00000000
00000000
00100000
00000000
,
01000000
10000000
00010000
10000000
01000000
00010000
00001000
00000000
,
00010000
00000000
00000000
00000000
00010000
00000000
00000000
00000000
00000010
00000000
00000000
00000100
00000000
00000000
00000001
00000000
,
00000000
00000010
00000100
00000000
00001001
00000000
00000110
00000000
,
00001000
00000000
00000000
00000000
00001000
00000000
00000000
00000000
00010000
00000000
00000000
00100000
00000000
00000000
01000000
00000000
,
00000000
00100000
10000000
00010000
00100000
01000000
10000000
00010000
,
02000000
00000000
00000000
00000000
,
03000000
00000000
00000000
00000000
,
00000000
00000000
00000000
00000000
;
