
//----- song id: ovtp
#TITLE:Over The “Period”;
#ARTIST:TAG underground overlay;
#BANNER:Over The Period.png;
#BACKGROUND:Over The Period-bg.png;
#CDTITLE:./CDTitles/DDR (2014).png;
#MUSIC:Over The Period.ogg;
#SAMPLESTART:1.847;
#SAMPLELENGTH:15;
#DISPLAYBPM:23:840;
#BPMS:0=32.5,7=30,8=27.5,9=25,10=22.5,10.938=45,11=200,75=160,107=80,107.5=160,108=320,110=160,110.5=80,111.5=160,112=320,114=160,114.5=80,115.5=160,116=320,118=160,118.5=80,119.5=160,120=320,122=160,122.5=80,123.5=160,124=320,126=160,126.5=80,127.5=160,128=320,130=160,130.5=80,131.5=160,132=320,134=160,134.5=80,135.5=160,136=320,138=160,138.5=80,139=160,171=105,173=210,175=420,179=210,241=420,321=52.5,322=105,324=210,328=420,336=840,352=420;
#STOPS:10.938=1.281,239=0.095,239.33333=0.095,239.66667=0.095,240=0.095,240.33333=0.095,240.66667=0.095;
#NOTES:
     dance-single:
     :
     Beginner:
     8:
     :
0000
0001
0010
0100
,
1000
0001
0100
0020
,
2030
0000
0000
0000
0000
0000
0000
0000
3002
0000
0000
0000
0000
0000
0000
0000
2003
0000
0000
0000
0000
0000
0000
3000
0001
0000
0000
0000
0000
0000
0000
0000
,
0001
0000
0000
0100
,
0100
0000
0000
0001
,
0001
0000
0000
0010
,
0010
0000
0000
0100
,
0010
1000
0100
0010
,
0001
0100
1000
1000
,
0010
0001
0010
2000
,
0000
3000
1001
0100
,
0010
1000
0100
0001
,
0010
0100
1000
0100
,
1000
0010
0010
1000
,
1000
0001
0001
1000
,
0100
1000
0010
0001
,
0100
0001
0010
0100
,
0100
0010
0001
1000
,
0000
0001
0000
1000
,
0100
1000
0010
1000
,
0100
1000
1000
0100
,
0010
0001
0100
0010
,
0000
1000
0001
0001
,
0100
0001
0010
0001
,
0100
0001
0001
0100
,
0010
1000
0001
1001
,
0000
0001
1000
0002
,
0000
0003
0020
0000
0000
0030
0200
0000
,
0000
0300
2000
0000
0000
3000
0002
0000
,
0000
0003
0200
0000
0000
0300
0020
0000
,
0000
0030
2000
0000
0000
3000
0200
0000
,
0000
0300
2000
0000
0000
3000
0002
0000
,
0000
0003
0200
0000
0000
0300
0020
0000
,
0000
0030
2000
0000
0000
3000
0002
0000
,
0000
0003
0020
0000
0000
0030
0100
0000
,
0010
0001
1000
0020
,
0000
0200
0330
1000
,
0001
0010
0001
2000
,
0000
0020
3030
0100
,
0100
0010
0010
1000
,
0100
0010
0001
0100
,
0010
1000
0100
0001
,
0010
1000
0001
2000
,
0000
0000
0000
0000
,
0000
0000
0000
3010
,
0010
0000
0000
0100
,
0000
0100
0000
0000
0000
0000
0001
0000
,
0001
0000
0000
1000
,
0100
2000
0000
3010
,
0010
0000
0000
0100
,
0000
0100
0000
0000
0000
0000
0001
0000
,
0000
1000
0000
0220
,
0000
0000
0330
1000
,
0010
0001
0100
1000
,
0010
0100
0001
0010
,
0001
1000
0010
1000
,
1000
0001
0001
0010
,
0100
0001
0010
1000
,
0100
1000
0010
0100
,
0001
0010
1000
0020
,
0000
0130
0000
0100
,
0000
0010
0000
1000
,
0000
0100
0000
0010
,
0000
0001
0000
0010
,
0000
0001
0000
0100
,
0000
1000
0000
0001
,
0000
1000
0000
1100
,
0000
0001
0000
0101
,
0000
0001
0000
0100
,
0000
0010
0000
1000
,
0000
0001
0000
0010
,
0000
0100
0000
1000
,
0000
0001
0000
0010
,
0000
1000
0000
0010
,
0000
0002
0000
2003
,
0000
3002
0000
2003
,
0000
3020
0000
0000
,
0000
0000
0000
0000
,
0000
0230
0000
0000
,
0000
0000
0000
0000
,
0300
0000
2002
3003
,
0220
0000
0000
0330
,
2002
0000
0000
0000
,
0000
0000
0000
3003
,
0220
0000
0000
0000
,
0000
0000
0000
0000
,
0000
0000
0000
0000
,
0000
0000
0330
0000
,
1000
0000
0000
0001
,
0000
0000
1000
0000
,
0000
0001
0000
0000
,
0010
0000
0100
0000
,
0000
0000
1000
0000
,
0001
0001
0000
0010
,
0000
0000
1000
0000
,
0002
0000
0003
0000
,
0000
0000
0000
0000
;
#NOTES:
     dance-single:
     :
     Easy:
     12:
     :
0000
0000
0000
0000
1000
0010
0100
0001
2000
0000
3002
0000
1003
0100
0010
0001
,
2000
0000
0000
0000
3002
0000
0000
0000
1003
0000
0100
0000
0001
0000
0010
0000
2000
0000
0000
0000
3002
0000
0013
0100
2000
0000
0000
0000
0000
0000
0000
0000
,
0002
0000
0000
0000
3000
0000
0100
0000
0200
0000
0000
0000
0000
0000
0003
0000
0020
0000
0000
0000
0000
0000
0000
0330
1000
0000
0000
0000
0001
0000
0000
0000
,
1000
0000
0000
0001
0000
0001
0010
0000
,
0010
0100
0000
0100
0000
0100
1000
0001
,
1000
0000
0000
0010
0000
0010
0100
0000
,
0100
0001
0000
0001
0000
0001
0010
0001
,
0100
0000
0001
0100
0010
0000
0100
0010
,
1000
0000
0010
1000
0001
0000
0001
0010
,
0100
0010
0001
0100
0010
1000
0002
0000
,
0000
0003
1001
0010
,
0100
0000
0001
0100
0010
0000
1000
0001
,
0100
0000
0010
1000
0001
0000
0010
0000
,
0001
0000
0100
0010
0100
0000
0101
0000
,
1100
0011
1010
0001
,
0010
0000
0001
0010
0100
0000
1000
0001
,
0010
0000
1000
0001
0100
0000
0010
0000
,
0010
0000
0000
0000
0000
0000
0100
0000
0000
0010
0000
0000
1000
0000
0000
0000
0000
0000
0001
0000
0000
0000
0001
0000
,
0000
0000
0001
0000
0000
0000
1000
0000
0000
0000
1000
0000
0000
0000
1000
0000
0000
0000
0001
0000
0000
0100
0000
0000
,
0010
1000
0001
0010
0100
1000
0001
0100
,
0010
1000
0001
1000
0001
1000
0010
1000
,
0010
0000
0100
0000
0001
0000
1000
0000
0100
0000
0010
0000
0011
0000
0000
1100
,
0000
0101
0001
0000
1000
0000
1000
0100
,
0010
0001
1000
0010
0100
0001
1000
0100
,
0010
0001
1000
0001
1000
0001
0010
0001
,
0010
0000
0100
0000
1000
0000
0001
0000
0100
0000
0010
0000
1010
0000
0000
0101
,
0000
1100
1000
0000
0001
0000
2002
0000
,
0000
3003
2200
0000
0000
3300
0022
0000
,
0000
0033
2200
0000
0000
3300
2020
0000
,
0000
3030
0220
0000
0000
0330
0202
0000
,
0000
0303
0022
0000
0000
0033
0220
0000
,
0000
0330
2002
0000
0000
3003
2020
0000
,
0000
3030
0220
0000
0000
0330
0022
0000
,
0000
0033
2200
0000
0000
3300
2020
0000
,
0000
3030
0220
0000
0000
0330
0001
0000
,
0100
0000
1000
0010
0001
0000
1200
0000
,
0010
0001
0310
0001
,
1000
0000
0001
0100
1000
0000
0201
0000
,
0010
0000
1000
0000
0310
0000
0100
0001
,
0100
0000
0010
1000
0100
0000
0010
0100
,
0010
0000
0001
1000
0100
0000
0010
0001
,
0100
0010
1000
0100
0010
0100
1000
0001
,
0100
0010
0100
0001
1000
0100
2000
0000
,
0000
0000
0000
0000
,
0000
0000
0000
0000
0000
0000
3001
0010
,
0100
0000
0000
0010
0000
0010
0100
0000
,
1000
0100
0000
0001
0100
1000
0010
0100
,
0010
0000
0000
0000
0000
0000
0100
0000
0000
0000
0100
0000
0010
0000
0000
1000
,
0001
0000
0000
0100
0002
0000
0000
0000
0000
0000
0000
0000
0103
0000
0010
0000
,
0100
0000
0000
0010
0000
0010
1000
0000
,
0001
1000
0000
0100
1000
0000
0010
1000
,
0001
0000
0010
0001
1000
0000
0220
0000
,
0000
0330
1001
0010
,
0100
0000
1000
0100
0010
0000
0001
1000
,
0100
0000
0010
0001
1000
0000
0010
0000
,
1000
0000
0100
0010
0100
0000
1100
0000
,
0101
1010
0011
1000
,
0010
0000
1000
0010
0100
0000
0001
1000
,
0010
0000
0001
1000
0100
0000
0010
0000
,
0010
0000
0000
0000
0000
0000
0100
0000
0000
0010
0000
0000
0001
0000
0000
0000
0000
0000
0100
0000
0100
0000
0100
0000
,
0010
0010
0010
1000
0000
0000
0000
0000
0000
0010
0000
0000
,
0000
0100
0001
1000
,
0001
0010
0000
0100
,
0000
0010
0001
0100
,
0010
1000
0000
0010
,
0000
0001
0100
1000
,
0000
0011
0000
0101
,
0000
1100
0000
1010
,
0000
1000
0001
0010
,
0001
0100
0010
1000
,
0010
1000
0100
0010
,
0001
0010
0100
1000
,
0010
1000
0100
0010
,
0001
0100
0001
1000
,
0001
2000
0000
0002
,
3000
2000
0003
0002
,
3000
0200
0000
0000
,
0000
0000
0000
0000
,
0003
0020
0000
0000
,
0000
0000
0000
0000
,
0330
0000
0202
0303
,
2020
0000
0000
3030
,
0022
0000
0000
0000
,
0000
0000
0000
0033
,
2200
0000
0000
0000
,
0000
0000
0000
0000
,
0000
0000
0000
0000
,
0000
0000
3300
0000
,
0001
0010
0000
1000
,
0010
0000
0001
0010
,
0000
1000
0010
0000
,
0001
1000
0100
0010
,
0000
0001
0010
0100
,
1000
0001
0000
0110
,
0000
0001
0100
0010
,
2000
0000
3000
0000
,
0000
0000
0000
0000
;
#NOTES:
     dance-single:
     :
     Medium:
     15:
     :
0000
0000
0000
0000
0001
0010
0100
1000
0002
0000
2003
0000
3001
0100
0010
1000
,
0002
0000
0000
0000
2003
0000
0000
0000
3001
0000
0100
0000
1000
0000
0010
0000
0002
0000
0000
0000
2003
0000
3010
0100
0002
0000
0000
0000
0000
0000
0000
0000
,
2000
0000
0000
0000
0003
0000
0100
0000
0200
0000
0000
0000
0000
0000
3000
0000
0020
0000
0000
0000
0000
0000
0000
0330
0001
0000
1000
0000
0001
0000
1000
0000
,
0001
0000
0000
1000
0000
1100
0001
0000
,
0101
0000
0001
0000
0000
0000
0011
0000
0000
0000
1010
0000
1000
0001
1000
0001
,
1000
0000
0000
0001
0000
0101
1000
0000
,
1100
1000
0000
1010
0000
0011
1000
0010
,
0100
0001
1000
0100
0010
0001
1000
0001
,
1000
0010
0100
0001
0010
0100
1000
0001
,
0010
0100
0010
0000
0001
0000
0100
0000
0010
0100
0010
0000
2000
0000
0000
0000
,
0000
0000
3000
0000
1001
0000
0010
0001
,
0100
0000
1000
0000
0100
0000
0001
0000
1000
0000
0010
0100
0001
0000
1000
0000
,
0100
0010
0001
0001
1000
1000
0010
0100
,
1000
0000
0100
0000
0001
1000
0001
1000
0001
0000
1100
0000
0000
0000
0101
0000
,
0000
1010
0000
0011
0110
1000
0000
0010
,
1000
0000
0001
0000
1000
0000
0010
0000
0100
0000
1000
0100
0010
0000
0001
0000
,
0010
1000
0001
0001
1000
1000
0001
0010
,
0100
0000
0000
0000
0000
0000
0010
0000
0000
0000
0000
0000
0001
0000
0000
0010
0000
0000
0001
0000
0000
0010
0000
0000
0001
0000
0000
0000
0000
0000
1000
0000
0000
0000
0000
0000
0100
0000
0000
0000
0000
0000
0000
0000
0100
0000
0000
0000
,
0000
0000
0010
0000
0000
0000
0001
0000
0000
0000
0100
0000
0000
0000
0010
0000
0000
0000
1000
0000
0000
0100
0000
0000
,
0010
0000
0001
0000
1000
0010
1000
0010
0100
0001
0100
0001
1000
0000
0100
0000
,
0010
0000
0001
0000
1000
0001
1000
0001
0100
0010
0100
0010
1000
0000
0001
0000
,
0010
0000
0100
0000
1000
0001
1000
0001
0010
0100
0010
0100
2000
0000
3002
0100
,
0000
0103
0010
0000
1000
0000
0000
0000
1001
0000
0000
0000
0001
0000
0100
0000
,
0010
0000
1000
0000
0001
0010
0001
0010
0100
1000
0100
1000
0001
0000
0100
0000
,
0010
0000
1000
0000
0001
1000
0001
1000
0100
0010
0100
0010
0001
0000
1000
0000
,
0010
0000
0100
0000
0001
1000
0001
1000
0010
0100
0010
0100
0002
0000
2003
0100
,
0000
3100
0010
0000
0001
0000
0000
0000
1001
0000
0000
0000
2002
0000
0000
0000
,
0000
3003
0202
0000
0000
0303
1020
0100
,
0000
0030
0202
0000
0000
0303
0022
0000
,
0000
0033
0220
0000
0000
0330
2100
0001
,
0000
3000
2020
0000
0000
3030
0220
0000
,
0000
0330
2002
0000
0000
3003
0012
0100
,
0000
0003
0220
0000
0000
0330
2020
0000
,
0000
3030
0202
0000
0000
0303
0012
1000
,
0000
0003
0220
0000
0000
0330
1000
0000
,
0100
0000
0000
0000
0001
0000
0010
0000
1000
0000
0000
0000
0002
0100
0000
0000
,
0203
0010
0000
0000
0320
1000
0000
0000
1030
0001
0000
0000
0010
0000
0000
0000
,
0100
0000
0000
0000
1000
0000
0100
0000
0001
0000
0000
0000
2000
0010
0000
0000
,
3020
0100
0000
0000
0230
0001
0000
0000
0301
1000
0000
0000
0100
0000
1000
0000
,
0100
1000
0001
0100
0001
0100
0010
1000
,
0010
0000
1000
0000
0001
0000
0010
0000
0001
0000
0010
0000
0100
1000
0100
0000
,
0010
0100
0010
0000
0001
1000
0001
0000
0100
0010
0100
0000
0001
0010
0100
1000
,
0001
0000
1000
0010
0100
0001
1000
0000
0001
1000
0100
1000
0002
0000
0000
0000
,
0000
0000
0000
0000
,
0000
0000
0000
0000
0000
0000
1003
0010
,
0110
0000
0001
0010
0000
0010
0001
0000
,
1000
0010
0000
1000
0100
0010
0001
0010
,
0110
0000
0000
0000
0001
0000
0010
0000
0000
0000
0010
0000
0001
0000
0000
1000
,
0100
0000
0000
1000
0010
1000
0010
1000
0010
1000
0010
1000
0010
0000
0100
0000
,
0110
0000
0100
0001
0000
0001
0010
0000
,
0001
0100
0000
0010
1000
0100
0010
0010
,
0001
1000
0001
0000
0010
0000
0010
0000
0100
0010
0100
0000
0020
0000
0000
0000
,
0000
0000
0000
0000
0130
0000
0010
1000
,
0100
0000
0001
0000
0100
0000
1000
0000
0001
0000
0010
0100
1000
0000
0001
0000
,
0100
0010
1000
1000
0001
0001
0010
0100
,
0001
0000
0100
0000
1000
0001
1000
0001
1000
0000
0101
0000
0000
0000
1100
0000
,
0000
0011
0000
1010
0110
0001
0000
0010
,
0001
0000
1000
0000
0001
0000
0010
0000
0100
0000
0001
0100
0010
0000
1000
0000
,
0010
0001
1000
1000
0001
0001
1000
0010
,
0100
0000
0000
0000
0000
0000
0010
0000
0000
0000
0000
0000
1000
0000
0000
0010
0000
0000
1000
0000
0000
0010
0000
0000
1000
0000
0000
0000
0000
0000
0001
0000
0000
0000
0000
0000
0100
0000
0000
0000
0100
0000
0000
0000
0010
0000
0000
0000
,
1000
0100
0010
0001
0000
0000
0010
0000
0000
0100
0000
0000
,
0010
0000
0100
0010
0100
0000
1000
0001
,
1000
0001
1000
0010
,
0100
0000
0010
1000
0010
0000
0100
0001
,
0100
0001
0100
0010
,
0100
1000
0100
0001
,
0100
1010
0000
1100
,
0000
0101
0000
0011
,
0000
0100
1000
0010
,
0100
0000
1000
0000
0100
0000
0010
0100
,
0010
1000
0100
0010
,
0001
0000
1000
0000
0001
0000
0010
0001
,
0010
0001
0100
0010
,
1000
0100
1000
0001
,
1000
0000
0001
0010
0001
0000
1000
0010
,
1000
0000
0001
0100
0001
0000
1000
0100
,
1000
0100
0010
0100
,
0010
0100
0010
0100
,
0010
0000
0001
1000
0001
1000
0001
1000
,
0001
1000
0001
1000
0001
1000
0001
1000
,
0001
1000
0000
0000
2200
0000
3300
0000
,
0022
0000
0000
0033
,
2020
0000
0000
0000
,
0000
0000
0000
3030
,
0200
0000
0000
0000
,
0000
0000
0000
0000
,
0002
0000
0000
0000
,
0000
0000
0303
0000
,
1000
1100
0000
0001
,
0011
0000
1000
1010
,
0000
0001
0101
0000
,
1000
0000
0001
0000
0100
0010
0100
0010
,
0000
0000
0010
0000
1000
0001
1000
0001
,
0100
0001
0000
0110
,
0000
0000
0010
0000
0001
1000
0001
1000
,
0002
0000
0003
0000
,
0000
0000
0000
0000
;
#NOTES:
     dance-single:
     :
     Hard:
     18:
     :
0000
0000
0000
0000
1000
0100
0010
0001
2000
0000
3002
0000
1003
0010
0100
0001
,
2000
0000
0000
0000
3002
0000
0000
0000
1003
0000
0010
0000
0001
0000
0100
0000
2000
0000
0000
0000
3002
0000
0103
0010
2000
0000
0000
0000
0000
0000
0000
0000
,
0002
0000
0000
0000
3000
0000
0010
0000
0020
0000
0000
0000
0000
0000
0003
0000
0200
0000
0000
0000
0000
0000
0000
0330
1000
0000
0001
0000
0100
0000
0001
0000
,
1000
0000
0000
0011
0000
0011
1010
0000
,
1010
0000
1100
0000
0000
0000
0101
0000
0000
0000
1001
0000
0001
1000
0100
1000
,
0001
0000
0000
1010
0000
1010
0011
0000
,
0011
0101
0000
1100
0000
1001
0001
0100
,
0010
1000
0001
0010
0100
1000
0001
1000
,
0001
0100
0010
1000
0100
0010
0001
1000
,
0100
0010
0001
0010
0100
0000
1000
0000
0001
0100
0010
0100
0002
0000
0000
0000
,
0000
0000
0000
0000
0003
0000
0000
0000
1001
0000
0000
0000
0110
0000
1000
0100
,
0010
0000
0001
0000
0010
0100
1000
0000
0001
0000
0100
0010
1000
0000
0001
0000
,
0010
0001
1000
0000
0001
0100
0001
0000
1000
0100
1000
0000
0100
0000
0010
0001
,
0100
0000
0010
0000
1000
0001
0100
0000
0001
0000
0011
0000
1000
0000
1010
0000
,
0001
0000
0101
0000
1000
0000
1100
0000
0110
0000
0001
0000
1000
0000
0100
0010
,
0001
0000
1000
0000
0001
0010
0100
0000
0010
0000
0001
0100
0010
0000
1000
0000
,
0100
0010
0001
0000
1000
0010
1000
0000
0001
0010
0001
0000
1000
0000
0001
0100
,
1000
0000
0000
0000
0000
0000
0100
0000
0000
0000
0000
0000
1000
0000
0000
0100
0000
0000
0001
0000
0000
0000
0000
0000
1000
0000
0000
0100
0000
0000
0010
0000
0000
0000
0000
0000
0001
0000
0000
0000
0000
0000
0000
0000
0011
0000
0000
0000
,
0000
0000
0000
0000
0100
0000
0000
0000
0000
0000
0000
0000
1000
0000
0000
0000
0000
0000
0000
0000
1010
0000
0000
0000
0000
0000
0000
0000
0100
0000
0000
0000
0000
0000
0000
0000
0001
0000
0000
0010
0000
0000
0100
0000
0000
1000
0000
0000
,
0001
0010
0100
1000
0001
0010
0100
1000
0001
0100
0010
1000
0001
0010
0100
1000
,
0001
0010
0100
1000
0001
0010
0100
1000
0001
0100
0010
1000
0001
0010
0100
1000
,
0001
0010
0100
1000
0001
0010
0100
1000
0001
0100
0010
1000
1020
0000
2030
0010
,
0000
3010
0100
0001
1000
0000
0000
0000
0001
0000
0000
0000
1000
0010
0100
0001
,
1000
0010
0100
0001
1000
0010
0100
0001
1000
0100
0010
0001
1000
0010
0100
0001
,
1000
0010
0100
0001
1000
0010
0100
0001
1000
0100
0010
0001
1000
0010
0100
0001
,
1000
0010
0100
0001
1000
0010
0100
0001
1000
0100
0010
0001
0021
0000
0032
0010
,
0000
0013
0100
1000
0001
0000
0000
0000
1000
0000
0000
0000
2002
0000
0000
0000
,
0000
3003
2020
0000
0000
3030
0101
0010
,
0200
0300
2020
0000
0000
3030
2200
0000
,
0000
3300
0220
0000
0000
0330
0011
1000
,
0002
0003
0202
0000
0000
0303
0220
0000
,
0000
0330
2002
0000
0000
3003
1100
0010
,
0002
0003
0220
0000
0000
0330
0202
0000
,
0000
0303
2020
0000
0000
3030
1001
0001
,
2000
3000
0220
0000
0000
0330
0001
0000
,
0010
0000
0000
0000
1000
0000
0100
0000
0001
0000
0000
0000
2000
0010
0000
0000
,
3020
0100
0000
0000
0230
0001
0000
0000
0301
1000
0000
0000
0100
0000
0000
0000
,
0010
0000
0000
0000
0001
0000
0010
0000
1000
0000
0000
0000
0002
0100
0000
0000
,
0203
0010
0000
0000
0320
1000
0000
0000
1030
0001
0000
0000
0010
0000
0001
0000
,
0010
0001
1000
0010
1000
0010
0100
0001
,
0100
0000
0001
0000
1000
0000
0100
0000
1000
0000
0100
0000
0010
0001
1000
0001
,
0010
0100
1000
0100
1000
0001
0100
0010
1000
0001
0010
0100
1000
0100
0010
0001
,
1000
0001
0100
0001
1000
0100
0001
0100
1000
0010
0001
0010
2000
0000
0000
0000
,
0000
0000
0000
0000
,
0000
0000
0000
0000
0000
0000
3001
0100
,
0110
0000
0000
0000
1000
0000
0110
0000
0000
0000
0110
0000
1000
0000
0100
0010
,
0001
0000
0100
0000
0010
1000
0001
0000
0010
0001
1000
0000
0001
0000
0100
0000
,
0110
0000
0000
0000
1000
0000
0110
0000
0000
0000
0110
0000
1000
0000
0001
1000
,
0100
0000
1000
0001
0100
0001
0100
0001
0100
0001
0100
0001
0100
0000
0010
0000
,
0110
0000
0000
0000
0010
0000
1001
0000
0000
0000
1001
0000
0100
0000
0010
1000
,
0100
0000
1000
0000
0001
1000
0010
0000
1000
0001
0010
0000
0001
0000
0001
0000
,
0100
0001
1000
0001
0100
0000
0100
0000
0010
0100
0001
0100
0020
0000
0000
0000
,
0000
0000
0000
0000
0000
0000
0000
0000
0130
0000
0000
0000
1010
0000
0001
0100
,
0010
0000
1000
0000
0010
0100
0001
0000
1000
0000
0100
0010
0001
0000
1000
0000
,
0010
1000
0001
0000
1000
0100
1000
0000
0001
0100
0001
0000
0100
0000
0010
1000
,
0100
0000
0010
0000
0001
1000
0100
0000
1000
0000
1010
0000
0001
0000
0011
0000
,
1000
0000
1100
0000
0001
0000
0101
0000
0110
0000
1000
0000
0001
0000
0100
0010
,
1000
0000
0001
0000
1000
0010
0100
0000
0010
0000
1000
0100
0010
0000
0001
0000
,
0100
0010
1000
0000
0001
0010
0001
0000
1000
0010
1000
0000
0001
0000
1000
0100
,
0001
0000
0000
0000
0000
0000
0100
0000
0000
0000
0000
0000
0001
0000
0000
0100
0000
0000
1000
0000
0000
0000
0000
0000
0001
0000
0000
0100
0000
0000
0010
0000
0000
0000
0000
0000
1000
0000
0000
0000
1010
0000
0000
0000
0100
0000
0000
0000
,
0001
0000
0011
0000
0100
0000
0010
0000
0000
0000
0000
0000
0001
0000
0000
0010
0000
0000
0100
0000
0000
0000
0000
0000
,
0010
0000
0001
0100
0010
0000
1000
0010
,
0100
0001
1000
0000
0001
1000
0100
0000
,
0010
0000
0100
1000
0001
0000
0100
0010
,
1000
0001
1000
0000
0010
1000
0100
0000
,
0010
0000
0001
0100
0010
0000
0100
0010
,
0100
0101
0001
0011
,
1000
1010
1000
1100
,
0100
0000
0010
0000
0001
1000
0100
0000
,
0010
0000
0001
1000
0010
0000
0100
0010
,
1000
0001
0100
0000
0010
1000
0100
0000
,
0010
0000
0001
0010
0100
0000
1000
0100
,
1000
0000
0001
0000
0100
0010
1000
0000
,
0100
0000
0010
0001
1000
0000
0010
1000
,
0001
0000
1000
0100
1000
0100
0010
0100
,
0010
0100
0001
0100
0001
0100
0010
0100
,
0010
0200
0010
0000
0010
0000
0010
0000
,
0010
0010
0010
0010
,
0310
0000
0001
0100
0010
1000
0100
0010
,
0001
0100
0010
1000
0010
0100
0001
0010
,
0100
0000
0000
1000
0000
0000
0000
0000
0000
0000
0000
0000
0001
0010
0001
0010
0001
0010
0001
0010
0001
0010
0001
0010
,
0100
1000
0100
1000
0100
1000
0100
1000
0100
1000
0100
1000
,
0001
0100
0001
0100
0001
0100
0001
0100
,
0001
0100
0001
0100
0001
0100
0001
0100
,
0010
0100
0010
0100
,
0010
0100
0010
0100
,
0010
0100
0010
0100
,
0010
0100
0010
0100
,
1010
1001
0000
0011
,
1001
0000
1100
1001
,
0000
0101
1001
0000
,
1010
0000
0101
0000
0010
1000
0001
0010
,
0000
0000
0110
0000
0100
1000
0001
0100
,
0010
1010
0000
0110
,
0000
0000
0100
0010
1000
0100
0010
0001
,
2000
0000
3000
0000
,
0000
0000
0000
0000
;
#NOTES:
     dance-single:
     :
     Challenge:
     19:
     :
0000
0000
0000
0000
0001
0100
1000
0010
0012
0000
2000
3003
0010
1000
0100
0001
,
0021
0000
0000
0000
0200
0000
0330
0000
1000
0000
0010
0000
0001
0000
0100
0000
0102
0000
0000
0000
2003
0000
3100
0010
0002
0000
0000
0000
0000
0000
0000
0000
,
2000
0000
0000
0000
0003
0000
3010
0000
2020
0000
0000
0000
0000
0000
3000
0000
0200
0000
0000
0000
0000
0000
0000
0330
0001
0000
0100
0000
1000
0000
0100
0000
,
0001
0000
0000
1010
0000
0011
1001
0000
,
1001
0000
0101
0000
0000
0000
1100
0000
0000
0000
1001
0000
1000
0100
0001
0100
,
1000
0000
0000
0011
0000
1010
1001
0000
,
1001
1100
0000
0101
0000
1001
1000
0100
,
0010
0001
0010
0000
0100
0000
1000
0000
0001
0100
0001
0000
1000
0000
0001
0000
,
1000
0100
1000
0000
0010
0000
1000
0000
0001
0100
0001
0000
1000
0000
0001
0000
,
0100
0010
1000
0100
0010
0000
0001
0000
0100
0010
1000
0001
2000
0000
0000
0000
,
0000
0000
0000
0000
3000
0000
0000
0000
1001
0000
0000
0000
0110
0000
0001
0100
,
1000
0000
0001
0000
1000
0100
0001
0000
0010
0000
0001
0010
1000
0000
0001
0000
,
1000
0010
0001
0000
1000
0100
0010
0000
0001
0100
0010
0000
0100
0000
0001
0100
,
1000
0000
0001
0000
1000
0100
0001
0000
1000
0000
1001
0000
0011
0000
1001
0000
,
1100
0000
1001
0000
0101
0000
1001
0000
0110
0000
1000
0000
0001
0000
0100
0001
,
0010
0000
1000
0000
0010
0001
0100
0000
1000
0000
0100
0001
0010
0000
0001
0000
,
0100
0010
1000
0000
0001
0010
0100
0000
1000
0010
0100
0000
0001
0000
0010
0001
,
0100
0000
0000
0000
0000
0000
1000
0000
0000
0000
0000
0000
0001
0000
0000
0010
0000
0000
1000
0000
0000
0000
0000
0000
0001
0000
0000
0010
0000
0000
1000
0000
0000
0000
0000
0000
1010
0000
0000
0000
0000
0000
0000
0000
0110
0000
0000
0000
,
0000
0000
0000
0000
1100
0000
0000
0000
0000
0000
0000
0000
0101
0000
0000
0000
0000
0000
0000
0000
0110
0000
0000
0000
0000
0000
0000
0000
1001
0000
0000
0000
0000
0000
0000
0000
1000
0000
0000
0010
0000
0000
0100
0000
0000
0001
0000
0000
,
1000
0000
0000
0010
0000
0000
0100
0000
0000
0001
0000
0000
1000
0000
0000
0010
0000
0000
0100
0000
0000
0001
0000
0000
1000
0000
0100
0000
1000
0000
0100
0000
0010
0000
0001
0000
1000
0000
0000
0001
0000
0000
0100
0000
0000
0010
0000
0000
,
1000
0000
0000
0001
0000
0000
0100
0000
0000
0010
0000
0000
1000
0000
0000
0001
0000
0000
0100
0000
0000
0010
0000
0000
1000
0000
0100
0000
1000
0000
0100
0000
0010
0000
0001
0000
1000
0000
0000
0010
0000
0000
0100
0000
0000
0001
0000
0000
,
1000
0000
0000
0010
0000
0000
0100
0000
0000
0001
0000
0000
1000
0000
0000
0010
0000
0000
0100
0000
0000
0001
0000
0000
1000
0000
0100
0000
1000
0000
0100
0000
0010
0000
0001
0000
0021
0000
0000
0000
0000
0000
0032
0000
0000
1000
0000
0000
,
0000
1003
0010
0100
0001
0000
0101
0000
1000
0000
1100
0000
0001
0010
0100
1000
,
0001
0000
0000
0010
0000
0000
0100
0000
0000
1000
0000
0000
0001
0000
0000
0010
0000
0000
0100
0000
0000
1000
0000
0000
0001
0000
0100
0000
0001
0000
0100
0000
0010
0000
1000
0000
0001
0000
0000
1000
0000
0000
0010
0000
0000
0100
0000
0000
,
0001
0000
0000
1000
0000
0000
0010
0000
0000
0100
0000
0000
0001
0000
0000
1000
0000
0000
0010
0000
0000
0100
0000
0000
0001
0000
0100
0000
0001
0000
0100
0000
0010
0000
1000
0000
0001
0000
0000
0010
0000
0000
0100
0000
0000
1000
0000
0000
,
0001
0000
0000
0010
0000
0000
0100
0000
0000
1000
0000
0000
0001
0000
0000
0010
0000
0000
0100
0000
0000
1000
0000
0000
0001
0000
0100
0000
0001
0000
0100
0000
0010
0000
1000
0000
1020
0000
0000
0000
0000
0000
2030
0000
0000
0001
0000
0000
,
0000
0000
3001
0000
0100
0000
0001
0000
0101
0000
0000
0000
0000
0000
0000
0000
1100
0000
0000
0000
0000
0000
0000
0000
1001
0000
0000
0010
0000
0000
0100
0000
,
1000
0000
0000
0000
0000
0000
0000
0000
0202
0000
0000
0000
0000
0000
0000
0000
0000
0000
0000
0000
0303
0000
0000
0000
0010
1000
0000
0010
1000
0000
0000
0000
,
0010
0000
0000
0000
0200
0000
0000
0000
0000
0000
0000
0000
0000
0000
0000
0000
0310
0000
0000
0000
0100
0000
1000
0000
0100
0000
0000
0010
0000
0000
0100
0000
,
0010
0000
0000
0000
0000
0000
0000
0000
2002
0000
0000
0000
0000
0000
0000
0000
0000
0000
0000
0000
3003
0000
0000
0000
0010
0001
0000
1000
0001
0000
0000
0000
,
1000
0000
0000
0000
0002
0000
0000
0000
0000
0000
0000
0000
0000
0000
0000
0000
0013
0000
0000
0000
0100
0000
1000
0000
1001
0000
0000
0010
0000
0000
0001
0000
,
0100
0000
0000
0000
0000
0000
0000
0000
0220
0000
0000
0000
0000
0000
0000
0000
0000
0000
0000
0000
0330
0000
0000
0000
0100
0001
0000
1000
0001
0000
0000
0000
,
0100
0000
0000
0000
0002
0000
0000
0000
0000
0000
0000
0000
0000
0000
0000
0000
1003
0000
0000
0000
0010
0000
1000
0000
2100
0000
0000
0001
0000
0000
0000
0000
,
0001
0000
0000
0000
3000
0000
0000
0000
0012
0000
0000
0000
0000
0000
0000
0000
0000
0000
1000
0000
0003
0000
1000
0000
2010
0000
0000
0001
0000
0000
0000
0000
,
3001
0000
1000
0000
0000
0001
0100
0000
,
0010
0000
0000
0000
0001
0000
0100
0000
1000
0000
0000
0000
0001
0010
0100
0000
,
1000
0010
0100
0000
0001
1000
0100
0000
0010
0001
0100
0000
0010
0000
0000
0000
,
0100
0000
0000
0000
1000
0000
0010
0000
0001
0000
0000
0000
1000
0100
0010
0000
,
0001
1000
0010
0000
0100
0001
1000
0000
0100
0010
0001
0000
1000
0000
0001
0000
,
0100
1000
0001
0010
1000
0100
0010
0001
,
1000
0000
0001
0000
0100
0000
0010
0000
1000
0000
0100
0000
0010
0001
0100
0001
,
0010
0000
0000
0100
0000
0000
1000
0000
0000
0010
0000
0000
1000
0000
0000
0001
0000
0000
0100
0000
0000
0010
0000
0000
1000
0000
0000
0001
0000
0000
0010
0000
0000
0100
0000
0000
1000
0000
0100
0000
0010
0000
0001
0000
0010
0000
0100
0000
,
1000
0000
0000
0001
0000
0000
0100
0000
0000
0001
0000
0000
1000
0000
0100
0000
0010
0000
0001
0000
0100
0000
0010
0000
1000
0000
0100
0000
0010
0000
0001
0000
0100
0000
0010
0000
2000
0000
0000
0000
0000
0000
0000
0000
0000
0000
0000
0000
,
0000
0000
0000
0000
,
0000
0000
0000
0000
0000
0000
3001
0100
,
1010
0000
0000
0000
0001
0000
0110
0000
0000
0000
0110
0000
0001
0000
1000
0100
,
0001
0000
1000
0000
0001
0100
1000
0000
0001
0100
1000
0000
0100
0000
0001
0000
,
1001
0000
0000
0000
0001
0000
0110
0000
0000
0000
0110
0000
0001
0000
1000
0001
,
0100
0000
0001
1000
0100
0010
0100
1000
0100
0010
0100
1000
0100
0000
0010
0000
,
0110
0000
0000
0000
0010
0000
1001
0000
0000
0000
1001
0000
0100
0000
1000
0010
,
0001
0000
1000
0000
0001
0010
1000
0000
0001
0010
1000
0000
0010
0000
0010
0000
,
0100
1000
0010
0001
0100
0000
0100
0000
0001
0010
1000
0100
0002
0000
0000
0000
,
0000
0000
0000
0000
0000
0000
0000
0000
0103
0000
0000
0000
0110
0000
1000
0100
,
0001
0000
1000
0000
0001
0100
1000
0000
0010
0000
1000
0010
0001
0000
1000
0000
,
0001
0010
1000
0000
0001
0100
0010
0000
1000
0100
0010
0000
0100
0000
1000
0100
,
0001
0000
1000
0000
0001
0100
1000
0000
0001
0000
1001
0000
1010
0000
1001
0000
,
0101
0000
1001
0000
1100
0000
1001
0000
0110
0000
0001
0000
1000
0000
0100
1000
,
0010
0000
0001
0000
0010
1000
0100
0000
0001
0000
0100
1000
0010
0000
1000
0000
,
0100
0010
0001
0000
1000
0010
0100
0000
0001
0010
0100
0000
1000
0000
0010
1000
,
0100
0000
0000
0000
0000
0000
0001
0000
0000
0000
0000
0000
1000
0000
0000
0010
0000
0000
0001
0000
0000
0000
0000
0000
1000
0000
0000
0010
0000
0000
0001
0000
0000
0000
0000
0000
0011
0000
0000
0000
0110
0000
0000
0000
1100
0000
0000
0000
,
1010
0000
0110
0000
0101
0000
0010
0000
0000
0000
0000
0000
1000
0000
0000
0010
0000
0000
0100
0000
0000
0000
0000
0000
,
0010
0000
1000
0100
0010
0000
1000
0010
,
0001
0100
1000
0000
0100
0001
1000
0000
,
0100
0000
0010
0001
0100
0000
1000
0100
,
0001
0010
1000
0000
0010
0001
1000
0000
,
0010
0000
0100
0001
1000
0000
0100
1000
,
0001
0010
0110
0000
1000
0000
0110
0000
,
0001
0110
1000
0110
,
0001
0000
0010
0000
1000
0001
0100
0000
,
0010
0000
1000
0001
0010
0000
1000
0010
,
0001
0100
1000
0000
0100
0001
1000
0000
,
0100
0000
0010
0001
0100
0000
1000
0100
,
0001
0010
1000
0000
0010
0100
1000
0000
,
0001
0000
0010
0001
1000
0000
0100
1000
,
0001
0000
1000
0100
0010
0001
0100
0010
,
1000
0100
0010
0001
0100
0010
1000
0100
,
0010
0200
0010
0000
0010
0000
0010
0000
,
0010
0010
0010
0010
,
0310
0000
0010
0001
0100
1000
0100
0001
,
0010
1000
0010
0001
0100
1000
0100
0001
,
0010
0000
0000
1000
0000
0000
0000
0000
0000
0000
0000
0000
1000
0010
0100
0010
1000
0100
1000
0010
0100
0010
1000
0100
,
0010
0001
1000
0100
1000
0001
0100
0001
1000
0010
1000
0001
,
1000
0100
0010
0001
1000
0100
0010
0001
,
1000
0100
0010
0001
1000
0100
0010
0001
,
0010
0001
0100
1000
,
0001
0010
1000
0100
,
0010
0001
0100
1000
,
0001
0010
1000
0100
,
0011
1100
0000
1010
,
0101
0000
1001
1100
,
0000
1001
0101
0000
,
1001
0000
0110
0000
1000
0010
0001
0100
,
0000
0000
0110
0000
0001
0100
1000
0010
,
0001
0011
0000
0110
,
0000
0000
0001
0010
1000
0100
0010
0001
,
2000
0000
3000
0000
,
0000
0000
0000
0000
;
#NOTES:
     dance-double:
     :
     Easy:
     12:
     :
00000000
00000000
00000000
00000000
00000001
00000010
00000100
00001000
00020000
00000000
00032000
00000000
00013000
01000000
00100000
10000000
,
00020000
00000000
00000000
00000000
20030000
00000000
00000000
00000000
30100000
00000000
00010000
00000000
00001000
00000000
00000010
00000000
00000002
00000000
00000000
00000000
00002003
00000000
00003010
00000100
00000002
00000000
00000000
00000000
00000000
00000000
00000000
00000000
,
00002000
00000000
00000000
00000000
00000003
00000000
00010000
00000000
00020000
00000000
00000000
00000000
00000000
00000000
00003000
00000000
02000000
00000000
00000000
00000000
00000000
00000000
00000000
03030000
00100000
00000000
00000000
00000000
10000000
00000000
00000000
00000000
,
00100000
00000000
00000000
01000000
00000000
00001000
00010000
00000000
,
00000010
00001000
00000000
00000001
00000000
00000010
00000100
00001000
,
00000100
00000000
00000000
00000010
00000000
00000001
00000100
00000000
,
00001000
00010000
00000000
00100000
00000000
10000000
00010000
10000000
,
00100000
00000000
10000000
01000000
00010000
00000000
00001000
00000010
,
00000001
00000000
00000010
00000001
00000100
00000000
00000010
00010000
,
00001000
00010000
00100000
10000000
01000000
00100000
00020000
00000000
,
00000000
00030000
01100000
10000000
,
01000000
00010000
00000000
00001000
00000010
00000000
00000001
00001000
,
00000000
00000100
00000010
00000001
00000010
00000000
00000001
00000000
,
00000100
00001000
00000000
00010000
00100000
00000000
10100000
00000000
,
01010000
10100000
01010000
10000000
,
01000000
00010000
00000000
00010000
00001000
00000000
00001000
00000010
,
00000000
00000010
00000001
00001000
00000001
00000000
00001000
00000000
,
00000001
00000000
00000000
00000100
00000000
00000000
00001000
00000000
00000000
00010000
00000000
00010000
,
00000000
00010000
00000000
00100000
00000000
00100000
00000000
00100000
00000000
10000000
00000000
00000000
,
00100000
00000000
01000000
00001000
00010000
00000010
00001000
00000000
,
00001000
00000000
00000001
00000010
00000100
00001000
00000100
00000000
,
00000100
00000000
00000000
00000000
00000010
00000000
00001000
00000000
00010000
00000000
00100000
00000000
10000000
00000000
00000000
00100000
,
00000000
01000000
01010000
00000000
11000000
00000000
00010000
00001000
,
00010000
00001000
00010000
00000010
00000100
00000001
00000010
00000100
,
00000010
00000100
00010000
00001000
00100000
00010000
10000000
00010000
,
10000000
00000000
00010000
00000000
00100000
00000000
00010000
00000000
00001000
00000000
00000100
00000000
00000010
00000000
00000000
00000001
,
00000000
00000010
00000011
00000000
00001100
00000000
00002002
00000000
,
00000000
00003003
00000202
00000000
00000000
00000303
00002020
00000000
,
00000000
00003030
00022000
00000000
00000000
00033000
02020000
00000000
,
00000000
03030000
20200000
00000000
00000000
30300000
00220000
00000000
,
00000000
00330000
02200000
00000000
00000000
03300000
02020000
00000000
,
00000000
03030000
00022000
00000000
00000000
00033000
00002200
00000000
,
00000000
00003300
00000022
00000000
00000000
00000033
00002002
00000000
,
00000000
00003003
00000202
00000000
00000000
00000303
00002020
00000000
,
00000000
00003030
00022000
00000000
00000000
00033000
00001000
00000000
,
00010000
00000000
00100000
10000000
00010000
00000000
10000000
00000000
,
00010000
00001000
00000001
00000010
,
00000001
00000000
00001000
00000010
00000100
00000000
00000001
00000000
,
00001000
00000000
00010000
00000000
10000000
00000000
00100000
10000000
,
01000000
00000000
00100000
00010000
01000000
00000000
00001000
00010000
,
00000010
00000000
00001000
00000100
00000010
00000000
00000001
00000010
,
00000100
00001000
00000100
00010000
00001000
00100000
00010000
01000000
,
00100000
10000000
00100000
01000000
00010000
10000000
00020000
00000000
,
00000000
00000000
00000000
00000000
,
00000000
00000000
00000000
00000000
00000000
00000000
10030000
01000000
,
00100000
00000000
00000000
00001000
00000000
00001000
00010000
00000000
,
00000010
00001000
00000000
00000001
00000100
00000000
00000010
00000100
,
00000010
00000000
00000000
00001000
00000000
00001000
00000100
00000000
,
00010000
00000000
00022000
00000000
00033000
00000000
00100000
01000000
,
00100000
00000000
00000000
00010000
00000000
00010000
01000000
00000000
,
00100000
10000000
00000000
01000000
00100000
00000000
00010000
01000000
,
00001000
00000000
00010000
00000010
00001000
00000000
00000200
00000000
,
00000000
00000000
00000310
00000001
,
00000100
00001000
00000000
00010000
00100000
00000000
10000000
00010000
,
00000000
01000000
00100000
10000000
00100000
00000000
10000000
00000000
,
01000000
00010000
00000000
00001000
00000010
00000000
00000011
00000000
,
00001100
00000011
00001100
00000001
,
00000100
00001000
00000000
00001000
00010000
00000000
00010000
00100000
,
00000000
00100000
10000000
00010000
10000000
00000000
00010000
00000000
,
10000000
00000000
00000000
01000000
00000000
00000000
00010000
00000000
00000000
00001000
00000100
00000001
,
00001000
00000100
00000010
00000001
00000000
00000000
00000000
00000000
00000000
00000100
00000000
00000000
,
00000000
00000010
00001000
00010000
,
00000000
01000000
00100000
01000000
,
00000000
00100000
10000000
01000000
,
00000000
00010000
00000000
00001000
,
00000000
00000100
00000001
00001000
,
00000000
00001100
00000000
00000101
,
00000000
00001100
00000000
00000101
,
00000000
00000010
00000000
00000001
,
00000000
00000100
00001000
00010000
,
00000000
00100000
10000000
00010000
,
00000000
00100000
00010000
01000000
,
00000000
00010000
01000000
00100000
,
00000000
10000000
01000000
00100000
,
00000000
00001000
00010000
00000010
,
00001000
00000001
00000100
00000010
,
00001000
00000002
00000000
00000000
,
00000000
00000000
00000000
00000000
,
00000000
00002000
00000000
00000000
,
00000000
00000000
00000000
00000000
,
00003003
00000000
00002200
00003300
,
00022000
00000000
00000000
00033000
,
00220000
00000000
00000000
00000000
,
00000000
00000000
00000000
00330000
,
22000000
00000000
00000000
00000000
,
00000000
00000000
00000000
00000000
,
00000000
00000000
00000000
00000000
,
00000000
00000000
00000000
33000000
,
00010000
10000000
00000000
00010000
,
01000000
00000000
00001000
00010000
,
00000000
00000010
00001000
00000000
,
00000001
00000100
00000010
00000010
,
00000000
00001000
00000100
00000010
,
00000001
00000100
00000000
00001000
,
00000000
00010000
00100000
10000000
,
00020000
00000000
00030000
00000000
,
00000000
00000000
00000000
00000000
;
#NOTES:
     dance-double:
     :
     Medium:
     15:
     :
00000000
00000000
00000000
00000000
10000000
00100000
01000000
00010000
00002000
00000000
00023000
00000000
00031000
00000100
00000010
00000001
,
00002000
00000000
00000000
00000000
00003002
00000000
00000000
00000000
00000013
00000000
00001000
00000000
00010000
00000000
00100000
00000000
20000000
00000000
00000000
00000000
30020000
00000000
00130000
01000000
20000000
00000000
00000000
00000000
00000000
00000000
00000000
00000000
,
00020000
00000000
00000000
00000000
30000000
00000000
00001000
00000000
00002000
00000000
00000000
00000000
00000000
00000000
00030000
00000000
00000200
00000000
00000000
00000000
00000000
00000000
00000000
00003300
00000010
00000000
00000001
00000000
00000010
00000000
00000001
00000000
,
00000010
00000000
00000000
00001100
00000000
00010000
00001000
00000000
,
00100000
00000000
00010000
00000000
00000000
00000000
10000000
00000000
00000000
00000000
00100000
00000000
01000000
00010000
01000000
00010000
,
01000000
00000000
00000000
10100000
00000000
10000000
01000000
00000000
,
00010000
00001000
00000000
00000010
00000000
00000001
00001000
00000001
,
00000010
00000100
00001000
00000001
00000100
00001000
00010000
00100000
,
10000000
00100000
01000000
00100000
10000000
01000000
00100000
00001000
,
00010000
00001000
00010000
00000000
00000010
00000000
00001000
00000000
00000001
00001000
00000001
00000000
00002000
00000000
00000000
00000000
,
00000000
00000000
00003000
00000000
00000110
00000000
00000001
00000100
,
00001000
00000000
00010000
00000000
00001000
00000000
00010000
00000000
01000000
00000000
10000000
01000000
10000000
00000000
00010000
00000000
,
01000000
00000000
00100000
00000000
10000000
00000000
00100000
00000000
01000000
00000000
00100000
10000000
00100000
00000000
10000000
00000000
,
00010000
01000000
00001000
00010000
00000010
00000110
00000000
00001010
,
00000000
00000101
00000000
00001000
00000100
00000010
00000001
00000100
,
00001000
00000000
00010000
00000000
00001000
00000000
00010000
00000000
00100000
00000000
01000000
00100000
01000000
00000000
00100000
00000000
,
10000000
00000000
00010000
00000000
00100000
00000000
00010000
00000000
10000000
00000000
00010000
01000000
00010000
00000000
10000000
00000000
,
01000000
00000000
00000000
00000000
00000000
00000000
00010000
00000000
00000000
00000000
00000000
00000000
00001000
00000000
00000000
00000000
00000000
00000000
00000010
00000000
00000000
00000000
00000000
00000000
00000001
00000000
00000000
00000000
00000000
00000000
00001000
00000000
00000000
00000001
00000000
00000000
00001000
00000000
00000000
00000000
00000000
00000000
00000000
00000000
00000001
00000000
00000000
00000000
,
00000000
00000000
00000100
00000000
00000000
00000000
00001000
00000000
00000000
00000000
00000100
00000000
00000000
00000000
00000001
00000000
00000000
00000000
00001000
00000000
00000000
00000100
00000000
00000000
,
00010000
00000000
00001000
00000000
00100000
00000000
00010000
00000000
10000000
01000000
00100000
00010000
10000000
00000000
00100000
00000000
,
01000000
00000000
00010000
00000000
00100000
00001000
00100000
00001000
00010000
00001000
00010000
00001000
00010000
00000000
00000010
00000000
,
00001000
00000000
00000001
00000000
00000100
00000000
00000010
00000000
00001000
00000100
00000010
00000001
00000200
00000000
00000302
00000100
,
00000000
00000103
00000010
00001000
00000001
00000000
00000000
00000000
00000010
00000000
00000000
00000000
00001000
00010000
00001000
00010000
,
00001000
00010000
00001000
00010000
00001000
00000000
00100000
00000000
01000000
00000000
10000000
00000000
00100000
01000000
00100000
01000000
,
00100000
01000000
00100000
01000000
00001000
00000000
00010000
00000000
00000010
00000000
00001000
00000000
00000001
00000100
00000001
00000100
,
00000001
00000100
00000001
00000100
00000010
00000000
00001000
00000000
00010000
00000000
01000000
00000000
00200000
00000000
20300000
01000000
,
00000000
31000000
00100000
00010000
10000000
00000000
00000000
00000000
00010000
00000000
00000000
00000000
20020000
00000000
00000000
00000000
,
00000000
30030000
22000000
00000000
00000000
33000000
00210000
00002000
,
00000000
00303000
00022000
00000000
00000000
00033000
00002200
00000000
,
00000000
00003300
00000022
00000000
00000000
00000033
00001020
00000200
,
00000000
00000330
00000220
00000000
00000000
00000330
00002020
00000000
,
00000000
00003030
00022000
00000000
00000000
00033000
02010000
00200000
,
00000000
03300000
20200000
00000000
00000000
30300000
20020000
00000000
,
00000000
30030000
22000000
00000000
00000000
33000000
00200000
00020000
,
00000000
00330000
00022000
00000000
00000000
00033000
00010000
00000000
,
00001000
00000000
00000000
00000000
00000010
00000000
00000001
00000000
00001000
00000000
00000000
00000000
00000002
00000100
00000000
00000000
,
00000203
00001000
00000000
00000000
00002300
00010000
00000000
00000000
00013000
00100000
00000000
00000000
10000000
00000000
00000000
00000000
,
00100000
00000000
00000000
00000000
01000000
00000000
00010000
00000000
10000000
00000000
00000000
00000000
20000000
01000000
00000000
00000000
,
32000000
00010000
00000000
00000000
03020000
00001000
00000000
00000000
00031000
00000010
00000000
00000000
00000001
00000000
00000100
00000000
,
00000001
00000100
00000010
00001000
00000010
00001000
00000100
00010000
,
00000100
00000000
00010000
00000000
00001000
00000000
01000000
00000000
00001000
00000000
01000000
00000000
00100000
10000000
00100000
00000000
,
01000000
00010000
01000000
00000000
00001000
00010000
00001000
00000000
00010000
00000010
00010000
00000000
00000100
00001000
00000100
00000000
,
00000010
00000001
00000010
00000000
00000001
00001000
00000001
00000000
00001000
00000100
00001000
00000100
00020000
00000000
00000000
00000000
,
00000000
00000000
00000000
00000000
,
00000000
00000000
00000000
00000000
00000000
00000000
00031000
00100000
,
00010000
00000000
10000000
00100000
00000000
00100000
10000000
00000000
,
00001000
00010000
00000000
00000010
00001000
00000001
00000010
00000100
,
00001000
00000000
00000000
00000000
00000100
00000000
00010000
00000000
00000000
00000000
00010000
00000000
00001000
00000000
00000000
00010000
,
01000000
00000000
00000000
10000000
00010000
00000000
00010000
00000000
00010000
10000000
00010000
10000000
01000000
00000000
00100000
00000000
,
01000000
00000000
10000000
00010000
00000000
00010000
10000000
00000000
,
00001000
00010000
00000000
00000010
00001000
00000001
00001000
00001000
,
00000100
00000010
00000100
00000000
00010000
00000000
00010000
00000000
00001000
00010000
00001000
00000000
02000000
00000000
00000000
00000000
,
00000000
00000000
00000000
00000000
03100000
00000000
10000000
01000000
,
00010000
00000000
00001000
00000000
00010000
00000000
00001000
00000000
00000100
00000000
00000001
00000100
00000001
00000000
00001000
00000000
,
00000100
00000000
00000010
00000000
00000001
00000000
00000010
00000000
00000100
00000000
00000010
00000001
00000010
00000000
00000001
00000000
,
00001000
00000100
00010000
00001000
00100000
01100000
00000000
00110000
,
00000000
11000000
00000000
00010000
01000000
00100000
10000000
01000000
,
00010000
00000000
00001000
00000000
00010000
00000000
00001000
00000000
00000010
00000000
00000100
00000010
00000100
00000000
00000010
00000000
,
00000001
00000000
00001000
00000000
00000010
00000000
00001000
00000000
00000001
00000000
00001000
00000100
00001000
00000000
00000001
00000000
,
00000100
00000000
00000000
00000000
00000000
00000000
00001000
00000000
00000000
00000000
00000000
00000000
00010000
00000000
00000000
00000000
00000000
00000000
00100000
00000000
00000000
00000000
00000000
00000000
10000000
00000000
00000000
00000000
00000000
00000000
00010000
00000000
00000000
10000000
00000000
00000000
00010000
00000000
00000000
00000000
00100000
00000000
00000000
00000000
10000000
00000000
00000000
00000000
,
00100000
00010000
00001000
00000100
00000000
00000000
00000010
00000000
00000000
00000001
00000000
00000000
,
00000100
00001000
00010000
00001000
,
00100000
00010000
00100000
00000000
01000000
00000000
10000000
00000000
,
00100000
01000000
00100000
00010000
,
00001000
00000100
00001000
00000000
00000100
00000000
00000010
00000000
,
00001000
00000001
00000010
00000100
,
00001000
00001100
00000000
00011000
,
00000000
00110000
00000000
01100000
,
00000000
10000000
00010000
00100000
,
01000000
10000000
01000000
00100000
,
00001000
00010000
00001000
00000000
00010000
00000000
00001000
00000000
,
00000100
00000010
00001000
00000010
,
00001000
00000001
00001000
00000000
00000100
00000000
00000010
00000000
,
00000001
00001000
00000100
00010000
,
00001000
00000000
00100000
00010000
00100000
00000000
01000000
10000000
,
01000000
00000000
00100000
00010000
00100000
00000000
01000000
10000000
,
01000000
10000000
00010000
01000000
,
00001000
00010000
00000010
00001000
,
00000001
00000000
00000100
00000010
00000100
00000010
00000100
00000010
,
00000100
00000010
00000100
00000010
00000100
00000010
00000100
00000010
,
00000100
00000010
00000000
00000000
00002020
00000000
00003030
00000000
,
00022000
00000000
00000000
00033000
,
02020000
00000000
00000000
00000000
,
00000000
00000000
00000000
03030000
,
20200000
00000000
00000000
00000000
,
00000000
00000000
00000000
00000000
,
00000000
00000000
00000000
00000000
,
00000000
00000000
00000000
30300000
,
00010000
10000000
00000000
00001000
,
00010000
00000000
00000001
00001000
,
00000000
00000010
00000100
00000000
,
00000010
00000000
00001000
00000000
00000100
00000010
00000100
00000010
,
00000000
00000000
00000001
00000000
00000100
00000010
00000100
00000010
,
00000100
00001000
00000000
00010000
,
00000000
00000000
00100000
00000000
10000000
00100000
10000000
00100000
,
20000000
00000000
30000000
00000000
,
00000000
00000000
00000000
00000000
;
#NOTES:
     dance-double:
     :
     Hard:
     18:
     :
00000000
00000000
00000000
00000000
00000001
00000100
00000010
00001000
00020000
00000000
00032000
00000000
00013000
00100000
01000000
10000000
,
00020000
00000000
00000000
00000000
20030000
00000000
00000000
00000000
31000000
00000000
00010000
00000000
00001000
00000000
00000100
00000000
00000002
00000000
00000000
00000000
00002003
00000000
00003100
00000010
00000002
00000000
00000000
00000000
00000000
00000000
00000000
00000000
,
00002000
00000000
00000000
00000000
00000003
00000000
00010000
00000000
00020000
00000000
00000000
00000000
00000000
00000000
00003000
00000000
00200000
00000000
00000000
00000000
00000000
00000000
00000000
00330000
01000000
00000000
10000000
00000000
00010000
00000000
10000000
00000000
,
01000000
00000000
00000000
01010000
00000000
00011000
00001010
00000000
,
00001001
00000000
00000110
00000000
00000000
00000000
00001100
00000000
00000000
00000000
00001001
00000000
00001000
00000001
00000100
00000001
,
00001000
00000000
00000000
00000011
00000000
00001100
00011000
00000000
,
01010000
01100000
00000000
10100000
00000000
10010000
10000000
01000000
,
00100000
00010000
10000000
00100000
00010000
00001000
00000100
00000001
,
00000100
00000010
00000100
00000001
00000010
00000100
00010000
00001000
,
00100000
00010000
00100000
00010000
00100000
00000000
01000000
00000000
10000000
00010000
10000000
00010000
20000000
00000000
00000000
00000000
,
00000000
00000000
00000000
00000000
30000000
00000000
00000000
00000000
10010000
00000000
00000000
00000000
00100000
00000000
00010000
10000000
,
01000000
00000000
10000000
00000000
00010000
01000000
00100000
00000000
01000000
00000000
00001000
00010000
00001000
00000000
00010000
00000000
,
00000010
00001000
00000001
00000000
00001000
00000100
00000010
00000000
00000001
00000100
00000010
00000000
00000100
00000000
00000010
00001000
,
00000100
00000000
00000010
00000000
00000100
00010000
00001000
00000000
00100000
00000000
01100000
00000000
01000000
00000000
11000000
00000000
,
10000000
00000000
10010000
00000000
00010000
00000000
01000000
00000000
00100000
00000000
10000000
00000000
01000000
00000000
00100000
00010000
,
00100000
00000000
00001000
00000000
00010000
00000010
00000100
00000000
00000010
00000000
00001000
00000100
00000010
00000000
00000001
00000000
,
00000100
00000010
00001000
00000000
00000100
00010000
00001000
00000000
00010000
00001000
00010000
00000000
00001000
00000000
00100000
00010000
,
10000000
00000000
00000000
00000000
00000000
00000000
00100000
00000000
00000000
00000000
00000000
00000000
01000000
00000000
00000000
00100000
00000000
00000000
10000000
00000000
00000000
00000000
00000000
00000000
00010000
00000000
00000000
01000000
00000000
00000000
00100000
00000000
00000000
00000000
00000000
00000000
10000000
00000000
00000000
00000000
00000000
00000000
00000000
00000000
01000000
00000000
00000000
00000000
,
00000000
00000000
00000000
00000000
00010000
00000000
00000000
00000000
00000000
00000000
00000000
00000000
00001000
00000000
00000000
00000000
00000000
00000000
00000000
00000000
00000010
00000000
00000000
00000000
00000000
00000000
00000000
00000000
00000001
00000000
00000000
00000000
00000000
00000000
00000000
00000000
00001000
00000000
00000000
00000010
00000000
00000000
00000100
00000000
00000000
00000001
00000000
00000000
,
00001000
00000010
00000100
00000001
00000010
00000100
00010000
00001000
00100000
00010000
10000000
00010000
01000000
00100000
10000000
00010000
,
01000000
00100000
10000000
00010000
01000000
00100000
10000000
01000000
00100000
00001000
00010000
00000010
00001000
00000100
00000010
00000001
,
00001000
00000100
00000010
00000001
00000100
00000010
00010000
00001000
01000000
00010000
10000000
00000000
10200000
00000000
20300000
00100000
,
00000000
30100000
01000000
00010000
10000000
00000000
00000000
00000000
01000000
00000000
00000000
00000000
00010000
00001000
00100000
00001000
,
00010000
00001000
00100000
00001000
00010000
00001000
00000100
00000001
00001000
00000100
00000010
00000001
00001000
00000100
00000010
00000100
,
00001000
00000100
00000010
00000100
00010000
00001000
00100000
00010000
10000000
01000000
00100000
00010000
01000000
00100000
10000000
00100000
,
01000000
00100000
10000000
00100000
10000000
01000000
00010000
00001000
00000010
00000001
00000010
00000000
00000021
00000000
00000032
00000010
,
00000000
00000013
00000100
00001000
00000001
00000000
00000000
00000000
00001000
00000000
00000000
00000000
00002002
00000000
00000000
00000000
,
00000000
00003003
00000022
00000000
00000000
00000033
00001100
00010000
,
00002000
00003000
00022000
00000000
00000000
00033000
00220000
00000000
,
00000000
00330000
22000000
00000000
00000000
33000000
01010000
00100000
,
20000000
30000000
02200000
00000000
00000000
03300000
02020000
00000000
,
00000000
03030000
00022000
00000000
00000000
00033000
00001010
00000100
,
00002000
00003000
00000220
00000000
00000000
00000330
00000202
00000000
,
00000000
00000303
00000022
00000000
00000000
00000033
00001001
00001000
,
00000002
00000003
00000220
00000000
00000000
00000330
00001000
00000000
,
00010000
00000000
00000000
00000000
01000000
00000000
10000000
00000000
00010000
00000000
00000000
00000000
20000000
00010000
00000000
00000000
,
30020000
00001000
00000000
00000000
00032000
00000100
00000000
00000000
00003100
00000010
00000000
00000000
00000001
00000000
00000000
00000000
,
00000100
00000000
00000000
00000000
00000010
00000000
00001000
00000000
00000001
00000000
00000000
00000000
00000002
00001000
00000000
00000000
,
00002003
00010000
00000000
00000000
00023000
01000000
00000000
00000000
01030000
00100000
00000000
00000000
10000000
00000000
00100000
00000000
,
10000000
00100000
01000000
00010000
01000000
00010000
00100000
00001000
,
00010000
00000000
00001000
00000000
00010000
00000000
00000010
00000000
00001000
00000000
00000010
00000000
00001000
00000100
00000010
00000001
,
00000100
00000010
00001000
00000010
00010000
00001000
00100000
00010000
10000000
00100000
01000000
00100000
10000000
01000000
00100000
00010000
,
01000000
00100000
10000000
00010000
01000000
00001000
00010000
00000100
00001000
00000001
00000010
00000100
00002000
00000000
00000000
00000000
,
00000000
00000000
00000000
00000000
,
00000000
00000000
00000000
00000000
00000000
00000000
00003010
00000100
,
00000010
00000000
00000000
00000000
00000001
00000000
00000110
00000000
00000000
00000000
00000110
00000000
00000001
00000000
00000100
00001000
,
00010000
00000000
00001000
00000000
00100000
00010000
00100000
00000000
01000000
10000000
01000000
00000000
00100000
00000000
00010000
00000000
,
01000000
00000000
00000000
00000000
00001000
00000000
00011000
00000000
00000000
00000000
00011000
00000000
00000010
00000000
00001000
00000001
,
00000010
00000000
00000100
00001000
00000001
00001000
00000001
00001000
00000001
00001000
00000001
00001000
00000010
00000000
00000100
00000000
,
00000010
00000000
00000000
00000000
00010000
00000000
00011000
00000000
00000000
00000000
00011000
00000000
00100000
00000000
00001000
00010000
,
00100000
00000000
00010000
00000000
00001000
00010000
01000000
00000000
00100000
01000000
10000000
00000000
00010000
00000000
00010000
00000000
,
01000000
00100000
10000000
01000000
00100000
00000000
00100000
00000000
00001000
00010000
00000010
00001000
00000020
00000000
00000000
00000000
,
00000000
00000000
00000000
00000000
00000000
00000000
00000000
00000000
00000130
00000000
00000000
00000000
00000010
00000000
00001000
00000001
,
00000100
00000000
00000001
00000000
00001000
00000100
00000010
00000000
00000100
00000000
00010000
00001000
00010000
00000000
00001000
00000000
,
00100000
00010000
10000000
00000000
00010000
01000000
00100000
00000000
10000000
01000000
00100000
00000000
01000000
00000000
00100000
00010000
,
01000000
00000000
00100000
00000000
01000000
00001000
00010000
00000000
00000010
00000000
00000110
00000000
00000100
00000000
00000101
00000000
,
00000001
00000000
00001001
00000000
00001000
00000000
00000100
00000000
00000010
00000000
00000001
00000000
00000100
00000000
00000010
00001000
,
00000010
00000000
00010000
00000000
00001000
00100000
01000000
00000000
00100000
00000000
00010000
01000000
00100000
00000000
10000000
00000000
,
01000000
00100000
00010000
00000000
01000000
00001000
00010000
00000000
00001000
00010000
00001000
00000000
00010000
00000000
00000010
00001000
,
00000001
00000000
00000000
00000000
00000000
00000000
00000010
00000000
00000000
00000000
00000000
00000000
00000100
00000000
00000000
00000010
00000000
00000000
00000001
00000000
00000000
00000000
00000000
00000000
00001000
00000000
00000000
00000100
00000000
00000000
00000010
00000000
00000000
00000000
00000000
00000000
00000001
00000000
00000000
00000000
00000100
00000000
00000000
00000000
00001000
00000000
00000000
00000000
,
00010000
00000000
01000000
00000000
10000000
00000000
00100000
00000000
00000000
00000000
00000000
00000000
01000000
00000000
00000000
00100000
00000000
00000000
10000000
00000000
00000000
00000000
00000000
00000000
,
01000000
00000000
00100000
01000000
00100000
00000000
00001000
00010000
,
00000100
00000000
00001000
00000000
00000100
00000010
00000001
00000000
,
00000100
00000000
00000010
00001000
00000100
00000000
00010000
00001000
,
00100000
00000000
00010000
00000000
00100000
00010000
10000000
00000000
,
00100000
00000000
01000000
00100000
10000000
00000000
01000000
00100000
,
00010000
00110000
00010000
00011000
,
00001000
00001100
00000100
00000110
,
00000010
00000000
00000001
00000000
00001000
00000001
00000100
00000000
,
00000010
00000000
00001000
00000001
00000010
00000000
00000100
00010000
,
00001000
00000000
00100000
00000000
00010000
00100000
01000000
00000000
,
00100000
00000000
01000000
10000000
00010000
00000000
01000000
00010000
,
10000000
00000000
00100000
00000000
10000000
00100000
01000000
00000000
,
00100000
00000000
01000000
00001000
00010000
00000000
00000010
00001000
,
00000001
00000000
00000100
00000001
00000100
00000001
00000100
00000010
,
00000100
00000010
00000100
00001000
00000100
00001000
00010000
00001000
,
00010000
00002000
00010000
00000000
00010000
00000000
00010000
00000000
,
00010000
00010000
00010000
00010000
,
00013000
00000000
00001000
00100000
01000000
10000000
00010000
01000000
,
00100000
10000000
00010000
01000000
00001000
00010000
00000100
00001000
,
00000001
00000000
00000000
00001000
00000000
00000000
00000000
00000000
00000000
00000000
00000000
00000000
00000010
00000100
00000010
00000100
00000010
00000100
00000010
00000100
00000010
00000100
00000010
00000100
,
00001000
00010000
00001000
00010000
00001000
00010000
00001000
00010000
00001000
00010000
00001000
00010000
,
00100000
01000000
00100000
01000000
00100000
01000000
00100000
01000000
,
00100000
01000000
00100000
01000000
00100000
01000000
00100000
01000000
,
00010000
10000000
00010000
10000000
,
00010000
10000000
00010000
10000000
,
00010000
10000000
00010000
10000000
,
00010000
10000000
00010000
10000000
,
10100000
10010000
00000000
01010000
,
00011000
00000000
00001010
00001001
,
00000000
00000101
00001100
00000000
,
00000010
00000000
00000100
00000000
00010000
00001000
00100000
00010000
,
00000000
00000000
10000000
00000000
01000000
00100000
00001000
00010000
,
00000010
00001000
00000000
00001001
,
00000000
00000000
00000001
00000100
00001000
00010000
00100000
10000000
,
00020000
00000000
00030000
00000000
,
00000000
00000000
00000000
00000000
;
#NOTES:
     dance-double:
     :
     Challenge:
     19:
     :
00000000
00000000
00000000
00000000
00100000
10000000
01000000
00010000
00002000
00000000
00023000
00000000
00031000
00000100
00000001
00000010
,
00002000
00000000
00000000
00000000
00023000
00000000
00000000
00000000
00030010
00000000
00001000
00000000
00010000
00000000
01000000
00000000
00200000
00000000
00000000
00000000
20300000
00000000
31000000
00100000
00020000
00000000
00000000
00000000
00000000
00000000
00000000
00000000
,
00002000
00000000
00000000
00000000
00030000
00000000
00000100
00000000
00000200
00000000
00000000
00000000
00000000
00000000
00003000
00000000
00000020
00000000
00000000
00000000
00000000
00000000
00000000
00000330
00010000
00000000
00001000
00000000
00000100
00000000
00001000
00000000
,
00010000
00000000
00000000
00101000
00000000
10010000
01010000
00000000
,
00011000
00000000
00010010
00000000
00000000
00000000
00001001
00000000
00000000
00000000
00001100
00000000
00010000
00001000
00000010
00001000
,
00010000
00000000
00000000
01001000
00000000
10010000
00110000
00000000
,
00011000
00010100
00000000
00001001
00000000
00001010
00000001
00000100
,
00000010
00001000
00010000
01000000
00100000
10000000
00010000
10000000
,
01000000
00010000
00001000
00000010
00000001
00000100
00000010
00010000
,
00000010
00000100
00001000
00010000
00001000
00000000
00010000
00000000
00100000
10000000
01000000
00100000
00020000
00000000
00000000
00000000
,
00000000
00000000
00000000
00000000
00030000
00000000
00000000
00000000
00011000
00000000
00000000
00000000
00000010
00000000
00010000
00001000
,
00000010
00000000
00010000
00000000
00000010
00001000
00010000
00000000
00000010
00000000
00001000
00010000
01000000
00000000
00100000
00000000
,
01000000
00001000
00010000
00000000
00001000
00010000
00100000
10000000
01000000
00100000
00010000
00000000
00100000
00000000
00001000
00010000
,
00100000
00000000
00001000
00000000
00100000
00010000
00001000
00000000
00100000
00000000
00110000
00000000
10000000
00000000
11000000
00000000
,
00010000
00000000
01010000
00000000
00001000
00000000
00011000
00000000
00001100
00000000
00000010
00000000
00000100
00000000
00010000
00001000
,
00000100
00000000
00010000
00000000
00000100
00001000
00010000
00000000
00100000
00000000
00010000
00001000
00100000
00000000
00010000
00000000
,
00001000
00010000
00100000
00000000
01000000
10000000
00100000
01000000
00001000
00010000
00001000
00000000
01000000
00000000
00001000
00010000
,
01000000
00000000
00000000
00000000
00000000
00000000
00001000
00000000
00000000
00000000
00000000
00000000
01000000
00000000
00000000
00010000
00000000
00000000
00001000
00000000
00000000
00000000
00000000
00000000
00000010
00000000
00000000
00000001
00000000
00000000
00001000
00000000
00000000
00000000
00000000
00000000
00000011
00000000
00000000
00000000
00000000
00000000
00000000
00000000
00000101
00000000
00000000
00000000
,
00000000
00000000
00000000
00000000
00001100
00000000
00000000
00000000
00000000
00000000
00000000
00000000
00011000
00000000
00000000
00000000
00000000
00000000
00000000
00000000
00110000
00000000
00000000
00000000
00000000
00000000
00000000
00000000
01100000
00000000
00000000
00000000
00000000
00000000
00000000
00000000
00010000
00000000
00000000
00100000
00000000
00000000
01000000
00000000
00000000
10000000
00000000
00000000
,
00010000
01000000
00100000
10000000
01000000
00010000
00001000
00000010
00000001
00000100
00001000
00000100
00000001
00000100
00000010
00001000
,
00000001
00000010
00000100
00001000
00000001
00000010
00001000
00010000
01000000
10000000
00100000
00010000
00100000
01000000
00010000
10000000
,
01000000
00100000
00010000
10000000
01000000
00100000
00010000
00001000
00000100
00000010
00000001
00000010
00000021
00000000
00000032
00000010
,
00000000
00000013
00000100
00001000
00000001
00000000
00000101
00000000
00000100
00000000
00001100
00000000
00000010
00001000
00100000
00001000
,
00000010
00001000
00100000
00010000
00001000
00010000
01000000
10000000
00010000
01000000
00100000
10000000
00100000
00010000
00000010
00010000
,
00100000
00010000
00000010
00010000
00001000
00010000
00000010
00001000
00000001
00000100
00000010
00001000
00000100
00001000
01000000
00001000
,
00000100
00001000
01000000
00010000
00001000
00000010
00001000
00010000
00100000
10000000
00010000
10000000
10200000
00000000
20300000
00100000
,
00000000
00000000
30100000
00000000
01000000
00000000
00010000
00000000
10000000
00000000
00000000
00000000
00000000
00000000
00000000
00000000
00010000
00000000
00000000
00000000
00000000
00000000
00000000
00000000
00011000
00000000
00000000
00000010
00000000
00000000
00000000
00000000
,
00002000
00000000
00000000
00000000
00000000
00000000
00000000
00000000
00000002
00000000
00000000
00000000
00000000
00000000
00000000
00000000
00000000
00000000
00000000
00000000
00003003
00000000
00000000
00000000
00000010
00000001
00000000
00000010
00000001
00000000
00000000
00000000
,
00000100
00000000
00000000
00000000
00001000
00000000
00000000
00000000
00000000
00000000
00000000
00000000
00000000
00000000
00000000
00000000
00010000
00000000
00000000
00000000
00100000
00000000
10000000
00000000
11000000
00000000
00000000
00100000
00000000
00000000
00000000
00000000
,
00020000
00000000
00000000
00000000
00000000
00000000
00000000
00000000
20000000
00000000
00000000
00000000
00000000
00000000
00000000
00000000
00000000
00000000
00000000
00000000
30030000
00000000
00000000
00000000
01000000
00100000
00000000
00010000
00100000
00000000
00000000
00000000
,
00001000
00000000
00000000
00000000
00010000
00000000
00000000
00000000
00000000
00000000
00000000
00000000
00000000
00000000
00000000
00000000
00001000
00000000
00000000
00000000
00000100
00000000
00000001
00000000
00001100
00000000
00000000
00000010
00000000
00000000
00000000
00000000
,
00000002
00000000
00000000
00000000
00000000
00000000
00000000
00000000
00002000
00000000
00000000
00000000
00000000
00000000
00000000
00000000
00000000
00000000
00000000
00000000
00003003
00000000
00000000
00000000
00000001
00000100
00000000
00000010
00000100
00000000
00000000
00000000
,
00001000
00000000
00000000
00000000
00000100
00000000
00000000
00000000
00000000
00000000
00000000
00000000
00000000
00000000
00000000
00000000
00000010
00000000
00000000
00000000
00010000
00000000
00001000
00000000
00011000
00000000
00000000
00100000
00000000
00000000
00000000
00000000
,
00010000
00000000
00000000
00000000
00000000
00000000
00000000
00000000
10100000
00000000
00000000
00000000
00000000
00000000
00000000
00000000
00000000
00000000
01000000
00000000
00000000
00000000
00010000
00000000
10010000
00000000
00000000
01000000
00000000
00000000
00000000
00000000
,
00010000
00000000
00001000
00000000
00000000
00010000
00001000
00000000
,
00000010
00000000
00000000
00000000
00000001
00000000
00000100
00000000
00000010
00000000
00000000
00000000
00000001
00000100
00001000
00000000
,
00010000
01000000
10000000
00000000
10000000
00100000
00010000
00000000
00001000
00000010
00000001
00000000
00001000
00000000
00000000
00000000
,
00000100
00000000
00000000
00000000
00000010
00000000
00000001
00000000
00000100
00000000
00000000
00000000
00000001
00001000
00000001
00000000
,
00001000
00010000
00001000
00000000
00010000
10000000
00010000
00000000
00001000
00010000
00001000
00000000
00000010
00000000
00001000
00000000
,
00000100
00000010
00001000
00010000
00100000
10000000
00010000
10000000
,
01000000
00000000
00010000
00000000
00001000
00000000
00000100
00000000
00000001
00000000
00000010
00000000
00000001
00000100
00000010
00001000
,
00010000
01000000
00100000
10000000
00010000
10000000
01000000
00010000
00001000
00000010
00000001
00000100
00001000
00000100
00000001
00000010
,
00001000
00010000
00100000
10000000
01000000
00010000
01000000
10000000
00100000
01000000
00010000
10000000
00020000
00000000
00000000
00000000
,
00000000
00000000
00000000
00000000
,
00000000
00000000
00000000
00000000
00000000
00000000
00130000
01000000
,
01100000
00000000
00000000
00000000
10000000
00000000
01010000
00000000
00000000
00000000
01010000
00000000
10000000
00000000
01000000
00010000
,
00001000
00000000
00000010
00000000
00000001
00000100
00000010
00000000
00001000
00000100
00000010
00000000
00000001
00000000
00001000
00000000
,
00001100
00000000
00000000
00000000
00010000
00000000
00011000
00000000
00000000
00000000
00011000
00000000
00100000
00000000
00010000
10000000
,
00100000
00000000
01000000
00010000
10000000
01000000
00010000
00001000
00000010
00000001
00000100
00000010
00000100
00000000
00000001
00000000
,
00000101
00000000
00000000
00000000
00010000
00000000
00011000
00000000
00000000
00000000
00011000
00000000
00100000
00000000
00001000
01000000
,
00100000
00000000
00010000
00000000
00100000
01000000
00001000
00000000
00100000
00010000
00001000
00000000
00000100
00000000
00000100
00000000
,
00000010
00000100
00010000
00000100
00000010
00000000
00000010
00000000
00001000
00010000
00000010
00010000
00002000
00000000
00000000
00000000
,
00000000
00000000
00000000
00000000
00000000
00000000
00003000
00000000
01100000
00000000
00000000
00000000
00100000
00000000
00001000
00010000
,
00100000
00000000
00001000
00000000
00100000
00010000
00001000
00000000
00100000
00000000
00010000
00001000
00000100
00000000
00000010
00000000
,
00000100
00010000
00001000
00000000
00010000
00001000
00000010
00000001
00000100
00000010
00001000
00000000
00000010
00000000
00010000
00001000
,
00000010
00000000
00010000
00000000
00000010
00001000
00010000
00000000
00000010
00000000
00001010
00000000
00000001
00000000
00000101
00000000
,
00001000
00000000
00001100
00000000
00010000
00000000
00011000
00000000
01010000
00000000
00100000
00000000
01000000
00000000
00001000
00010000
,
01000000
00000000
00001000
00000000
01000000
00010000
00001000
00000000
00000010
00000000
00001000
00010000
00000010
00000000
00001000
00000000
,
00010000
00001000
00000010
00000000
00000100
00000001
00000010
00000100
00010000
00001000
00010000
00000000
00000100
00000000
00010000
00001000
,
00000100
00000000
00000000
00000000
00000000
00000000
00010000
00000000
00000000
00000000
00000000
00000000
00000100
00000000
00000000
00001000
00000000
00000000
00010000
00000000
00000000
00000000
00000000
00000000
00100000
00000000
00000000
10000000
00000000
00000000
00010000
00000000
00000000
00000000
00000000
00000000
10100000
00000000
00000000
00000000
01100000
00000000
00000000
00000000
01010000
00000000
00000000
00000000
,
00011000
00000000
00001100
00000000
00000110
00000000
00000001
00000000
00000000
00000000
00000000
00000000
00000100
00000000
00000000
00000010
00000000
00000000
00001000
00000000
00000000
00000000
00000000
00000000
,
00000100
00000000
00000010
00000001
00000100
00000000
00001000
00010000
,
00100000
10000000
00010000
00000000
00100000
00010000
10000000
00000000
,
00100000
00000000
01000000
00010000
00100000
00000000
01000000
00010000
,
00001000
00000100
00000001
00000000
00000010
00000100
00001000
00000000
,
00000001
00000000
00000100
00000010
00001000
00000000
00000100
00000010
,
00000001
00000110
00001000
00011000
,
00100000
01100000
10000000
10010000
,
00100000
00000000
10000000
00000000
01000000
00100000
00010000
00000000
,
01000000
00000000
00100000
01000000
00010000
00000000
10000000
01000000
,
00010000
00001000
00000010
00000000
00000001
00000010
00000100
00000000
,
00001000
00000000
00000001
00001000
00000010
00000000
00000100
00001000
,
00010000
00100000
10000000
00000000
00010000
10000000
01000000
00000000
,
00100000
00000000
01000000
10000000
00010000
00000000
01000000
00100000
,
10000000
00000000
01000000
00100000
00010000
00001000
00000100
00000010
,
00000001
00001000
00000001
00000100
00000010
00001000
00010000
01000000
,
00100000
20000000
00010000
00000000
00010000
00000000
00010000
00000000
,
00010000
00010000
00010000
00010000
,
30010000
00000000
10000000
01000000
00010000
01000000
00010000
00001000
,
00000010
00001000
00000010
00000001
00000100
00000010
00000100
00001000
,
00010000
00000000
00000000
00001000
00000000
00000000
00000000
00000000
00000000
00000000
00000000
00000000
10000000
01000000
00100000
00010000
00100000
01000000
00100000
00010000
00001000
00000100
00001000
00010000
,
00001000
00000100
00000010
00000001
00000010
00000100
00001000
00000100
00001000
00010000
00100000
01000000
,
00100000
00010000
01000000
00001000
00100000
00010000
01000000
00001000
,
00100000
00010000
01000000
00001000
00100000
00010000
01000000
00001000
,
00010000
00001000
00010000
00001000
,
00010000
00001000
00010000
00001000
,
00010000
00001000
00010000
00001000
,
00010000
00001000
00010000
00001000
,
00011000
00001010
00000000
00011000
,
00110000
00000000
00011000
00001100
,
00000000
00011000
01010000
00000000
,
00100000
00000000
10000000
00000000
01000000
00010000
00001000
00000010
,
00000000
00000000
00000001
00000000
00000100
00001000
00010000
00100000
,
10000000
00010000
00000000
01100000
,
00000000
00000000
10000000
01000000
00010000
00001000
00000100
00000001
,
00000020
00000000
00000030
00000000
,
00000000
00000000
00000000
00000000
;
