
//----- song id: orrs
#TITLE:乙女繚乱 舞い咲き誇れ;
#ARTIST:日向美ビタースイーツ♪;
#TITLETRANSLIT:Otome ryouran mai sakihokore;
#ARTISTTRANSLIT:Hinatabi Bittersweets♪;
#BANNER:Otome ryouran mai sakihokore.png;
#BACKGROUND:Otome ryouran mai sakihokore-bg.png;
#CDTITLE:./CDTitles/DDR (2014).png;
#MUSIC:Otome ryouran mai sakihokore.ogg;
#SAMPLESTART:50.143;
#SAMPLELENGTH:15;
#BPMS:0=210;
#NOTES:
     dance-single:
     :
     Beginner:
     4:
     :
0000
0000
0000
0000
,
0000
0000
0000
0000
,
0000
0000
0000
0000
,
0000
0000
0000
0000
,
0000
0000
0000
0000
,
0000
0000
0000
0000
,
0001
0000
0000
0000
,
1000
0000
0000
0000
,
1001
0000
0000
0000
,
0000
0000
0000
0000
,
2002
0000
0000
0000
,
0000
0000
0000
3003
,
0000
0000
0000
0000
,
0000
0000
0000
0000
,
0010
0000
0000
0000
,
0010
0000
0000
0000
,
1000
0000
1000
0000
,
0001
0000
0001
0000
,
0010
0000
0000
0000
,
0010
0000
0000
0000
,
0001
0000
0001
0000
,
1000
0000
1000
0000
,
0100
0000
0000
0000
,
0100
0000
0000
0000
,
0001
0000
0001
0000
,
1000
0000
1000
0000
,
0010
0000
0000
0000
,
0100
0000
0000
0000
,
0001
0000
1000
0000
,
0001
0000
0000
0000
,
0010
0010
0010
0000
,
0010
0010
0010
0000
,
2000
0000
3000
0000
,
0002
0000
0003
0000
,
0010
0010
0010
0000
,
0010
0010
0010
0000
,
0002
0000
0003
0000
,
2000
0000
3000
0000
,
0001
0000
0000
0000
,
1000
0000
0000
0000
,
0001
0000
0001
0000
,
1000
0000
1000
0000
,
2002
0000
0000
0000
,
0000
0000
3003
0000
,
0010
0000
1000
0000
,
0100
0000
1000
0000
,
0001
0000
1000
0000
,
0001
0000
0000
0000
,
1000
1000
1000
0000
,
0001
0001
0001
0000
,
0010
0000
0100
0000
,
0010
0000
0000
0000
,
0001
0000
0010
0000
,
0100
0000
1000
0000
,
0001
0000
1000
0000
,
0001
0000
0000
0000
,
1000
1000
1000
0000
,
0001
0001
0001
0000
,
1000
0000
0001
0000
,
2002
0000
0000
0000
,
0000
0000
3003
0000
,
0000
0000
0000
0000
,
0000
0000
0000
0000
,
0001
0000
0000
0000
,
0000
0000
0000
0000
,
0010
0000
0000
0000
,
0000
0000
0000
0000
,
1000
0000
0000
0000
,
0000
0000
0000
0000
,
0100
0000
0000
0000
,
0000
0000
0000
0000
,
0002
0000
0003
0000
,
0020
0000
0030
0000
,
2000
0000
3000
0000
,
0200
0000
0300
0000
,
0002
0000
0003
0000
,
0200
0000
0300
0000
,
2000
0000
3000
0000
,
0020
0000
0030
0000
,
0001
0000
0000
0000
,
0000
0000
1000
0000
,
0000
0000
0000
0000
,
0001
0000
0000
1000
,
0000
0000
0001
0000
,
0000
0000
0000
0000
,
0000
0000
0100
0000
,
0000
0000
0010
0000
,
0010
0000
1000
0000
,
0000
0000
0001
0000
,
0000
0000
1000
0000
,
0001
0000
1000
0000
,
0000
0000
0100
0100
,
0100
0000
0010
0010
,
0010
0000
0001
0000
,
0010
0000
1000
0000
,
0000
0000
0001
0000
,
0100
0000
0010
0000
,
1000
0000
0001
0000
,
1000
0000
0001
0000
,
0000
0000
0010
0010
,
0010
0000
0100
0100
,
0100
0000
1000
0000
,
0001
0000
2002
0000
,
3003
0000
0010
0000
,
0001
0000
1000
1000
,
1000
0000
0001
0001
,
0001
0000
2002
0000
,
3003
0000
0000
0000
,
0000
0000
0000
0000
;
#NOTES:
     dance-single:
     :
     Easy:
     7:
     :
0000
0000
0000
0000
,
0000
0000
0000
0000
,
0000
0000
0000
0000
,
0000
0000
0000
0000
,
0000
0000
0000
0000
,
0000
0000
0000
0000
,
0001
0010
0001
0000
,
1000
0010
1000
0000
,
1001
0000
0000
0000
,
0000
0000
0000
0000
,
2002
0000
0000
0000
,
0000
0000
0000
3003
,
0000
0000
0000
0000
,
0000
0000
0000
0000
,
0000
1000
0001
1000
,
0100
0100
0100
0000
,
0010
0100
0010
0000
,
0001
0100
0001
0000
,
0000
1000
0001
1000
,
0010
0010
0010
0000
,
0100
1000
0001
0000
,
0100
0001
1000
0000
,
0000
0001
1000
0001
,
0010
0010
0010
0000
,
1000
0010
0001
0000
,
0001
0010
1000
0000
,
0000
1000
0100
1000
,
0000
0001
0010
0100
,
1000
0000
0001
0000
,
1000
0001
1000
0000
,
0010
0010
0010
0000
,
0001
0001
0001
0000
,
0010
1000
0100
0000
,
0010
0001
0100
0000
,
0010
0010
0010
0000
,
1000
1000
1000
0000
,
0100
0010
0001
0000
,
0100
0010
1000
0000
,
0001
0000
0000
0000
,
1000
0000
0000
0000
,
1000
0100
0010
0000
,
0001
0100
0010
0000
,
1000
0000
0001
0000
,
1000
0000
1001
0000
,
0010
0100
0010
0000
,
0100
0010
0100
0000
,
1000
0100
0001
0010
,
1000
0000
0000
0100
,
0100
0010
0010
1000
,
1000
0001
0001
0000
,
0001
0010
0100
0000
,
2002
0000
0000
3003
,
0100
0010
0100
0000
,
0010
0100
0010
0000
,
0100
0001
1000
0100
,
0010
0000
0000
0000
,
0001
0001
0001
0000
,
1000
1000
1000
0000
,
0010
0000
0100
0000
,
2002
0000
0000
0000
,
0000
0000
0000
3003
,
0100
0000
0000
0000
,
0001
0000
0000
0000
,
0002
0000
0203
0000
,
0320
0000
2030
0000
,
3002
0000
0023
0000
,
0230
0000
2300
0000
,
3002
0000
2003
0000
,
3020
0000
2030
0000
,
3200
0000
0320
0000
,
0032
0000
0103
0000
,
0010
0000
0010
0000
,
1000
0001
1000
0000
,
0100
0000
0100
0000
,
1000
0001
1000
0000
,
0010
0000
0010
0000
,
0100
0010
0100
0000
,
0010
0000
0010
0000
,
0100
0010
0100
0000
,
1000
0000
0000
0100
,
0000
0001
0001
0000
,
0000
1000
0000
0000
,
0002
0000
0003
2000
,
0000
3000
0010
0000
,
0000
0010
0000
0000
,
0000
0000
0001
0000
,
1000
0000
0010
0000
,
0100
0000
0000
0100
0000
0000
0000
0000
,
0000
0000
0010
0010
,
0010
0000
0001
0000
,
0100
0000
1000
0000
,
0000
0100
0100
0010
,
0010
0001
0001
1000
,
1000
0000
1000
0010
,
0100
0000
0001
0000
,
0000
0000
0010
0100
,
0010
0000
0100
0010
,
0100
0000
1000
0000
,
0010
0000
0001
0000
,
0100
0000
1000
0100
,
1000
0000
0001
0100
,
0001
0000
1000
0000
,
0001
0000
2002
0000
,
0000
3003
0010
0000
,
1000
0000
0100
0010
,
0001
0000
0001
0100
,
0010
0000
2002
0000
,
3003
0000
0000
0000
,
0000
0000
0000
0000
;
#NOTES:
     dance-single:
     :
     Medium:
     10:
     :
0000
0000
0000
0000
,
0000
0000
0000
0000
,
0000
0000
0000
0000
,
0000
0000
0000
0000
,
0000
0000
0000
0000
,
0000
0000
0000
0000
0000
0000
0000
1010
,
0000
0000
0100
0000
0010
1000
0000
1100
,
0000
0000
0010
0000
0001
1000
0000
0000
,
0001
0000
0000
0010
0000
0000
1000
0100
,
0000
0000
1000
0010
0000
0000
1000
0000
,
0002
0000
0000
0000
,
0000
0000
0000
0003
,
0000
0000
0000
0000
,
0000
0000
0000
0000
0000
0000
0000
1001
,
0000
0010
0001
0000
1000
0000
0001
0100
,
0010
0000
1000
0000
0001
0000
0000
1000
,
0000
0100
0010
0000
0100
0010
0000
0001
,
0000
0100
0010
0000
1000
0000
0000
0100
,
0000
0010
0001
0000
1000
0000
0001
0010
,
0100
0000
1000
0000
0001
0000
0000
0001
,
0010
0000
0001
0000
1000
0000
0000
1000
,
0001
0000
0100
0001
1000
0000
0000
0110
,
0000
0010
1000
0000
0001
0000
1000
0010
,
0100
0000
0001
0000
0100
0000
0000
1000
,
0000
1000
0100
0000
1000
0100
0000
0010
,
0000
0010
0001
0000
0001
0000
0000
0100
,
0000
0000
1000
0000
0010
0000
0001
0100
,
0000
1000
0100
0010
,
1001
0000
0001
0010
0000
1100
0000
0101
,
0000
1000
0100
0000
0010
0000
0000
0001
,
0000
0001
0100
0000
0001
0100
0000
1000
,
0000
1000
0100
0000
1000
0100
0000
0010
,
0000
0001
0100
0000
0010
1000
0000
0001
,
0000
0010
0100
0000
1000
0000
0000
0001
,
0000
0010
0001
0000
0010
0001
0000
1000
,
0000
0010
1000
0000
0010
1000
0000
0100
,
0000
0010
0100
0000
1000
0001
0000
0100
,
0000
0010
1000
0000
0001
0000
0000
0000
,
0010
0000
1000
0000
0100
0000
,
0001
0000
0010
0000
1000
0000
,
0001
0010
0100
1000
,
0010
0100
0001
0010
,
1000
0000
0010
0100
0000
0001
0100
0000
,
0001
0000
0000
1000
0000
0000
0001
0000
1000
0000
0000
0000
0000
0000
0110
0000
,
0000
0001
0100
0000
0010
0000
0100
0001
,
0000
1000
0100
0000
0010
0000
0000
0000
,
0001
0000
0010
0000
1000
0000
0100
1000
,
0000
0000
0001
0000
0100
0000
0010
1000
,
0010
0000
0100
0001
0100
0000
0001
0010
,
0001
0000
1000
0100
1000
0000
0000
0000
,
1000
0000
0100
0000
0010
0001
0000
1001
,
0000
0000
0001
0000
0100
0000
0010
1000
,
0000
1000
0100
0000
0010
0000
0100
1000
,
0000
0001
0100
0000
0010
0000
0000
0000
,
0010
0000
1000
0000
0001
0100
0000
0001
,
0000
1000
0000
0001
0000
0000
1000
0000
,
0010
1000
1010
0000
,
0001
0100
0101
0000
,
1000
0010
0100
0001
,
2002
0000
0000
0000
,
0000
0000
0000
3003
,
0010
0000
0001
0000
0100
0000
,
1000
0000
0010
0000
0001
0000
,
2000
0000
3020
0000
,
0230
0000
0302
0000
,
2003
0000
3200
0000
,
0320
0000
0032
0000
,
2003
0000
3002
0000
,
0203
0000
0302
0000
,
0023
0000
0230
0000
,
2300
0000
3010
0000
,
0101
0000
1100
0000
,
0010
0100
0010
0000
,
0010
1000
0001
0100
,
0010
1000
0100
0000
0010
0000
0000
0000
,
0011
0000
1100
0000
,
0010
0001
0100
0000
,
0010
0000
0100
0000
,
0010
0000
1000
0001
0100
0000
0000
0000
,
0001
0000
0000
0100
0000
0000
0010
0000
,
0000
1000
0100
0010
,
0000
0001
1000
0000
0000
0000
0010
0000
,
2000
0000
3100
0002
,
0000
0000
0103
0000
0010
0000
0000
0010
,
0000
0000
0100
0000
0000
0100
0000
0000
,
0010
0010
1000
0100
,
0010
0000
0000
0000
0001
0000
0000
0000
0100
0000
0000
0010
0000
0000
0100
0000
,
0010
0000
0000
1001
0000
1000
0100
0000
,
0010
0000
0100
1000
0000
0001
0100
0000
,
0010
0000
1000
0010
,
0001
0000
0100
0001
0000
0000
1000
0000
,
0100
0000
0010
0001
0010
0000
0100
1000
,
0100
0000
1000
0010
1000
0000
0001
0100
,
0001
0000
0001
0100
,
0010
1000
0000
1001
0000
0000
1000
0000
,
0100
0000
0010
0001
0000
0001
0100
0000
,
0010
0000
0100
0001
0000
1000
0100
0000
,
0010
0000
0010
0001
,
1000
0100
0000
1000
0000
0001
0000
1000
,
0000
0001
0010
0001
,
0011
0000
1000
0100
,
1100
0000
0001
0010
,
0100
1000
2002
0000
,
0000
3003
0010
0000
,
1000
0001
0110
1001
,
0110
0000
0000
0000
1000
0010
0100
0000
,
0001
1000
2002
0000
,
3003
0000
0000
0000
,
0000
0000
0000
0000
;
#NOTES:
     dance-single:
     :
     Hard:
     13:
     :
0000
0000
0000
0000
,
0000
0000
0000
0000
,
0000
0000
0000
0000
,
0000
0000
0000
0000
,
0000
0000
0000
0000
,
0000
0000
0000
0000
0000
0000
0000
0011
,
0000
1000
0100
0010
0001
1000
0000
0101
,
0000
0010
1000
0001
0010
0100
0000
0000
,
1000
0100
0000
0001
0100
0000
1000
0100
,
0000
0001
1000
0010
0000
0100
0010
0000
,
2000
0100
0100
0100
,
0100
0100
0100
3100
,
0000
0000
0000
0000
,
0000
0000
0000
0000
0000
0000
0000
1001
,
0000
0010
1000
0001
0010
0001
1000
0010
,
0100
0000
1000
0100
0001
0000
0000
1000
,
0000
0100
0010
0001
0010
0100
1000
0100
,
0000
0010
0001
1000
0001
0100
0000
0101
,
0000
0010
1000
0100
0010
0001
0100
0010
,
1000
0000
0001
0100
0010
0000
0000
1000
,
0010
0000
1010
0000
0101
0000
0000
0001
,
1000
0000
0100
1000
0001
1000
0000
0110
,
0000
0010
0001
1000
0010
1000
0001
0010
,
0100
0000
0001
0100
1000
0000
0000
0001
,
0001
0100
0010
1000
0010
0100
0001
0100
,
0000
0010
1000
0001
1000
0100
0000
1100
,
0000
0010
0001
0100
0000
0010
1000
0100
,
0000
0010
0001
0010
0100
1000
0001
1000
,
1001
0000
1000
1010
0000
0011
0000
1100
,
0000
0001
0100
0010
1000
0000
0000
0110
,
0000
0001
0100
1000
0100
0002
0000
2003
,
0000
3001
0010
1000
0010
0001
0000
1000
,
0000
0100
0010
0001
0100
0010
0000
1000
,
0000
0010
0100
0001
1000
0000
0000
0110
,
0000
1000
0100
0001
0100
2000
0000
3002
,
0000
1003
0010
0001
0010
1000
0000
0001
,
0000
0100
0010
1000
0100
0010
0000
0001
,
0000
0010
0100
1000
0001
0000
0000
0000
,
0011
0000
0100
0000
1000
0000
,
0101
0000
0010
0000
1000
0000
,
1001
0010
1001
0010
,
1001
0000
0010
1000
0000
0001
0100
0000
,
0001
0010
0100
1000
0010
0100
0001
1000
,
0001
0000
0000
1000
0000
0000
0001
0000
1001
0000
0000
0000
0000
0000
0110
0000
,
0000
1000
0100
0010
0001
0010
0100
1000
,
0000
0001
0100
0010
1000
0000
0010
0000
,
0010
0000
1000
0000
0001
0000
0100
0001
,
0000
0000
1000
0000
0100
0000
0010
0001
,
0011
0000
1000
0100
1100
0000
0001
0100
,
0101
0000
1000
0010
1010
0000
0000
0000
,
0001
0000
0100
0000
0010
0100
0000
1001
,
0000
0010
1000
0100
0010
0001
0100
0010
,
0000
0001
0100
0010
1000
0010
0100
0001
,
0000
1000
0100
0010
0001
0000
0010
0000
,
0010
0000
0001
0000
1000
0100
0000
1000
,
0000
0010
0000
0001
0000
0000
0010
0000
,
0001
0010
1000
0100
0001
0000
1000
0000
,
0001
0100
1000
0010
0001
0000
1000
0000
,
0001
0010
1000
0100
0010
0000
0001
0000
,
2002
0000
0000
0000
,
0000
0000
0000
3003
,
1010
0000
0100
0000
0001
0000
,
1100
0000
0010
0000
0001
0000
,
2000
0000
3020
0000
,
0230
0000
0320
0000
,
2030
0000
3200
0000
,
0320
0000
0032
0000
,
2003
0000
3002
0000
,
0203
0000
2300
0000
,
3200
0000
0302
0000
,
0023
0000
0130
0000
,
1100
0000
0101
0000
,
0010
0000
0100
0010
0000
0000
0100
0000
,
0010
0000
0001
1000
0000
0100
0000
0010
,
0000
0001
0100
0010
1000
0000
0000
0000
,
0011
0000
1010
0000
,
0100
0000
0010
1000
0000
0000
0001
1000
,
0010
0000
0100
0000
,
0010
1000
0100
0010
0001
0000
0000
0000
,
1000
0000
0000
0100
0000
0000
0010
0000
,
0001
0100
1000
0010
,
0000
0001
1000
0000
0100
0000
0010
0000
,
0002
0100
0103
2000
,
0100
0000
3100
0000
0010
0000
0001
0010
,
0000
1000
0010
0000
0001
0010
0000
0100
,
0010
0000
0010
0000
0001
0100
0010
1000
,
0100
0000
0010
0000
0001
0000
0100
0000
0010
0000
0000
0100
0000
0000
0010
0000
,
1001
0000
0000
0110
0000
0001
0100
0010
,
1000
0010
0100
0001
0000
1000
0100
0010
,
0001
0000
0010
0001
,
1000
0000
0100
1000
0000
0000
0001
0000
,
0100
0000
0010
1000
1010
0000
0001
0100
,
0101
0000
1000
0100
1100
0000
0001
0010
,
0011
0000
1000
0100
,
0010
0100
0000
1001
0000
0010
0001
0100
,
0010
1000
0100
0010
0000
1000
0100
0010
,
0001
0010
0100
1000
0000
0001
0100
0010
,
1000
0010
0010
1000
,
0001
0100
0000
0001
0000
0010
0000
1000
,
0000
0000
0010
0000
1000
0010
0001
0100
,
1000
0000
0001
0000
1000
0100
0001
0010
,
1000
0000
0001
0000
1000
0010
0001
0100
,
0010
1000
2002
0000
,
0000
3003
0011
0000
,
0110
1100
1001
0110
,
1001
0000
0000
0000
0001
0010
0100
1000
,
0010
0100
2002
0000
,
3003
0000
0000
0000
,
0000
0000
0000
0000
;
#NOTES:
     dance-double:
     :
     Easy:
     7:
     :
00000000
00000000
00000000
00000000
,
00000000
00000000
00000000
00000000
,
00000000
00000000
00000000
00000000
,
00000000
00000000
00000000
00000000
,
00000000
00000000
00000000
00000000
,
00000000
00000000
00000000
00000000
,
00000010
00000001
00000100
00000000
,
00001000
00010000
01000000
00000000
,
10000000
00000000
00100000
00000000
,
00010000
00000000
00001000
00000000
,
00000200
00000000
00000000
00000000
,
00000000
00000000
00000000
00000300
,
00000000
00000000
00000000
00000000
,
00000000
00000000
00000000
00000000
,
00000000
00000001
00000100
00001000
,
00010000
00001000
00010000
00000000
,
00001000
01000000
00100000
00000000
,
10000000
01000000
00100000
00000000
,
00000000
10000000
01000000
00010000
,
00001000
00010000
00001000
00000000
,
00000010
00001000
00000100
00000000
,
00000010
00000001
00000100
00000000
,
00000000
00000001
00001000
00000100
,
00010000
00001000
00100000
00000000
,
00001000
00010000
01000000
00000000
,
00100000
00010000
01000000
00000000
,
00000000
00100000
10000000
01000000
,
00000000
00100000
00001000
00010000
,
00001000
00000000
00000100
00000000
,
00000010
00000100
00000010
00000000
,
00010000
00010000
00010000
00000000
,
00001000
00001000
00001000
00000000
,
00010000
01000000
10000000
00000000
,
10000000
00100000
00010000
00000000
,
00001000
00001000
00001000
00000000
,
00010000
00010000
00010000
00000000
,
00001000
00000100
00000001
00000000
,
00000001
00000010
00001000
00000000
,
00010000
00000000
00000000
00000000
,
00001000
00000000
00000000
00000000
,
00010000
00000000
00100000
00000000
,
10000000
00000000
01000000
00000000
,
00010000
00001000
00000010
00000001
,
00001000
00000000
00001001
00000000
,
00000001
00000001
00000100
00000100
,
00001000
00010000
00001000
00000000
,
00001000
00010000
00100000
10000000
,
00010000
00000000
00000000
00000000
,
10000000
10000000
01000000
01000000
,
00010000
00010000
00001000
00001000
,
00000100
00000001
00001000
00000000
,
00002002
00000000
00003003
00000000
,
00000010
00000010
00001000
00001000
,
00000100
00010000
00001000
00000000
,
00100000
00010000
01000000
00000000
,
00100000
00000000
00000000
00000000
,
10000000
01000000
10000000
00000000
,
00010000
01000000
00010000
00000000
,
10000000
01000000
00010000
00001000
,
00022000
00000000
00000000
00000000
,
00000000
00000000
00000000
00033000
,
00000000
00000000
00000000
00000000
,
00000000
00000000
00000000
00000000
,
00000200
00000000
00000320
00000000
,
00000032
00000000
00000203
00000000
,
00002300
00000000
00023000
00000000
,
02030000
00000000
23000000
00000000
,
32000000
00000000
03020000
00000000
,
00032000
00000000
00003200
00000000
,
00000302
00000000
00000023
00000000
,
00000230
00000000
00001300
00000000
,
00000010
00000000
00000010
00000000
,
00000100
00000001
00000010
00000000
,
00001000
00000000
00010000
00000000
,
00100000
01000000
00010000
00000000
,
01000000
00000000
01000000
00000000
,
00001000
00010000
00000010
00000000
,
00000100
00000000
00000010
00000000
,
00010000
00001000
00010000
00000000
,
00001000
00000000
00000000
01000000
,
00000000
00000000
00100000
00000000
,
00000000
10000000
00000000
00000000
,
02000000
00000000
03000000
00020000
,
00000000
00030000
00002000
00000000
,
00000000
00000000
00000000
00000000
,
00000000
00003000
00010000
00001000
,
00000010
00000001
00001000
00000000
,
00000001
00000000
00000000
00000010
00000000
00000000
00000000
00000000
,
00000000
00000000
00000100
00000100
,
00000100
00000000
00001000
00010000
,
00001000
00010000
00001000
00000000
,
00000000
00000000
00010000
00010000
,
00100000
00100000
10000000
10000000
,
01000000
01000000
00010000
00001000
,
00010000
00000000
00022000
00000000
,
00000000
00033000
00000100
00000100
,
00000010
00000010
00000001
00001000
,
00000001
00000000
00000100
00000010
,
00010000
00000000
00001000
00000000
,
00000000
00000000
00100000
00100000
,
00100000
00000000
00000010
00000010
,
00000010
00000000
01000000
01000000
,
01000000
01000000
02200000
00000000
,
00000000
03300000
00010000
00000000
,
10000000
01000000
00100000
00001000
,
00010000
00000000
00001000
00000010
,
00000001
00000100
00002002
00000000
,
00003003
00000000
00000000
00000000
,
00000000
00000000
00000000
00000000
;
#NOTES:
     dance-double:
     :
     Medium:
     10:
     :
00000000
00000000
00000000
00000000
,
00000000
00000000
00000000
00000000
,
00000000
00000000
00000000
00000000
,
00000000
00000000
00000000
00000000
,
00000000
00000000
00000000
00000000
,
00000000
00000000
00000000
00000000
00000000
00000000
00000000
00100000
,
00000000
00000000
10000000
00000000
01000000
00100000
00000000
00010000
,
00000000
00000000
00001000
00000000
00000100
00000010
00000000
00000000
,
00000001
00000000
00000000
00000100
00000000
00000000
00001000
00010000
,
00000000
00000000
00100000
10000000
00000000
00000000
00100000
00000000
,
02000000
00000000
00000000
00000000
,
00000000
00000000
00000000
03000000
,
00000000
00000000
00000000
00000000
,
00000000
00000000
00000000
00000000
00000000
00000000
00000000
00010000
,
00000000
00010000
10000000
00000000
01000000
00000000
00010000
00001000
,
00010000
00000000
00000010
00000000
00000100
00000000
00000000
00000010
,
00000000
00001000
00000100
00000000
00000010
00001000
00000000
00010000
,
00000000
00100000
10000000
00000000
00010000
00000000
00000000
10000000
,
00000000
01000000
10000000
00000000
00100000
00000000
01000000
00001000
,
00010000
00000000
00000010
00000000
00000100
00000000
00000000
00000010
,
00001000
00000000
00000100
00000000
00000010
00000000
00000000
00000001
,
00000100
00000000
00000010
00000000
00000100
00000000
00000000
00000010
,
00000000
00000100
00000001
00000000
00001000
00000000
00000100
00010000
,
00001000
00000000
00100000
00000000
01000000
00000000
00000000
10000000
,
00000000
00100000
01000000
00000000
00010000
01000000
00000000
00001000
,
00000000
00010000
00000100
00000000
00000010
00000000
00000000
00001000
,
00000000
00000001
00000010
00000100
00000000
00001000
00000000
00000010
,
00000000
00000100
00000000
00001000
00010000
00001000
00010000
00000000
,
00110000
00000000
00000000
10000000
00000000
01000000
00000000
00100000
,
00000000
00100000
01000000
00000000
00100000
00000000
00000000
00010000
,
00000000
00010000
01000000
00000000
00100000
00010000
00000000
00001000
,
00000000
00001000
00000100
00000000
00000010
00000100
00000000
00000010
,
00000000
00001000
00000001
00000000
00000010
00000001
00000000
00000100
,
00000000
00000010
00010000
00000000
00001000
00000000
00000000
00001000
,
00000000
00001000
01000000
00000000
00100000
01000000
00000000
00001000
,
00000000
00001000
00000100
00000000
00000010
00000100
00000000
00001000
,
00000000
00010000
00100000
00000000
01000000
00100000
00000000
10000000
,
00000000
01000000
00100000
00000000
00010000
00000000
00000000
00000000
,
10000000
00000000
01000000
00000000
00010000
00000000
,
00001000
00000000
00000100
00000000
00000001
00000000
,
00001000
00000100
00000001
00000100
,
00001000
00000000
00010000
00100000
00000000
01000000
00100000
00000000
,
10000000
00000000
00000000
01000000
00000000
00000000
00100000
00000000
,
00001000
00000000
00000000
00010000
00000000
00000000
00000010
00000000
00000100
00000000
00000000
00000000
00000000
00000000
00000010
00000000
,
00000000
00001000
00000001
00000000
00000100
00000000
00000010
00001000
,
00000000
00000100
00010000
00000000
00001000
00000000
00000000
00000000
,
01000000
00000000
00010000
00000000
00100000
00000000
01000000
10000000
,
00000000
00000000
10000000
00000000
00100000
00000000
00010000
00001000
,
00010000
00000000
00000010
00000000
00000010
00000000
00010000
00001000
,
00010000
00000100
00000100
00000000
,
00010000
00000000
00001000
00000000
00100000
01000000
00000000
10000000
,
00000000
00000000
10000000
00000000
01000000
00000000
00010000
00001000
,
00000000
00000100
00000001
00000000
00000010
00000000
00000100
00000010
,
00000000
00001000
00010000
00000000
00001000
00000000
00000000
00000000
,
01000000
00000000
00100000
00000000
00010000
00100000
00000000
01000000
,
00000000
01000000
00000000
01000000
00000000
00000000
00001000
00000000
,
00100000
00010000
00100000
00000000
00011000
00000000
00000000
00000000
,
00000010
00001000
00000010
00000000
00011000
00000000
00000000
00000000
,
01000000
00010000
01000000
00000000
00001000
00000000
00010000
00000000
,
00002200
00000000
00000000
00000000
,
00000000
00000000
00000000
00003300
,
00000001
00000000
00000010
00000000
00001000
00000000
,
00010000
00000000
00100000
00000000
10000000
00000000
,
02000000
00000000
03200000
00000000
,
00320000
00000000
02030000
00000000
,
03002000
00000000
00003200
00000000
,
00000302
00000000
00000023
00000000
,
00000230
00000000
00020300
00000000
,
00030020
00000000
00000230
00000000
,
00002300
00000000
02003000
00000000
,
03200000
00000000
10300000
00000000
,
00100000
00000000
00100000
00000000
,
01000000
10000000
00100000
00000000
,
00010000
00001000
00000010
00000001
,
00000100
00000010
00001000
00000000
,
00000100
00000000
00000100
00000000
,
00010000
00001000
00100000
00000000
,
01000000
00000000
00100000
00000000
,
00001000
00010000
00001000
00000000
,
00010000
00000000
00000000
00000010
00000000
00000000
00000100
00000000
,
00000000
00000010
00000100
00000001
,
00000000
00000010
00000100
00000000
00000000
00000000
00010000
00000000
,
00002000
00000000
01003000
00020000
,
00000000
00000000
10030000
00000000
01000000
00000000
00000000
01000000
,
00000000
00000000
00100000
00000000
00000000
00100000
00000000
00000000
,
00010000
00001000
00000100
00000010
,
00001000
00000000
00000000
00000000
00010000
00000000
00000000
00000000
00001000
00000000
00000000
00010000
00000000
00000000
00001000
00000000
,
00010000
00000000
00000000
00100000
00000000
00010000
10000000
00000000
,
01000000
00000000
00100000
00010000
00000000
01000000
00001000
00000000
,
00010000
00000000
00000100
00001000
,
00000010
00000000
00000100
00000001
00000000
00000000
00000001
00000000
,
00000010
00000000
00001000
00010000
00001000
00000000
00100000
00000000
,
00100000
00000000
00001000
00010000
00001000
00000000
01000000
00000000
,
01000000
00000000
00001000
00010000
,
00000010
00000100
00000000
00000001
00000000
00000000
00000001
00000000
,
00000100
00000000
00001000
00010000
00000000
01000000
10000000
00000000
,
00100000
00000000
01000000
00100000
00000000
00010000
00001000
00000000
,
00010000
00000000
00000100
00000010
,
00001000
00000010
00000000
00000100
00000000
00000100
00000000
00000100
,
00000000
00000000
00010000
00000000
00000010
00001000
00000010
00000000
,
00011000
00000000
00000000
00000000
00100000
00010000
00100000
00000000
,
00011000
00000000
00000000
00000000
00000100
00001000
00000100
00000000
,
00010000
00001000
02020000
00000000
,
00000000
03030000
00100000
00000000
,
10000000
01000000
00110000
00011000
,
00001010
00000000
00000000
00000000
00000001
00000100
00000010
00000000
,
00001000
00000001
00000220
00000000
,
00000330
00000000
00000000
00000000
,
00000000
00000000
00000000
00000000
;
#NOTES:
     dance-double:
     :
     Hard:
     13:
     :
00000000
00000000
00000000
00000000
,
00000000
00000000
00000000
00000000
,
00000000
00000000
00000000
00000000
,
00000000
00000000
00000000
00000000
,
00000000
00000000
00000000
00000000
,
00000000
00000000
00000000
00000000
00000000
00000000
00000000
00001010
,
00000000
00000100
00000001
00000010
00000100
00001000
00000000
00011000
,
00000000
00010000
00100000
01000000
10000000
00010000
00000000
00000000
,
01000000
00100000
00000000
10000000
01000000
00000000
00010000
00001000
,
00000000
00000100
00000001
00000010
00000000
00000100
00000010
00000000
,
00000002
00000100
00000100
00000100
,
00000100
00000100
00000100
00000103
,
00000000
00000000
00000000
00000000
,
00000000
00000000
00000000
00000000
00000000
00000000
00000000
00000010
,
00000000
00001000
00000010
00000100
00000010
00000000
00010000
00001000
,
00100000
00000000
01000000
10000000
00100000
00000000
00000000
01000000
,
00000000
00100000
10000000
01000000
00100000
00010000
00000000
00001000
,
00000000
00000100
00000010
00000001
00001000
00000010
00001000
00000001
,
00000000
00000010
00000001
00000100
00000010
00010000
00001000
00100000
,
00010000
00000000
10000000
00010000
01000000
00000000
00000000
00010000
,
00100000
00000000
00011000
00000000
00110000
00000000
00000000
01000000
,
00100000
00000000
00010000
01000000
00100000
01000000
00000000
01000000
,
00000000
00100000
10000000
01000000
00100000
00001000
00010000
00000010
,
00000100
00000000
00001000
00000100
00000001
00000000
00000000
00001000
,
00000000
00000100
00000010
00000001
00000010
00000100
00000000
00010000
,
00000000
00001000
00100000
01000000
00100000
00010000
00000000
00010000
,
00000000
10000000
01000000
00100000
00000000
00010000
00000000
01000000
,
00000000
00100000
00010000
00001000
00000100
00000010
00001000
00000000
,
00001001
00000000
00000001
00000010
00000000
00001100
00000000
00011000
,
00000000
00000100
00000010
00000100
00010000
00000000
00000000
00011000
,
00000000
00010000
00000010
00000100
00000010
00001000
00000000
00010000
,
00000000
00001000
00100000
01000000
00100000
00010000
00000000
00001000
,
00000000
00010000
01000000
10000000
00010000
01000000
00000000
00100000
,
00000000
01000000
00001000
00010000
00001000
00000000
00000000
00011000
,
00000000
00010000
00000010
00000100
00000010
00010000
00000000
00011000
,
00000000
00001000
00100000
01000000
00100000
00001000
00000000
00010000
,
00000000
00000100
00000010
00000001
00000100
00000010
00000000
00001000
,
00000000
00000010
00000100
00000001
00001000
00000000
00000000
00000000
,
00000001
00000000
00000100
00000000
00001000
00000000
,
00010000
00000000
01000000
00000000
10000000
00000000
,
00020000
00100000
10000000
00130000
,
00001000
00000000
00000100
00000010
00000000
00000001
00001000
00000000
,
00000010
00000100
00000001
00001000
00000100
00010000
00001000
00100000
,
00010000
00000000
00000000
10000000
00000000
00000000
00100000
00000000
01000000
00000000
00000000
00000000
00000000
00000000
01100000
00000000
,
00000000
10000000
01000000
00100000
00010000
01000000
00100000
10000000
,
00000000
00100000
00010000
00001000
00000100
00000000
00000000
00000000
,
00000010
00000000
00001000
00000000
00000100
00000000
00000010
00000001
,
00000000
00000000
00000001
00000000
00000100
00000000
00000001
00000100
,
00001000
00000000
00010000
01000000
10000000
00000000
10000000
00100000
,
00010000
00000000
00001000
00000010
00000001
00000000
00000000
00000000
,
00001000
00000000
00000100
00000000
00000010
00000100
00000000
00001001
,
00000000
00000010
00000001
00000100
00000010
00010000
00001000
01000000
,
00000000
00100000
10000000
01000000
00100000
00010000
00100000
01000000
,
00000000
00010000
00001000
00000100
00000001
00000000
00000000
00000000
,
00000010
00000000
00000001
00000000
00001000
00000100
00000000
00000010
,
00000000
00000100
00000000
00010000
00000000
00000000
00001000
00000000
,
00010000
00100000
10000000
00100000
00010000
00000000
00001000
00000000
,
00001000
00000010
00000001
00000010
00001000
00000000
00010000
00000000
,
00010000
00100000
10000000
01000000
00100000
00000000
00010000
00000000
,
20020000
00000000
00000000
00000000
,
00000000
00000000
00000000
30030000
,
10000000
00000000
01000000
00000000
00010000
00000000
,
00001000
00000000
00000100
00000000
00000001
00000000
,
00000020
00000000
00000230
00000000
,
00002300
00000000
00003020
00000000
,
00020030
00000000
00230000
00000000
,
20300000
00000000
32000000
00000000
,
03200000
00000000
00302000
00000000
,
02003000
00000000
03200000
00000000
,
00320000
00000000
00030020
00000000
,
00000230
00000000
00000301
00000000
,
00000101
00000000
00001100
00000000
,
00000010
00000000
00000001
00000100
00000000
00000000
00001000
00000000
,
00010000
00000000
00100000
10000000
00000000
00010000
00000000
10000000
,
00000000
01000000
00100000
00010000
00001000
00000000
00000000
00000000
,
00011000
00000000
00001100
00000000
,
00000010
00000000
00000001
00001000
00000000
00000000
00000001
00000100
,
00000010
00000000
00001000
00000000
,
00000100
00001000
00010000
00001000
00000100
00000000
00000000
00000000
,
00010000
00000000
00000000
01000000
00000000
00000000
10000000
00000000
,
00010000
01000000
00100000
10000000
,
00000000
01000000
00100000
00000000
00010000
00000000
00001000
00000000
,
00000200
00000010
00000310
00000002
,
00000100
00000000
00000103
00000000
00000010
00000000
00001000
00010000
,
00000000
00001000
00000010
00000000
00001000
00010000
00000000
00100000
,
01000000
00000000
01000000
00000000
10000000
01000000
00100000
00010000
,
01000000
00000000
00100000
00000000
00010000
00000000
00001000
00000000
00100000
00000000
00000000
00001000
00000000
00000000
00000010
00000000
,
00000100
00000000
00000000
00000110
00000000
00000001
00000100
00000010
,
00001000
00000100
00000010
00000001
00000000
00000010
00001000
00010000
,
01000000
00000000
00100000
00010000
,
01000000
00000000
00100000
10000000
00000000
00000000
10000000
00000000
,
01000000
00000000
10000000
01000000
00010000
00000000
00001000
00000100
,
00000001
00000000
00000001
00000010
00001000
00000000
00010000
00100000
,
10000000
00000000
00010000
01000000
,
00100000
01000000
00000000
10010000
00000000
00100000
10000000
01000000
,
00100000
00001000
00010000
00000100
00000000
00000010
00000001
00000100
,
00000010
00001000
00000010
00000100
00000000
00001000
00010000
01000000
,
10000000
00000000
00100000
10000000
,
00010000
01000000
00000000
00100000
00000000
01000000
00000000
00001000
,
00000000
00000000
00010000
00000000
00001000
00000010
00000001
00000010
,
00001000
00000000
00010000
00000000
00010000
00100000
10000000
00100000
,
00010000
00000000
00001000
00000000
00001000
00000010
00000001
00000100
,
00000010
00001000
00002002
00000000
,
00000000
00003003
00001010
00000000
,
00011000
01010000
01100000
10010000
,
01100000
00000000
00000000
00000000
10000000
01000000
00100000
00010000
,
00001000
00000100
00002002
00000000
,
00003003
00000000
00000000
00000000
,
00000000
00000000
00000000
00000000
;
