
//----- song id: otom
#TITLE:乙女の真骨頂;
#ARTIST:乙女の純情 【福岡】;
#TITLETRANSLIT:Otome no shinkocchou;
#ARTISTTRANSLIT:Otome no junjou [Fukuoka];
#BANNER:Otome no shinkocchou.png;
#BACKGROUND:Otome no shinkocchou-bg.png;
#CDTITLE:./CDTitles/DDR (2014).png;
#MUSIC:Otome no shinkocchou.ogg;
#SAMPLESTART:59.643;
#SAMPLELENGTH:15;
#BPMS:0=180;
#NOTES:
     dance-single:
     :
     Beginner:
     3:
     :
0000
0000
0000
0000
,
0000
0000
0000
0000
,
0000
0000
0000
0000
,
0000
0000
0000
0000
,
0000
0000
0000
0000
,
0001
0001
0001
0000
,
1000
0000
0001
0000
,
1000
1000
1000
0000
,
0001
0000
1000
0000
,
0001
0001
0001
0000
,
0010
0000
0100
0000
,
1000
1000
1000
0000
,
0010
0000
0100
0000
,
0010
0000
0000
0000
,
0000
0000
0000
0000
,
0100
0000
0000
0000
,
0000
0000
0000
0000
,
0001
0000
0000
0000
,
0001
0000
0000
0000
,
1000
0000
1000
0000
,
1000
0000
0000
0000
,
0001
0000
0001
0000
,
0001
0000
0000
0000
,
0100
0000
0100
0000
,
0100
0000
0000
0000
,
1000
0000
1000
0000
,
1000
0000
0000
0000
,
0010
0000
0010
0000
,
0010
0000
0000
0000
,
0001
0000
0000
0000
,
1000
0000
0001
0000
,
1000
0000
0000
0000
,
0100
0000
0010
0000
,
0100
0000
0000
0000
,
0001
0000
1000
0000
,
0001
0000
0000
0000
,
0100
0000
0000
0000
,
1000
0000
0001
0000
,
0100
0100
0100
0000
,
0001
0000
1000
0000
,
0001
0000
0000
0000
,
0100
0000
0100
0000
,
0010
0000
0010
0000
,
0010
0000
0000
0000
,
0000
0000
0000
0000
,
1000
0000
1000
0000
,
1000
1000
1000
0000
,
0001
0000
0001
0000
,
0001
0001
0001
0000
,
1000
0000
0001
0000
,
1000
0000
0001
0000
,
0100
0100
0100
0000
,
0001
1000
0000
0000
,
0001
0000
0001
0000
,
0001
0001
0001
0000
,
1000
0000
1000
0000
,
1000
1000
1000
0000
,
0001
0000
1000
0000
,
0001
0000
1000
0000
,
0010
0000
0010
0000
,
1000
0000
0001
0000
,
1001
0000
0000
0000
,
0000
0000
0000
0000
,
1000
1000
1000
0000
,
0001
0000
1000
0000
,
0001
0001
0001
0000
,
1000
0000
0001
0000
,
1000
1000
1000
0000
,
0100
0000
0010
0000
,
0001
0001
0001
0000
,
0100
0000
0010
0000
,
1001
0000
0000
0000
,
0000
0000
0000
0000
;
#NOTES:
     dance-single:
     :
     Easy:
     6:
     :
0000
0000
0000
0000
,
0000
0000
0000
0000
,
0000
0000
0000
0000
,
0000
0000
0000
0000
,
0000
0000
0000
0000
,
0010
0010
0100
0000
,
0001
1000
0001
1000
,
0010
0010
0100
0000
,
0001
0010
0100
1000
,
0010
0010
0100
0000
,
0010
0100
0001
1000
,
0010
0010
0100
0010
,
1000
0001
1001
0000
,
2000
0000
0000
0000
,
0000
0000
0000
3000
,
0002
0000
0000
0000
,
0000
0000
0000
0003
,
0200
0000
0000
0000
,
0000
0000
0000
0300
,
0010
0000
0100
0100
,
0100
0000
0000
0000
,
0100
0001
0100
0001
,
1000
0100
1000
0100
,
0010
0001
0010
0001
,
0100
0100
0100
0000
,
0010
1000
0010
1000
,
0001
0010
0001
0010
,
0100
1000
0100
1000
,
0001
0001
0001
0000
,
0200
0000
0000
0300
,
0020
0000
0000
0030
,
2000
0000
0000
3000
,
0200
0000
0000
0300
,
0002
0000
0000
0003
,
0020
0000
0000
0030
,
0200
0000
0000
0300
,
2000
0000
0000
3000
,
1001
0000
0110
0000
,
0001
1000
1001
0000
,
0010
0100
0001
1000
,
0020
0000
0000
0030
,
0001
1000
0001
1000
,
0010
0100
0010
0100
,
2002
0000
0000
0000
,
3003
0000
0000
0000
,
0001
0100
1000
0001
,
0010
1000
0100
0001
,
1000
0010
0001
0100
,
1001
1001
1001
0000
,
0010
0010
0001
0000
,
0010
0010
1000
0000
,
0001
0010
0100
1000
,
0001
1001
0000
0000
,
1000
0100
0001
1000
,
0010
0001
0100
0010
,
1000
1000
0001
0001
,
0100
1001
0010
0000
,
1000
1000
0010
0000
,
0001
0001
0010
0000
,
1000
0100
0010
0001
,
0100
0000
0010
0000
,
0220
0000
0000
0000
,
0330
0000
0000
0000
,
0100
0100
0010
0010
,
1000
0001
1000
0001
,
0100
0100
0010
0010
,
1000
0100
0010
0001
,
0100
0100
0010
0010
,
0100
0010
1000
0001
,
0100
0100
0010
1000
,
0100
0010
0010
0000
,
1001
0000
0000
0000
,
0000
0000
0000
0000
;
#NOTES:
     dance-single:
     :
     Medium:
     9:
     :
0000
0000
0000
0000
,
0000
0000
0000
0000
,
0000
0000
0000
0000
,
0000
0000
0000
0000
,
0000
0000
0000
0000
,
1000
0000
1000
0000
0010
0100
0010
0000
,
1000
0100
0001
0100
,
1000
0000
1000
0000
0010
0100
0010
0000
,
0100
0001
0010
0100
,
0001
0000
0001
0000
0010
0100
0010
0000
,
0001
0100
1000
0100
,
0001
0000
0001
0000
0010
0100
0010
0100
,
0000
1000
0001
1000
0001
0000
0000
0000
,
2001
0000
0000
0000
,
0100
0100
0100
3100
,
0002
0000
0000
0000
,
0010
0010
0100
0103
,
2000
0000
0000
0000
,
0001
0001
0010
3010
,
0100
0100
0000
0000
0100
0100
0000
0200
,
0000
0000
0010
0310
,
1000
0010
1000
0001
,
0010
0100
0010
0001
,
0100
0010
1000
0001
,
0010
0000
0100
0000
0010
0100
0010
0000
,
0001
0010
0100
0010
,
1000
0100
0001
0010
,
0100
0001
1000
0010
,
0100
0000
0010
0100
0000
0001
1000
0001
,
2000
0000
3010
0000
,
0200
0000
0302
0000
,
0023
0000
0130
0000
,
0002
0000
0203
0000
,
0320
0000
1030
0000
,
2000
0000
3200
0000
,
0320
0000
0130
0000
,
2000
0000
3001
0000
,
0001
0001
0001
0000
1000
1000
1000
0000
,
0011
1010
0011
0000
,
1000
0100
0001
0010
,
2000
0010
0001
3100
,
0010
0011
0100
1100
,
0001
0100
0001
0000
1000
0010
1000
0000
,
0200
0000
0000
0300
,
0000
0001
0000
1000
0000
0000
0000
0000
,
0101
0001
0010
0100
,
1100
1000
0010
0001
,
1010
0010
0100
1000
,
0101
1010
1100
0000
,
0001
0000
0001
0000
0100
0010
0100
0000
,
0001
0000
0001
0000
0010
0100
0010
0000
,
0001
0100
1000
0010
,
0100
0000
0010
1000
0001
0000
0000
0000
,
1001
1000
0010
0001
,
0110
0010
1000
0100
,
1001
0010
0100
1000
,
1001
1100
0101
0000
,
1000
0000
0100
1000
0100
0000
1000
0000
,
0001
0000
0100
0001
0100
0000
0001
0000
,
0010
1000
0100
0001
,
0101
0000
1010
0000
,
2002
0000
0000
0000
,
3003
0000
0000
0000
,
0100
0000
0100
0000
0001
1000
0001
0000
,
0100
0010
0100
0010
,
0100
0000
0100
0000
1000
0001
1000
0000
,
0010
1000
0001
0100
,
0010
0000
0010
0000
1000
0001
1000
0000
,
0100
0001
0100
1000
,
0010
0000
0010
0000
0001
1000
0001
1000
,
0000
0010
0100
0010
0100
0000
0010
0000
,
1001
0000
0000
0000
,
0000
0000
0000
0000
;
#NOTES:
     dance-single:
     :
     Hard:
     12:
     :
0000
0000
0000
0000
,
0000
0000
0000
0000
,
0000
0000
0000
0000
,
0000
0000
0000
0000
,
0000
0000
0000
0000
,
0100
0000
0100
0000
0001
0100
1000
0000
,
0100
0001
0100
0001
1000
0100
0001
0000
,
0100
0000
0100
0000
0001
0100
1000
0000
,
0100
1000
0010
1000
0010
0100
0001
0000
,
0010
0000
0010
0000
0001
0010
1000
0000
,
0010
0001
0010
0001
1000
0010
0001
0000
,
0010
0000
0010
0000
1000
0001
0010
1000
,
0000
1000
0010
0001
1000
0000
0010
0000
,
0200
0000
0000
0000
,
1300
0000
0000
0000
1100
0000
0000
0010
0100
0000
0001
0000
0010
0000
0000
0000
,
0200
0000
0000
0000
,
0310
0000
0000
0000
0011
0000
0000
1000
0010
0000
1000
0000
0100
0000
0010
0000
,
0002
0000
0000
0000
,
0103
0000
0000
0000
0110
0000
0000
0001
0100
0000
0010
0000
1000
0000
0000
0000
,
1100
0100
0000
0000
0101
0100
0000
0010
,
0000
1000
0100
0010
0001
0000
1000
0000
,
0001
0100
0010
0100
0001
0000
0001
0100
,
0010
0000
0010
0100
0001
0100
1000
0000
,
1000
0100
0010
0100
0001
0000
0001
1000
,
0100
0000
0100
1000
0001
0100
1000
0000
,
0100
0001
1000
0001
0100
0000
0100
0001
,
1000
0000
1000
0010
1000
0010
0001
0000
,
0001
0010
0100
0010
1000
0001
0100
0010
,
0100
0000
0001
0100
0000
0100
0010
1000
,
0002
0000
0013
0000
,
0200
0000
2300
0000
,
3020
0000
0031
0000
,
0020
0000
2030
3200
,
0302
0000
0103
0000
,
2000
0000
3020
0000
,
0032
0000
1003
0000
,
0200
0000
0310
0000
,
1100
0100
0110
0000
0101
0100
0110
0000
,
0010
1000
0100
0010
0001
0000
1001
0000
,
1100
0101
0011
1010
,
1001
0010
0100
1000
0010
0100
0001
0000
,
0100
0001
0100
0001
1000
0010
1000
0010
,
1000
0100
0010
0001
0100
0010
1000
0001
,
0020
0000
0000
0030
,
0000
0110
0000
1001
0000
0000
0000
0000
,
1020
0000
0130
0001
0010
0100
1000
0001
,
0010
0001
0100
0010
1000
0000
1100
0000
,
0012
0000
0103
0001
1000
0100
0010
0000
,
0110
1001
0110
1001
,
0010
0000
0001
0010
1000
0000
0001
0000
,
0100
0000
1000
0010
0001
0000
0010
0000
,
0100
0010
0100
0000
0001
1000
0001
0000
,
1100
0000
0010
0001
0100
0000
0010
0000
,
1200
0000
0301
0100
0010
0100
1000
0100
,
0010
0001
1000
0010
0100
0000
0110
0000
,
0201
0000
1300
0100
0010
0100
0001
1000
,
0100
0010
0100
1000
0001
0000
1001
0000
,
0010
0000
0001
0100
1000
0000
0100
0100
,
0100
0000
0001
0010
0100
0100
0100
0000
,
0011
0001
1000
0000
1010
1000
0001
0000
,
0110
0010
0100
0000
1010
0000
0011
0000
,
2002
0000
0000
3003
,
0002
0023
0230
2300
,
3001
0000
0001
0000
1000
0100
0001
0000
,
0100
1000
0100
1000
0010
1000
0001
0100
,
1000
0000
1000
0000
0001
0010
1000
0000
,
0010
0100
0001
0010
0100
0010
1000
0010
,
0001
0000
0001
0000
1000
0100
0001
0000
,
0100
1000
0001
0100
0010
0100
0001
0010
,
1000
0000
1000
0000
0010
0001
0100
1000
,
0000
1000
0100
0001
0010
0000
0110
0000
,
1001
0000
0000
0000
,
0000
0000
0000
0000
;
#NOTES:
     dance-double:
     :
     Easy:
     7:
     :
00000000
00000000
00000000
00000000
,
00000000
00000000
00000000
00000000
,
00000000
00000000
00000000
00000000
,
00000000
00000000
00000000
00000000
,
00000000
00000000
00000000
00000000
,
00011000
00011000
00011000
00000000
,
00100000
00010000
01000000
00000000
,
10010000
10010000
10010000
00000000
,
01000000
00010000
00001000
00000000
,
00011000
00011000
00011000
00000000
,
00000100
00000010
00001000
00000000
,
00001001
00001001
00001001
00000000
,
00000100
00000010
00000110
00000000
,
00002000
00000000
00000000
00000000
,
00000000
00000000
00000000
00003000
,
00020000
00000000
00000000
00000000
,
00000000
00000000
00000000
00030000
,
00200000
00000000
00000000
00000000
,
00000000
00000000
00000000
00300000
,
01000000
00000000
00100000
00000000
,
10000000
00010000
10010000
00000000
,
10000000
10000000
00100000
00000000
,
00010000
00010000
00001000
00010000
,
00000010
00000010
00001000
00000000
,
00000001
00000010
00000100
00001000
,
00000001
00000001
00001000
00000000
,
00000001
00000001
00000100
00001000
,
00010000
00010000
00001000
00000000
,
00100000
00010000
01000000
00000000
,
10000000
00000000
00000000
00000000
,
00010000
00000000
00000000
00000000
,
00001000
00000000
00000000
00000000
,
00000100
00000000
00000010
00000000
,
00000001
00000000
00000000
00000000
,
00001000
00000000
00010000
00000000
,
00001000
00000000
00000000
00000000
,
00100000
00000000
01000000
00000000
,
10010000
00000000
01100000
00000000
,
00010000
00001000
00010000
00000000
,
00001000
00000100
00000001
00000010
,
00002000
00000000
00000000
00003000
,
00010000
00010000
00010000
00010000
,
01000000
01000000
01000000
01000000
,
00200000
00000000
00000000
00300000
,
00000000
00000000
00000000
00000000
,
10000000
01000000
10000000
01000000
,
00100000
00010000
01000000
10000000
,
01000000
00010000
01000000
00010000
,
00100000
00001000
00011000
00000000
,
00000100
00001000
00000100
00001000
,
00000001
00000100
00000001
00000100
,
00000010
00001000
00000001
00000100
,
00001000
00011000
00000000
00000000
,
00001000
01000000
00001000
01000000
,
00100000
10000000
01000000
00100000
,
00001000
00100000
00001000
00100000
,
00010000
00001000
00011000
00000000
,
00000100
00000001
00000100
00000001
,
00001000
00000010
00001000
00000010
,
00000100
00000001
00000010
00000100
,
00000100
00000000
00010000
00001000
,
00022000
00000000
00000000
00000000
,
00033000
00000000
00000000
00000000
,
00011000
00011000
00011000
00000000
,
00010000
01000000
10000000
00000000
,
10010000
10010000
10010000
00000000
,
10000000
00100000
00010000
00000000
,
00011000
00011000
00011000
00000000
,
00001000
00000100
00000001
00000000
,
00001001
00001001
00001001
00000010
,
00000100
00001000
00010000
00000000
,
00011000
00000000
00000000
00000000
,
00000000
00000000
00000000
00000000
;
#NOTES:
     dance-double:
     :
     Medium:
     9:
     :
00000000
00000000
00000000
00000000
,
00000000
00000000
00000000
00000000
,
00000000
00000000
00000000
00000000
,
00000000
00000000
00000000
00000000
,
00000000
00000000
00000000
00000000
,
00000100
00000000
00000100
00000000
00001000
00010000
00000000
00000000
,
00100000
00000000
00100000
00000000
01000000
10000000
01000000
00000000
,
00100000
00000000
00100000
00000000
00010000
00001000
00000000
00000000
,
00000100
00000000
00000100
00000000
00000001
00000010
00000001
00000000
,
00000010
00000000
00000010
00000000
00001000
00010000
00000000
00000000
,
01000000
00000000
01000000
00000000
10000000
00100000
10000000
00000000
,
00100000
00000000
00100000
00000000
00010000
00001000
00010000
00001000
,
00000000
00001000
00010000
00001000
00010000
00000000
00000000
00000000
,
00000200
00000000
00000000
00000000
,
00000010
00000010
00000010
00000310
,
00000002
00000000
00000000
00000000
,
00000100
00000100
00000100
00000103
,
00002000
00000000
00000000
00000000
,
00010000
00010000
00010000
00013000
,
00011000
00000000
00000000
00000000
01100000
00000000
00000000
00100000
,
00000000
00000000
00010000
10000000
,
01000000
00100000
01000000
00000000
00100000
00000000
00001000
00000000
,
00010000
00001000
00000100
00000001
,
00001000
00000100
00001000
00000000
00000001
00000000
00000010
00000000
,
00001000
00000000
00010000
00000000
00001000
00010000
00001000
00000000
,
01000000
00010000
01000000
00000000
00100000
00000000
10000000
00000000
,
00010000
00100000
01000000
00100000
,
00001000
00010000
00001000
00000000
00000010
00000000
00000100
00000010
,
00000100
00000000
00001000
00000001
00000000
00000100
00000010
00000000
,
00000200
00000000
00000301
00000000
,
00002000
00000000
00013000
00000000
,
00002000
00000000
00003010
00000000
,
00020000
00000000
01030000
01000000
,
00200000
00000000
00310000
00000000
,
20000000
00000000
30100000
00000000
,
00020000
00000000
00031000
00000000
,
00000020
00000000
00000130
00000000
,
00000001
00000001
00000001
00000000
00001000
00001000
00001000
00000000
,
00000010
00000100
00000010
00000000
00000110
00000000
00000000
00000000
,
00001000
00000100
00000001
00000010
,
00002000
00000010
00010000
00013000
,
01000000
00010000
01000000
00000000
01000000
10000000
01000000
00000000
,
00100000
00010000
00100000
00000000
01000000
10000000
01000000
00000000
,
02200000
00000000
00000000
03300000
,
00000000
00000000
00000000
00000000
,
10010000
01000000
00010000
00001000
,
00010000
00000000
00100000
01000000
00100000
00000000
01000000
00000000
,
01100000
00010000
00001000
00010000
,
00010100
00001100
00001010
00000000
,
00000001
00000000
00000001
00001000
00000001
00000000
00000100
00000000
,
00000010
00000000
00000010
00010000
00000010
00000000
00000100
00000000
,
00000001
00000010
00001000
00010000
,
00011000
00000000
00001000
00010000
01000000
00000000
00000000
00000000
,
10010000
10000000
00010000
00010000
,
10000000
00000000
00100000
01000000
00010000
00000000
00100000
00000000
,
01000000
01000000
00010000
00010000
,
00100000
00011000
01000000
00001000
,
00010000
00000000
00010000
00000100
00001000
00000000
00000010
00000000
,
00000100
00000000
00000100
00000001
00001000
00000001
00001000
00000000
,
00000010
00001000
00010000
00100000
,
01100000
00000000
00011000
00000000
,
00000220
00000000
00000000
00000000
,
00000330
00000000
00000000
00000000
,
00000001
00000000
00000001
00000000
00000100
00001000
00000000
00000000
,
00010000
00000000
00010000
00000000
00100000
10000000
00100000
00000000
,
10000000
00000000
10000000
00000000
01000000
00010000
00000000
00000000
,
00001000
00000000
00001000
00000000
00000100
00000001
00000100
00000000
,
00000010
00000000
00000010
00000000
00001000
00010000
00000000
00000000
,
00100000
00000000
00100000
00000000
10000000
01000000
10000000
00000000
,
01000000
00000000
01000000
00000000
00100000
00010000
00100000
00001000
,
00000000
00010000
00001000
00010000
00000100
00000000
00001000
00000000
,
00001001
00000000
00000000
00000000
,
00000000
00000000
00000000
00000000
;
#NOTES:
     dance-double:
     :
     Hard:
     13:
     :
00000000
00000000
00000000
00000000
,
00000000
00000000
00000000
00000000
,
00000000
00000000
00000000
00000000
,
00000000
00000000
00000000
00000000
,
00000000
00000000
00000000
00000000
,
01000000
00000000
01000000
00000000
00001000
00010000
00100000
00000000
,
10000000
00100000
10000000
00100000
10000000
01000000
00010000
00000000
,
00001000
00000000
00001000
00000000
00010000
00001000
00000010
00000000
,
00000001
00000010
00000001
00000010
00000001
00000100
00001000
00000000
,
00000100
00000000
00000100
00000000
00010000
00001000
00000100
00000000
,
00000001
00000100
00000001
00000100
00000001
00000010
00001000
00000000
,
00010000
00000000
00010000
00000000
00001000
00010000
01000000
10000000
,
00000000
10000000
00100000
00010000
00001000
00000000
00010000
00000000
,
00002000
00000000
00000000
00000000
,
00013000
00000000
00000000
00000000
00000100
00000000
00001000
00000001
00001000
00000000
00000010
00000000
00000100
00000000
00000000
00000000
,
00000002
00000000
00000000
00000000
,
00001003
00000000
00000000
00000000
00000100
00000000
00000010
00000000
00000100
00000000
00001000
00000100
00001000
00000000
00000010
00000000
,
00020000
00000000
00000000
00000000
,
00031000
00000000
00000000
00000000
01000000
00000000
00010000
10000000
00010000
00000000
00100000
00000000
01000000
00000000
00000000
00000000
,
10000000
10000000
00000000
00000000
00010000
00010000
00000000
10020000
,
00000000
00000000
00031000
00001001
,
00000001
00001000
00000001
00000010
00000001
00001000
00000001
00000010
,
00000100
00001000
00000010
00010000
00001000
00010000
00000010
00000000
,
00000010
00010000
00001000
01000000
00010000
00100000
01000000
00100000
,
00010000
00100000
01000000
00100000
00010000
10000000
00100000
00000000
,
10000000
00100000
10000000
00010000
10000000
00100000
10000000
00010000
,
01000000
00001000
00010000
00100000
10000000
00010000
00100000
00000000
,
00100000
00010000
00100000
00010000
01000000
00001000
00010000
00000010
,
00001000
00000000
00001010
00001000
00000000
00000001
00000100
00000010
,
00002000
00000000
00010000
00000000
,
00003020
00000000
00000230
00000000
,
00000302
00000000
00001000
00000000
,
00000023
00000000
00001030
00010000
,
00021000
00000000
00100000
00000000
,
00030200
00000000
00002300
00000000
,
00023000
00000000
00001000
00000000
,
01030000
00010000
00001000
00000000
,
00011000
00010000
00100000
00000000
00011000
00001000
00000010
00000000
,
00001000
00010000
00100000
00000000
01000000
00000000
00100000
00000000
,
01010000
10100000
01010000
00101000
,
00010200
00001000
00000010
00000301
,
00001000
00000010
00000001
00000010
00000001
00000100
00000010
00010000
,
00001000
00010000
00100000
10000000
00100000
10000000
01000000
00000000
,
20020000
00000000
00000000
30030000
,
00000000
01100000
00000000
00011000
00000000
00000000
00000000
00000000
,
00001100
00000000
00000100
00000010
00001000
00000010
00000001
00000100
,
00001000
01002000
00103000
00010000
,
11000000
10100000
01010000
01100000
,
01001000
00011000
00010100
00000010
,
00000001
00000000
00000100
00000010
00000000
00001000
00010000
00000000
,
00011000
00000000
00000010
00001000
00000000
00010000
01000000
00000000
,
01100000
10010000
01100000
10010000
,
00100000
00010000
00001000
01000000
00000000
00000000
00100000
00000000
,
00110000
00000000
00100000
01000000
00010000
01000000
10000000
00100000
,
00010000
00000000
00010000
00001000
00000100
00000000
00000001
00000000
,
00000011
00000000
00001000
00000001
00000100
00000001
00001000
00000010
,
00010000
00000000
00001000
00010000
01000000
00000000
00100000
00000000
,
01100000
00000000
00010000
10000000
00000000
00100000
01000000
00100000
,
01000000
00000000
00010000
00001000
00000010
00000100
00000010
00000000
,
00001100
00000011
00000101
00001010
,
00010100
00000000
00010000
00000000
00011000
00000000
00000000
00000000
00100000
00000000
00010000
01000000
00010000
00000000
00000000
00000000
,
22000000
00000000
00000000
33000000
,
10100000
11000000
01010000
00011000
,
00000010
00000000
00000010
00000000
00010000
00001000
00000010
00000000
,
00000001
00000010
00000001
00000100
00001000
00010000
00001000
00000000
,
00010000
00000000
00010000
00000000
00001000
00010000
00100000
00000000
,
10000000
00100000
10000000
01000000
00010000
01000000
00100000
00000000
,
01000000
00000000
00100000
00000000
00001000
00010000
01000000
00000000
,
10000000
01000000
10000000
00100000
00010000
00001000
00010000
00000000
,
00001000
00000000
00001000
00000000
00010000
00001000
00000100
00000001
,
00000000
00000100
00001000
00010000
01000000
00000000
10000000
00000000
,
10010000
00000000
00000000
00000000
,
00000000
00000000
00000000
00000000
;
