
//----- song id: onna
#TITLE:女言葉の消失;
#ARTIST:Sota Fujimori;
#TITLETRANSLIT:Onna kotoba no shoushitsu;
#BANNER:Onna kotoba no shoushitsu.png;
#BACKGROUND:Onna kotoba no shoushitsu-bg.png;
#CDTITLE:./CDTitles/DDR (2014).png;
#MUSIC:Onna kotoba no shoushitsu.ogg;
#SAMPLESTART:58.26;
#SAMPLELENGTH:15;
#BPMS:0=136;
#NOTES:
     dance-single:
     :
     Beginner:
     3:
     :
0000
0000
0000
0000
,
0000
0000
0000
0000
,
0000
0000
0000
0000
,
1000
1000
0001
0000
,
0001
0001
1000
0000
,
0001
0000
1000
0000
,
1001
0000
0000
0000
,
0001
0001
1000
0000
,
1000
1000
0001
0000
,
1000
0000
0001
0000
,
1001
0000
1001
0000
,
0000
0000
0000
0000
,
0010
0010
0010
0000
,
0001
0000
1000
0000
,
0100
0000
0100
0000
,
1000
0000
0001
0000
,
1001
0000
0000
0000
,
1000
0000
0001
0000
,
0100
0000
0100
0000
,
0001
0000
1000
0000
,
1001
0000
0000
0000
,
2000
0000
3000
0000
,
0002
0000
0003
0000
,
0100
0000
0100
0000
,
0010
0000
0000
0000
,
0002
0000
0003
0000
,
2000
0000
3000
0000
,
0100
0000
0100
0000
,
0010
0000
0000
0000
,
0000
0000
0000
0000
,
0000
0000
0000
0000
,
0000
0000
0000
0000
,
0000
0000
0000
0000
,
0001
0001
0100
0000
,
0100
0000
0100
0000
,
1000
1000
0010
0000
,
0010
0000
0010
0000
,
1000
1000
0100
0000
,
0100
0000
0100
0000
,
0001
0001
0010
0000
,
0010
0000
0010
0000
,
0100
0100
1000
0000
,
1000
0000
1000
0000
,
0010
0010
0001
0000
,
0001
0000
0001
0000
,
0100
0100
0001
0000
,
0001
0000
0001
0000
,
0010
0010
1000
0000
,
1000
0000
1000
0000
,
0002
0000
0000
0000
,
0103
0000
0100
0000
,
2000
0000
0000
0000
,
3001
0000
0000
0000
,
2000
0000
0000
0000
,
3010
0000
0010
0000
,
0002
0000
0000
0000
,
1003
0000
0000
0000
,
0000
0000
0000
0000
,
0100
0100
0100
0000
,
1001
0000
0000
0110
,
0000
0000
0000
1001
,
0000
0100
0000
0100
,
0000
0010
0010
0000
,
1001
0000
0000
0110
,
0000
0000
0000
1001
,
0000
0010
0000
0010
,
0000
0100
0100
0000
,
0000
0000
0000
0000
,
0010
0010
0010
0010
,
0000
0000
0000
0000
;
#NOTES:
     dance-single:
     :
     Easy:
     6:
     :
0000
0000
0000
0000
,
0000
0000
0000
0000
,
0000
0000
0000
0000
,
1010
0100
0001
0000
,
0010
0001
1000
1000
,
0001
1000
0001
0000
,
0110
0000
1001
0000
,
0101
0010
1000
0000
,
0010
0100
0001
0001
,
1000
0001
1000
0000
,
0110
0000
1001
0000
,
0000
0000
0000
0000
,
1000
0001
1000
1001
,
0010
0000
1000
0000
0100
0010
0001
0000
,
2000
3001
0002
1003
,
0000
0100
0010
0001
,
0110
0000
1001
0000
,
0001
0000
0100
0000
0010
1000
0100
0000
,
2000
3001
0002
1003
,
0000
0100
0010
0001
,
0110
0000
1001
0000
,
1000
0001
0100
0010
,
1000
0100
1100
0000
,
0001
1000
0001
1000
,
0010
0100
0110
0000
,
0001
0100
0010
1000
,
0100
0010
0110
0000
,
1000
0001
1000
0001
,
0100
0010
0110
0000
,
0000
0000
0000
0000
,
0000
0000
0000
0000
,
0001
0001
0000
0000
0000
0000
0000
0000
,
1000
0001
1000
0000
,
1000
0100
0001
0010
,
1000
0001
1000
0001
,
0001
0100
1000
0010
,
0001
1000
0100
0000
,
2000
3100
0001
0010
,
1000
0010
0100
0001
,
0001
0100
1000
0010
,
0001
0100
0010
0000
,
0001
0100
1000
0010
,
0001
1000
0001
1000
,
1000
0100
0001
0010
,
1000
0001
0100
0000
,
0002
0103
1000
0010
,
0001
0010
0100
1000
,
1000
0100
0001
0010
,
1000
0100
0010
0000
,
0002
0000
0203
0000
,
0320
0000
0130
0000
,
2000
0000
3002
0000
,
2003
0000
3001
0000
,
0020
0000
0230
0000
,
2300
0000
3001
0000
,
2000
0000
3002
0000
,
2003
0000
3001
0000
,
0000
0000
0000
0000
,
1000
0001
1000
0000
,
1100
0001
0010
0110
,
1000
0001
0100
1100
,
0001
1000
0001
1000
,
0020
0100
0130
0000
,
1001
0010
0100
1100
,
0001
1000
0001
1001
,
0010
0001
1000
0100
,
0020
0001
0000
0031
,
0000
0000
0000
0000
,
1000
0001
1000
1001
,
0000
0000
0000
0000
;
#NOTES:
     dance-single:
     :
     Medium:
     9:
     :
0000
0000
0000
0000
,
0000
0000
0000
0000
,
0000
0000
0000
0000
,
0001
0010
0100
1000
0020
0000
0130
0000
,
0001
0100
1000
0100
0001
0010
0100
0000
,
1000
0001
0010
0000
0100
1000
0001
0000
,
0100
0010
0100
0010
2000
0000
3001
0000
,
0010
0100
1000
0100
0020
0000
0031
0000
,
1000
0100
0001
0000
1000
0010
0001
0000
,
1000
0010
0100
0001
0010
0100
1000
0000
,
0001
0100
0010
1000
0100
0010
0001
0000
,
0000
0000
0000
0000
,
1000
0001
1000
1001
,
0010
1000
0001
0000
0010
0100
1000
0000
,
0200
0320
0032
1003
,
0010
0100
0001
0000
1000
0100
0010
0000
,
0002
0000
0000
0000
0010
0000
0000
0013
0000
0000
0000
0000
0000
0000
0000
0000
,
0010
0100
1000
0000
0001
0100
0010
0000
,
0200
0302
2003
3010
,
0100
0001
0100
0000
0010
1000
0010
0000
,
2000
0000
0000
0000
0100
0000
0000
3100
0000
0000
0000
0000
0000
0000
0000
0000
,
0000
1000
0100
1000
0100
0010
0001
0000
,
2000
3200
0302
0103
,
0000
0100
0010
0100
1000
0001
1000
0000
,
0002
0203
2300
3100
,
0000
0100
0001
1000
0100
0010
0001
0000
,
2000
3020
0032
0013
,
0000
0010
0100
0001
1000
0100
0010
0000
,
0001
0000
0000
1000
0000
0000
0010
0000
0000
0100
0000
0010
0000
0000
0000
0000
,
0000
0000
0000
0000
,
0000
0000
0000
0000
,
1000
0001
0000
0000
0000
0000
0000
0000
,
0000
0000
0000
1001
,
0010
1000
0001
0000
0010
0100
1000
0000
,
0001
0100
0010
0000
1000
0100
0010
0000
,
0001
0100
0010
0000
1000
0001
0010
0000
,
0011
0110
1100
1001
,
0200
0000
0310
0000
1000
0100
0010
0000
,
0001
1000
0001
0000
1000
0001
1000
0000
,
0001
0010
1000
0000
0001
0100
1000
0000
,
0002
2003
3200
0310
,
0010
0001
1000
0000
0010
0100
0001
0000
,
1000
0100
0010
0000
0001
0100
0010
0000
,
1000
0100
0010
0000
0001
1000
0010
0000
,
1010
0110
0101
1001
,
0200
0000
0310
0000
0001
0100
0010
0000
,
1000
0001
1000
0000
0001
1000
0001
0000
,
1000
0010
0001
0000
1000
0100
0001
0000
,
2000
3002
0203
0310
,
2000
0000
0000
3001
0010
0100
1000
0100
,
0010
0000
0001
1000
0001
0000
1001
0000
,
0002
0000
0000
0103
0010
1000
0001
0010
,
0200
0000
0000
0000
0300
1000
0001
1000
,
0020
0000
0000
0130
0001
1000
0001
0010
,
0200
0000
1300
0001
0100
0000
0110
0000
,
0002
0000
0000
0013
0100
1000
0010
0100
,
0002
0000
0000
0003
,
0000
0000
0000
0000
,
1000
0001
1000
1001
,
0110
0000
1001
0000
0010
0100
0010
0000
,
1000
0100
0001
0000
1000
0010
0001
0000
,
1001
0000
0110
0000
0010
0100
0010
0000
,
1000
0100
0010
0001
0010
0100
1000
0000
,
0110
0000
1001
0000
0010
0100
0010
0000
,
1000
0010
0001
0000
1000
0100
0001
0000
,
1001
0000
0110
0000
0001
0100
0001
0000
,
0010
0100
1000
0100
0010
0001
0010
0000
,
0000
0000
0000
0000
,
1000
0001
1000
1001
,
0000
0000
0000
0000
;
#NOTES:
     dance-single:
     :
     Hard:
     13:
     :
0000
0000
0000
0000
,
0000
0000
0000
0000
,
0000
0000
0000
0000
,
1000
0000
0001
0000
0010
0000
0100
0000
1000
0000
0010
0100
0010
0000
0000
0000
,
1000
0000
0100
0000
0001
0000
0100
0000
0010
0001
0000
0001
0010
0000
0100
0000
,
0110
1000
0001
0000
0101
0010
1000
0000
,
0001
0010
0100
1000
0010
0100
0110
0000
,
0001
0000
1000
0000
0001
0100
0010
1000
0001
0000
0100
0000
0101
0000
0000
0000
,
1000
0100
1100
0000
0010
0001
0011
0000
,
0100
0000
0001
0000
0010
0100
1000
0000
0001
0100
0010
0000
1000
0000
0010
0000
,
0100
0001
0010
0100
1000
0100
0010
0000
,
0000
0000
0000
0000
,
0001
0010
0100
1001
,
0001
0100
0010
1000
0002
0000
0013
0100
,
0000
1000
0001
0100
0010
1000
0100
0010
,
0000
0000
0001
0000
0100
0000
0010
0000
1000
0000
0001
0100
0010
0000
0000
0000
,
0101
0000
0000
0000
1010
0000
0000
1001
0000
0000
0000
0000
0000
0000
0000
0000
,
0011
0001
1000
0010
0200
0000
0301
1000
,
0000
0100
0010
0001
1000
0010
0100
0001
,
0000
0000
0010
0000
0100
0000
0010
0000
0001
0000
0010
0100
1000
0000
0000
0000
,
1100
0000
0000
0000
0011
0000
0000
1001
0000
0000
0000
0000
0000
0000
0000
0000
,
0000
0011
0010
0100
1000
0010
0001
0010
,
2000
0000
0000
3020
0000
0000
0230
0000
0000
0000
0301
0000
0010
0000
0000
0000
,
0000
1001
0001
0100
0001
0010
0100
1000
,
0020
0000
0000
0230
0000
0000
0302
0000
0000
0000
0013
0000
0100
0000
0000
0000
,
0000
1100
1000
0100
0010
0001
0010
0100
,
1000
0000
1000
0010
0000
0010
0100
0000
0100
0001
0000
0001
1000
0000
0000
0000
,
0000
0101
0001
0100
0001
0010
0100
1000
,
0011
0000
0000
1100
0000
0000
1010
0000
0000
0110
0000
0101
0000
0000
0000
0000
,
0000
0000
0000
0000
,
0000
0000
0000
0000
,
1001
1001
0000
0000
0000
0000
0000
0000
,
0010
0100
0010
1001
,
0001
0000
0100
0000
0010
0000
1000
0000
0001
0000
0010
0000
0100
0000
1000
0010
,
0100
0001
1000
0100
0010
0001
0100
0010
,
1000
0000
0100
0000
0001
0000
0100
0000
1000
0000
0010
0000
0001
0000
0010
0100
,
0001
0000
1000
0000
0100
0000
0010
0000
0011
0000
0000
0110
0000
0000
1100
0000
,
0001
0000
0010
0001
0100
0010
1000
0100
,
0010
0000
0001
0000
0100
0000
0010
0000
1000
0000
0100
0000
0001
0000
0100
0010
,
0001
0000
0010
0000
0100
0000
1000
0000
0010
0000
0000
0110
0000
0000
0001
0000
,
0010
0000
0100
0000
1000
0000
0010
0000
0100
0000
0001
0100
0000
0000
0000
0000
,
1000
0000
0100
0000
0010
0000
0001
0000
1000
0000
0010
0000
0100
0000
0001
0010
,
0100
1000
0001
0100
0010
1000
0100
0010
,
0001
0000
0100
0000
1000
0000
0100
0000
0001
0000
0010
0000
1000
0000
0010
0100
,
1000
0000
0001
0000
0100
0000
0010
0000
1010
0000
0000
0110
0000
0000
0101
0000
,
1000
0000
0010
1000
0100
0010
0001
0100
,
0010
0000
1000
0000
0100
0000
0010
0000
0001
0000
0100
0000
1000
0000
0100
0010
,
1000
0000
0010
0000
0100
0000
0001
0000
0010
0000
0000
0110
0000
0000
1000
0000
,
0010
0000
0100
0000
0001
0000
0010
0000
0100
0000
1000
0100
0000
0000
0000
0000
,
2000
0000
0000
0000
0000
0000
3100
0000
0010
0000
0001
0010
0100
0000
0010
0100
,
1000
0000
0001
0100
0010
0000
1000
0100
,
0020
0000
0000
0000
0000
0000
0031
0000
1000
0000
0010
0100
0001
0000
0010
0100
,
2000
0000
0000
0000
0000
3100
0010
0100
,
0020
0000
0000
0000
0000
0000
0031
0000
0010
0000
0001
0010
0100
0000
0010
0100
,
1000
0000
0001
0100
0010
0000
1000
0001
,
0020
0000
0000
0000
0000
0000
0031
0000
1000
0000
0001
1000
0010
0000
0100
0001
,
2000
0000
0000
3000
,
0000
0000
0000
0000
,
1001
0110
1001
0000
,
1001
0000
0001
0000
0010
0000
0100
0000
1000
0000
0010
0100
0010
0000
0000
0000
,
1000
0000
0100
0000
0001
0000
1000
0000
0010
0000
0001
0010
0001
0000
0000
0000
,
0010
0100
1000
0001
0100
0010
1000
0001
,
0010
0000
0100
0000
1000
0000
0001
0000
0011
0000
0000
0110
0000
0000
1100
0000
,
1001
0000
0000
0000
1000
0000
0001
0000
0100
0000
0010
0001
0010
0000
0000
0000
,
0001
0000
0010
0000
1000
0000
0100
0000
0010
0000
0001
0100
0001
0000
0000
0000
,
1000
0000
0100
0000
0010
0001
1000
0100
0010
0000
0001
0000
1000
0000
0010
0000
,
0100
0000
0001
0000
0010
0000
0100
0000
1000
0000
0100
0010
0001
0000
0000
0000
,
0000
0000
0000
0000
,
0001
0010
0100
1001
,
0000
0000
0000
0000
;
#NOTES:
     dance-double:
     :
     Easy:
     6:
     :
00000000
00000000
00000000
00000000
,
00000000
00000000
00000000
00000000
,
00000000
00000000
00000000
00000000
,
10100000
00010000
00100000
00000000
,
10000000
01000000
00010000
00010000
,
00001000
00010000
00001000
00000000
,
00000110
00000000
00001001
00000000
,
00000101
00000010
00001000
00000000
,
00000001
00000100
00001000
00001000
,
00010000
00001000
00010000
00000000
,
01100000
00000000
10010000
00000000
,
00000000
00000000
00000000
00000000
,
00001000
00010000
00001000
00011000
,
00100000
00000000
10000000
00000000
01000000
00100000
00010000
00000000
,
00002000
00013000
00020000
00031000
,
00000000
00000100
00000001
00001000
,
00000110
00000000
00001001
00000000
,
00000001
00000000
00000100
00000000
00000010
00001000
00000100
00000000
,
00020000
00031000
00002000
00013000
,
00000000
01000000
00010000
10000000
,
01100000
00000000
10010000
00000000
,
10000000
00010000
01000000
00100000
,
10000000
01000000
11000000
00000000
,
00010000
00001000
00010000
00001000
,
00000010
00000100
00000110
00000000
,
00000001
00000100
00000010
00001000
,
00000100
00010000
00010100
00000000
,
00001000
00010000
00001000
00010000
,
00100000
01000000
01100000
00000000
,
00000000
00000000
00000000
00000000
,
00000000
00000000
00000000
00000000
,
00010000
00010000
00000000
00000000
00000000
00000000
00000000
00000000
,
00001000
00010000
00001000
00000000
,
00000100
00000001
00001000
00000010
,
00010000
00001000
00010000
00001000
,
00010000
00100000
10000000
00000000
,
10000000
00010000
00100000
00000000
,
02000000
03100000
00010000
10000000
,
01000000
00010000
00001000
00010000
,
00001000
00000010
00000001
00000000
,
00000100
00001000
00011000
00000000
,
01000000
10000000
00010000
00100000
,
00001000
00010000
00001000
00010000
,
00001000
00000010
00000001
00000000
,
00000001
00000100
00000010
00000000
,
00000200
00000310
00001000
00000001
,
00000100
00001000
00010000
00001000
,
00010000
00100000
10000000
00000000
,
01000000
00010000
00011000
00000000
,
00002000
00000000
00003020
00000000
,
00000032
00000000
00000103
00000000
,
00002000
00000000
00023000
00000000
,
00032000
00000000
00013000
00000000
,
00200000
00000000
02300000
00000000
,
03020000
00000000
10030000
00000000
,
02000000
00000000
03020000
00000000
,
00032000
00000000
00013000
00000000
,
00000000
00000000
00000000
00000000
,
00001000
00010000
00001000
00000000
,
00001100
00000001
00000010
00000100
,
00001000
00000001
00000100
00001100
,
00010000
00001000
00010000
00001000
,
00200000
01000000
01300000
00000000
,
10010000
00100000
01000000
00010000
,
00001000
00010000
00001000
00011000
,
00000010
00000001
00001000
00000100
,
00000020
00000001
00000000
00000031
,
00000000
00000000
00000000
00000000
,
00001000
00010000
00001000
00011000
,
00000000
00000000
00000000
00000000
;
#NOTES:
     dance-double:
     :
     Medium:
     9:
     :
00000000
00000000
00000000
00000000
,
00000000
00000000
00000000
00000000
,
00000000
00000000
00000000
00000000
,
00010000
00100000
01000000
00000000
00200000
00000000
00310000
00000000
,
10000000
01000000
00010000
00001000
00010000
00001000
00000010
00000000
,
00000001
00000100
00000010
00000000
00001000
00000001
00000100
00000000
,
00000010
00000100
00000010
00000100
00002000
00000000
00013000
00000000
,
00100000
10000000
01000000
00000000
00200000
00000000
00310000
00000000
,
10000000
01000000
00010000
00001000
00010000
00001000
00000010
00000000
,
00000001
00000010
00000100
00000000
00000010
00000100
00001000
00000000
,
00000001
00000100
00000010
00001000
00000100
00000010
00000001
00000000
,
00000000
00000000
00000000
00000000
,
00001000
00010000
00001000
00011000
,
00100000
10000000
00010000
00000000
00100000
01000000
10000000
00000000
,
20000000
32000000
03020000
00031000
,
00000010
00000001
00001000
00000000
00000010
00000100
00000001
00000000
,
00000020
00000000
00000000
00000000
00000100
00000000
00000000
00000130
00000000
00000000
00000000
00000000
00000000
00000000
00000000
00000000
,
00000010
00000100
00001000
00000000
00000001
00000100
00000010
00000000
,
00000200
00002300
00023000
00130000
,
10000000
00100000
10000000
00000000
00010000
01000000
00010000
00000000
,
00200000
00000000
00000000
00000000
01000000
00000000
00000000
01300000
00000000
00000000
00000000
00000000
00000000
00000000
00000000
00000000
,
00000000
10000000
01000000
10000000
01000000
00100000
00010000
00000000
,
20000000
30200000
00320000
00031000
,
00000000
00000010
00000001
00000010
00000100
00001000
00000100
00000000
,
00000020
00002030
00023000
01030000
,
00000000
10000000
00100000
01000000
00010000
00100000
01000000
00000000
,
00020000
00032000
00003020
00000031
,
00000000
00000010
00000100
00001000
00000001
00000010
00000100
00000000
,
00001000
00000000
00000000
00000001
00000000
00000000
00000100
00000000
00000000
00000010
00000000
00000100
00000000
00000000
00000000
00000000
,
00000000
00000000
00000000
00000000
,
00000000
00000000
00000000
00000000
,
00001000
00010000
00000000
00000000
00000000
00000000
00000000
00000000
,
00000000
00000000
00000000
00011000
,
00100000
10000000
00010000
00000000
00100000
01000000
10000000
00000000
,
01000000
00010000
00001000
00000000
00010000
00001000
00000010
00000000
,
00000001
00000100
00000010
00000000
00001000
00000100
00000010
00000000
,
00000011
00000110
00001100
00011000
,
02000000
00000000
03100000
00000000
10000000
01000000
00100000
00000000
,
00001000
00010000
00001000
00000000
00010000
00001000
00010000
00000000
,
00001000
00000010
00000001
00000000
00001000
00000100
00000001
00000000
,
00000200
00002300
00003002
00000013
,
00000010
00000001
00001000
00000000
00000010
00000100
00000001
00000000
,
00000100
00001000
00010000
00000000
00001000
00010000
00100000
00000000
,
10000000
01000000
00100000
00000000
00010000
01000000
00100000
00000000
,
10100000
01100000
01010000
00011000
,
00001000
00000100
00001000
00000000
00000001
00000100
00000010
00000000
,
00010000
00001000
00010000
00000000
00001000
00010000
00001000
00000000
,
00010000
00100000
10000000
00000000
00010000
01000000
10000000
00000000
,
02000000
03020000
20030000
30100000
,
02000000
00000000
00000000
03010000
00100000
01000000
10000000
01000000
,
00100000
00000000
00001000
00010000
00001000
00000000
00000010
00000000
,
00000002
00000000
00000000
00000013
00000100
00001000
00000001
00000010
,
00000200
00000000
00000000
00000000
00000000
00001300
00000001
00000000
,
00000200
00000000
00000000
00001300
00010000
00001000
00010000
00100000
,
02000000
00000000
03010000
10000000
01000000
00000000
00100000
00000000
,
00020000
00000000
00000000
00130000
01000000
10000000
01000000
00100000
,
00020000
00000000
00000000
00030000
,
00000000
00000000
00000000
00000000
,
00001000
00010000
00001000
00011000
,
00000110
00000000
00001001
00000000
00000010
00000100
00000010
00000000
,
00000001
00000010
00001000
00000000
00000001
00000100
00001000
00000000
,
00011000
00000000
01010000
00000000
00100000
01000000
00100000
00000000
,
10000000
01000000
00100000
00010000
00100000
01000000
10000000
00000000
,
01100000
00000000
10010000
00000000
00100000
01000000
00100000
00000000
,
10000000
00100000
00010000
00000000
10000000
01000000
00010000
00000000
,
00011000
00000000
00001010
00000000
00000001
00000100
00000001
00000000
,
00000010
00000100
00001000
00000100
00000010
00000001
00000010
00000000
,
00000000
00000000
00000000
00000000
,
00001000
00010000
00001000
00011000
,
00000000
00000000
00000000
00000000
;
#NOTES:
     dance-double:
     :
     Hard:
     12:
     :
00000000
00000000
00000000
00000000
,
00000000
00000000
00000000
00000000
,
00000000
00000000
00000000
00000000
,
10000000
00000000
00010000
00000000
00100000
00000000
01000000
00000000
10000000
00000000
00100000
01000000
00100000
00000000
00000000
00000000
,
10000000
00000000
01000000
00000000
00010000
00000000
00001000
00000000
00000010
00000100
00000000
00000100
00000010
00000000
00000001
00000000
,
00000011
00000100
00001000
00000000
00000101
00000010
00001000
00000000
,
00000001
00000010
00001000
00010000
00000100
00010000
00100000
01000000
,
00010000
00000000
10000000
00000000
00010000
00000000
00100000
01000000
00100000
00000000
00010000
00000000
01010000
00000000
00000000
00000000
,
10000000
01000000
11000000
00000000
00010000
00001000
00011000
00000000
,
00000010
00000001
00000010
00000100
00001000
00000100
00000001
00000100
,
00001000
00010000
01000000
10000000
01000000
00010000
00100000
00000000
,
00002000
00000000
00000000
00000000
,
00100000
00000010
01000000
00003100
,
00000001
00000100
00000010
00001000
00000002
00000000
00000013
00000100
,
00010000
00001000
00010000
00100000
01000000
00100000
10000000
00010000
,
00000000
00000000
00100000
00000000
01000000
00000000
00100000
00000000
00010000
00000000
10000000
00100000
01000000
00000000
00000000
00000000
,
01010000
00000000
00000000
00000000
00001000
00000000
00000000
00011000
00000000
00000000
00000000
00000000
00000000
00000000
00000000
00000000
,
00000011
00000001
00001000
00000010
00000200
00000000
00001300
00010000
,
00100000
10000000
01000000
00100000
00010000
01000000
00100000
10000000
,
00000000
00000000
00100000
00000000
01000000
00000000
00100000
00000000
10000000
00000000
00010000
00100000
01000000
00000000
00000000
00000000
,
01010000
00000000
00000000
00000000
00001000
00000000
00000000
00011000
00000000
00000000
00000000
00000000
00000000
00000000
00000000
00000000
,
00000000
00000011
00000010
00000100
00001000
00000010
00000001
00000010
,
00002000
00000000
00000000
00000100
00000000
00000000
00000001
00000000
00000000
00000000
00003010
00000000
00000100
00000000
00000000
00000000
,
00000000
00011000
00001000
00010000
00100000
10000000
01000000
00100000
,
00020000
00000000
00000000
01000000
00000000
00000000
10000000
00000000
00000000
00000000
00130000
00000000
01000000
00000000
00000000
00000000
,
00000000
11000000
10000000
01000000
00100000
00010000
00100000
00010000
,
00001000
00000000
00001000
00000100
00000000
00000100
00000010
00000000
00000010
00000001
00000000
00000001
00001000
00000000
00000000
00000000
,
00000000
00000101
00000001
00000100
00000001
00000010
00001000
00010000
,
00210000
00000000
00000000
10300000
00000000
00000000
00210000
00000000
00000000
01300000
00000000
11000000
00000000
00000000
00000000
00000000
,
00000000
00000000
00000000
00000000
,
00000000
00000000
00000000
00000000
,
00011000
00011000
00000000
00000000
00000000
00000000
00000000
00000000
,
00000010
00000100
00000010
00001001
,
00000001
00000100
00000010
00001000
00000001
00000010
00001000
00010000
,
01000000
10000000
00100000
01000000
00001000
00010000
01000000
00100000
,
00010000
10000000
00100000
00010000
00001000
01000000
00010000
00100000
,
00001000
00000010
00000100
00010000
00001000
00000100
00000001
00000011
,
00001000
00000000
00000010
00000100
00000001
00000010
00001000
00010000
,
00000100
00000001
00000100
00001000
00000001
00000100
00001000
00000100
,
00000001
00000010
00001000
00010000
00000010
00000100
00001000
00010000
,
00100000
01000000
00010000
10000000
01000000
00010000
01000000
00000000
,
10000000
01000000
00100000
00010000
10000000
00100000
00010000
00001000
,
00000100
00000001
00000010
00000100
00010000
00001000
00000100
00000010
,
00001000
00000001
00000010
00001000
00010000
00000100
00001000
00000010
,
00010000
00100000
01000000
00001000
00010000
01000000
10000000
10100000
,
00010000
00000000
00100000
01000000
10000000
00100000
00010000
00001000
,
01000000
10000000
01000000
00010000
10000000
01000000
00010000
01000000
,
10000000
00100000
00010000
00001000
00100000
01000000
00010000
00001000
,
00000010
00000000
00000100
00000000
00001000
00000000
00000001
00000000
00000100
00000000
00001000
00000000
00000100
00000000
00000010
00001000
,
00000200
00000000
00000000
00000310
00000001
00000010
00001000
00000010
,
00000100
00000000
00000000
00000000
00000010
00000000
00001000
00000000
00010000
00000000
00000000
00000000
00001000
00010000
00001000
00000000
,
02000000
00000000
00000000
03100000
10000000
00100000
00010000
00100000
,
20000000
00000000
00000000
00000000
00000000
00000000
00000000
00000000
00000000
00000000
31000000
00100000
01000000
00000000
00100000
00000000
,
00020000
00000000
00000000
00000000
00000000
00030000
01000000
00000000
10000000
00000000
01000000
00000000
00010000
00000000
01000000
00000000
,
00100000
00000000
00000000
00000000
10000000
00000000
01000000
00000000
00010000
00000000
00000000
00000000
00000100
00001000
00000100
00000000
,
00000020
00000000
00000000
00000130
00001000
00000100
00000001
00000100
,
00000020
00000000
00000000
00000030
,
00000000
00000000
00000000
00000000
,
00011000
01100000
10010000
00000000
,
10010000
00010000
00100000
01000000
10000000
00100000
01100000
00000000
,
10000000
01000000
00010000
00001000
00000010
00000001
00000011
00000000
,
00000010
00000100
00001000
00000001
00000100
00000010
00001000
00000001
,
00000010
00000000
00000100
00000000
00010000
00000000
00001000
00000000
00000100
00000000
00000000
00001000
00000000
00000000
00010000
00000000
,
00110000
00000000
10000000
00010000
01000000
00100000
00110000
00000000
,
00010000
00100000
10000000
01000000
00100000
00010000
01010000
00000000
,
10000000
01000000
00010000
00001000
00100000
00010000
00001000
00000100
,
00000010
00000000
00000001
00000000
00000010
00000000
00001000
00000000
00000001
00000000
00000100
00001000
00000010
00000000
00000000
00000000
,
00020000
00000000
00000000
00000000
,
00000010
00100000
00000100
01030000
,
00000000
00000000
00000000
00000000
;
