
//----- song id: oslv
#TITLE:One Sided Love;
#ARTIST:D-crew with Melissa Petty;
#BANNER:One Sided Love.png;
#BACKGROUND:One Sided Love-bg.png;
#CDTITLE:./CDTITLES/DDR (2014).png;
#MUSIC:One Sided Love.ogg;
#SAMPLESTART:72;
#SAMPLELENGTH:15;
#BPMS:0=140;
#NOTES:
     dance-single:
     :
     Beginner:
     2:
     :
0000
0000
0000
0000
,
0000
0000
0000
0000
,
0000
0000
0000
0000
,
0000
0000
0000
0000
,
0000
0000
0000
0000
,
0000
0000
0000
0000
,
0000
0000
1000
0000
,
0000
0000
0001
0000
,
0000
0000
0010
0000
,
0000
0000
0000
0000
,
1000
0000
1000
0000
,
1000
0000
0000
0000
,
0001
0000
0001
0000
,
0001
0000
0000
0000
,
1000
0000
1000
0000
,
1000
0000
0000
0000
,
0001
0000
0001
0000
,
0001
0000
0000
0000
,
1000
0000
1000
0000
,
1000
0000
0000
0000
,
0001
0000
0001
0000
,
0001
0000
0000
0000
,
0010
0000
0100
0000
,
0010
0000
0100
0000
,
0010
0000
0010
0000
,
0010
0000
0000
0000
,
0000
0000
0100
0000
,
0000
0000
0010
0000
,
0000
0000
0100
0000
,
0000
0000
0010
0000
,
0000
0000
1000
0000
,
0000
0000
0001
0000
,
0000
0000
0000
0000
,
0000
0000
0000
0000
,
1000
0000
1000
0000
,
0001
0000
0001
0000
,
1000
0000
1000
0000
,
0001
0000
0000
0000
,
0010
0000
0010
0000
,
1000
0000
0001
0000
,
1000
0000
0000
0000
,
0000
0000
0000
0000
,
0001
0000
1000
0000
,
1001
0000
0000
0000
,
0010
0000
0100
0000
,
0010
0000
0000
0000
,
1000
0000
0001
0000
,
1001
0000
0000
0000
,
0100
0000
0100
0000
,
0100
0000
0000
0000
,
1000
1000
1000
0000
,
0001
0001
0001
0000
,
1000
1000
1000
0000
,
0001
0001
0001
0000
,
0010
0000
0010
0000
,
0100
0000
0100
0000
,
1000
0000
0001
0000
,
1000
0001
1000
0000
,
0000
0000
0000
0000
;
#NOTES:
     dance-single:
     :
     Easy:
     5:
     :
0000
0000
0000
0000
,
0000
0000
0000
0000
,
0000
0000
0000
0000
,
0000
0000
0000
0000
,
0000
0000
0000
0000
,
0000
0000
0000
0000
,
0000
1000
0000
0000
,
0000
0001
0000
0000
,
0000
0010
0000
0000
,
0000
0100
0000
0100
,
0000
1000
0000
1000
,
0000
0100
0000
0010
,
0000
0001
1000
0001
,
0000
0100
0010
0100
,
0000
0010
0000
0010
,
0000
0100
0000
0010
,
0000
0001
0010
0001
,
0000
1000
0010
1000
,
0000
1000
0000
1000
,
0000
0100
0000
0010
,
0000
0001
0001
0001
,
0000
0100
0100
0100
,
0000
0010
0000
1000
,
0000
0001
0000
0010
,
0000
0001
1000
1000
,
0001
0010
0100
1000
,
0000
0000
0000
0100
,
0000
0000
0000
0010
,
0000
0000
0000
0100
,
0000
0000
0000
0001
,
0000
0000
0000
1000
,
0000
0000
0000
1000
,
0000
0000
0000
0000
,
0000
0000
0000
0000
,
0001
0001
0010
0010
,
0001
0001
0100
0000
,
1000
1000
0010
0010
,
1000
0100
0100
0000
,
0010
0010
0100
0100
,
1000
1000
0001
0000
,
1000
0000
0000
0000
,
0000
0000
0000
0000
,
0000
0001
0000
0100
,
0000
0101
0000
0000
,
0000
0010
0000
1000
,
0000
1010
0000
0000
,
0000
1000
0000
0100
,
0000
1100
0000
0000
,
0000
0010
0000
0100
,
0000
0110
0000
0000
,
0000
0001
1000
0100
,
0000
0010
0001
1000
,
0000
0001
1000
0100
,
0000
0010
0001
1000
,
0000
0010
0100
0001
,
0000
1000
0100
0010
,
0000
0001
1000
0001
,
1000
0001
1000
0001
,
0000
0000
0000
0000
;
#NOTES:
     dance-single:
     :
     Medium:
     8:
     :
0000
0000
0000
0000
,
0000
0000
0000
0000
,
0000
0000
0000
0000
,
0000
0000
0000
0000
,
0000
0000
0000
0000
,
0000
0000
0000
0000
,
0000
0010
0000
0010
,
0000
0100
0000
0100
,
0000
0001
0000
1000
,
0000
0000
0010
0000
0010
0100
0010
0000
,
1000
0100
1000
0100
,
0010
0001
0010
0000
0010
0001
0010
0000
,
0100
0010
0100
0010
,
0100
1000
0001
0000
0100
1000
0001
0000
,
1000
0001
1000
0001
,
0010
1000
0010
0000
0010
1000
0010
0000
,
0001
0100
0010
1000
,
0010
0100
0001
0000
0010
0100
1000
0000
,
0001
0100
0001
0100
,
0100
1000
0100
0000
0100
1000
0100
0000
,
0001
1000
0001
1000
,
0010
1010
0100
0101
,
0010
0010
0100
0010
,
1000
0001
0100
0000
1000
0001
0100
0000
,
0100
0010
0100
0010
,
1000
0001
0010
0100
,
0000
1000
0000
1001
,
0000
0010
0000
0110
,
0000
0001
0000
1001
,
0000
0100
0000
1010
,
0000
0001
0000
0011
,
0000
1000
0000
1010
,
0000
0001
1000
0100
,
0010
0001
0100
0000
,
1000
0100
1000
0100
1000
0000
0010
0000
,
0100
0001
0100
0001
0100
0000
0010
0000
,
1000
0100
1000
0100
1000
0000
0001
0000
,
1000
0100
0010
0001
,
0100
0010
0100
0010
0100
0000
0100
0000
,
0001
1000
0001
1000
0001
0000
0001
0000
,
1000
0100
0010
0001
1000
0000
1000
0000
,
0001
0100
0010
1000
0001
0000
0000
0000
,
1000
0100
0010
0011
,
0001
0100
0010
0110
,
0010
1000
0100
0010
,
0001
1000
0010
0100
,
0001
0100
0010
1010
,
1000
0100
0010
0110
,
0001
1000
1000
0001
,
0010
1001
0100
0000
,
0001
0000
0001
0000
0001
1000
0001
1000
,
0010
0000
0010
0000
0010
0100
0010
0000
,
1000
0000
1000
0000
1000
0001
1000
0001
,
0010
0000
0010
0000
0010
0100
0010
0000
,
0001
0000
0110
0110
,
1000
0000
0100
0010
0100
0000
1000
0000
,
0010
0000
0100
0001
0100
0000
0010
0000
,
1000
0010
0100
0001
0010
0000
0001
0100
,
0000
0000
0000
0000
;
#NOTES:
     dance-single:
     :
     Hard:
     10:
     :
0000
0000
0000
0000
,
0000
0000
0000
0000
,
0000
0000
0000
0000
,
0000
0000
0000
0000
,
0000
0000
0000
0000
,
0000
0000
0000
0000
,
0000
0001
0000
0001
,
0000
0100
0000
0100
,
0000
1000
0000
1000
,
0000
0000
0010
0000
0010
1000
0001
0010
,
0001
0100
0001
0100
0001
0100
0001
0100
,
0010
1000
0010
1000
0010
1000
1010
0000
,
0100
0010
0100
0010
0100
0010
0100
0010
,
0001
0100
1000
0000
0001
1000
0100
0000
,
1000
0001
1000
0001
1000
0001
1000
0001
,
0010
0001
0010
0001
0010
0001
0011
0000
,
0100
1000
0100
1000
0001
0100
0001
0100
,
0001
0010
1010
0000
0001
0100
1100
0000
,
0001
0010
0001
0010
0001
0010
0001
0010
,
0100
1000
0100
1000
0100
1000
1100
0000
,
0001
0110
0001
1010
,
0100
1010
0001
1100
,
0010
0001
0010
0100
0010
0001
0010
0100
,
1000
0010
0100
0010
1000
0010
0100
0010
,
0100
0010
0100
0000
0100
0010
0100
0010
,
1000
0001
0010
0100
,
1000
0000
0000
0000
0001
0000
0000
0000
0000
0000
0000
0000
0001
0100
0000
0000
,
0010
0000
0000
0000
1000
0000
0000
0000
0000
0000
0000
0000
1000
0100
0000
0000
,
1000
0000
0000
0000
0001
0000
0000
0000
0000
0000
0000
0000
0001
0010
0000
0000
,
0001
0100
0010
1000
,
0100
0000
0000
0000
0001
0000
0000
0000
0000
0000
0000
0000
0010
0100
0000
0000
,
0100
0000
0000
0000
1000
0000
0000
0000
0000
0000
0000
0000
0010
0100
0000
0000
,
0001
0010
0100
0001
,
0100
1000
0010
0000
,
1000
0100
1000
0100
0010
0001
0010
0000
,
0001
0100
0001
0100
0010
0100
0010
0000
,
1000
0010
1000
0010
0100
0001
0100
0000
,
0001
0101
0010
1010
,
0100
0010
0100
1000
0100
1000
0001
0000
,
0100
0010
0100
0001
0010
0100
0010
0000
,
0001
0100
0010
1000
0001
0100
0010
1000
,
0001
0010
0100
1000
0001
0010
0100
0000
,
1000
0100
0011
1010
,
0001
0100
1010
0101
,
0010
1100
0010
0101
,
0001
1000
0001
1000
0010
0100
0010
0100
,
0001
0100
1010
0011
,
1000
0100
0011
1100
,
0010
1001
0100
1001
,
0010
0000
1001
0000
0100
0010
0100
0000
,
0001
1000
0001
0100
0001
0010
0001
1000
,
0010
0001
0010
0100
0010
1000
0010
0000
,
1000
0001
1000
0100
1000
0010
1000
0001
,
0010
1000
0010
0100
0010
0001
0010
0000
,
0100
0100
0010
0110
,
1000
0010
1000
0100
1000
0010
1000
0100
,
0010
0001
0010
0001
0100
0001
0010
0001
,
1000
0010
0001
0010
1000
0100
0001
0100
,
0000
0000
0000
0000
;
#NOTES:
     dance-single:
     :
     Challenge:
     12:
     :
0000
0000
0000
0000
,
0000
0000
0000
0000
,
0000
0000
0000
0000
,
0000
0000
0000
0000
,
0000
0000
0000
0000
,
0000
0000
0000
0000
,
2000
0000
0002
3000
,
0020
0003
0200
0030
,
2000
0300
0020
3000
,
0200
0000
0330
0000
,
MMMM
1000
0100
0010
MMMM
0100
0001
1000
,
MMMM
0010
0001
0100
MMMM
1000
0100
1000
,
MMMM
0010
0001
1000
MMMM
0100
0001
1000
,
MMMM
0010
0100
1000
MMMM
0100
0001
0100
,
MMMM
1000
0100
0001
MMMM
0010
0100
1000
,
MMMM
0100
0010
1000
MMMM
0100
0001
0100
,
MMMM
1000
0001
0010
MMMM
1000
0100
0010
,
MMMM
1000
0010
0001
MMMM
0100
0010
0100
,
MMMM
1000
0001
0010
MMMM
1000
0100
0001
,
MMMM
0010
0001
1000
MMMM
0100
0001
0100
,
MMMM
1000
0001
0010
MMMM
1000
0001
0100
,
MMMM
1000
0010
0001
MMMM
0100
1000
0100
,
MMMM
1000
0100
0001
MMMM
1000
0010
0001
,
MMMM
0100
0001
0100
MMMM
1000
0010
1000
,
MMMM
1000
0100
0010
MMMM
0100
0010
0001
,
MMMM
0100
0001
1000
MMMM
0010
0100
0010
,
0200
0000
0000
2300
,
0002
3000
0200
0003
,
0020
0000
0300
2030
,
3200
0302
0203
2300
,
0020
3000
0032
0023
,
2000
0030
3200
0302
,
0200
0003
0020
0300
,
0002
0000
0000
0033
,
0001
1000
MMMM
0010
0100
1000
MMMM
0001
,
0010
1000
MMMM
0100
1000
0100
MMMM
1000
,
0100
0001
MMMM
0010
0001
1000
MMMM
0100
,
0001
0010
MMMM
1000
0010
1000
MMMM
0100
,
0010
0001
MMMM
0100
0001
1000
MMMM
0010
,
0100
1000
MMMM
0100
0001
0100
MMMM
1000
,
0100
0010
MMMM
0100
0001
1000
MMMM
0010
,
0001
0100
MMMM
1000
0010
1000
MMMM
0000
,
1100
0000
0000
0100
0010
0000
0000
0010
0001
0000
0000
0001
1000
0000
0000
1000
,
0200
0001
1000
0301
,
0110
0000
0000
0010
0100
0000
0000
0100
1000
0000
0000
1000
0001
0000
0000
0001
,
0020
1000
0001
1030
,
0011
0000
0000
0001
0010
0000
0000
0010
0100
0000
0000
0100
1000
0000
0000
1000
,
0002
1000
0010
1003
,
1100
0000
0000
1000
0100
0000
0000
0100
0010
0000
0000
0010
0001
0000
0000
0001
,
2000
0001
0100
3001
,
MMMM
1000
0100
1000
MMMM
0010
0001
0010
,
MMMM
1000
0100
0001
MMMM
0010
0001
1000
,
MMMM
0100
0001
0100
MMMM
1000
0010
1000
,
MMMM
0010
0001
1000
MMMM
0100
0010
1000
,
MMMM
0010
0100
0010
MMMM
1000
0001
1000
,
MMMM
0100
0010
0001
MMMM
0100
0001
1000
,
MMMM
0010
0001
0010
MMMM
1000
0100
1000
,
MMMM
0010
0100
1000
MMMM
0100
0010
0001
,
MMMM
0000
0000
0000
,
0000
0000
0000
0000
;
#NOTES:
     dance-double:
     :
     Easy:
     5:
     :
00000000
00000000
00000000
00000000
,
00000000
00000000
00000000
00000000
,
00000000
00000000
00000000
00000000
,
00000000
00000000
00000000
00000000
,
00000000
00000000
00000000
00000000
,
00000000
00000000
00000000
00000000
,
10000000
00000000
01000000
00000000
,
00010000
00000000
00001000
00000000
,
00000020
00000000
00000000
00000000
,
00000031
00000000
00000000
00000000
,
00000001
00001000
00000001
00001000
,
00000010
00000100
00000010
00000000
,
00000010
00010000
00001000
00010000
,
00100000
01000000
00100000
00000000
,
10000000
00010000
01000000
00001000
,
00010000
00001000
00010000
00000000
,
01000000
10000000
01000000
10000000
,
00010000
00100000
01000000
00000000
,
00100000
01000000
00100000
01000000
,
00010000
00001000
00010000
00000000
,
00001000
00000100
00000010
00001000
,
00000100
00000010
00000001
00000000
,
00000001
00000010
00000100
00001000
,
00000001
00000100
00001000
00000000
,
00010000
00001000
00010000
00100000
,
01000000
00100000
01000000
00000000
,
10000000
00000000
01000000
00000000
,
00010000
00010000
00010000
00000000
,
00001000
00000000
00000010
00000000
,
00000001
00000001
00000001
00000000
,
00000100
00000000
00001000
00000000
,
00010000
00010000
00010000
00000000
,
00100000
00000000
10000000
00000000
,
10010000
00000000
00000000
00000000
,
00010000
10000000
00010000
01000000
,
00100000
10000000
01000000
00000000
,
00100000
00010000
00100000
00001000
,
00010000
00001000
00000010
00000000
,
00000001
00001000
00000001
00000100
,
00001000
00010000
00001000
00000000
,
00010000
00100000
10000000
00010000
,
10000000
01000000
00010000
00000000
,
01100000
00000000
01100000
00000000
,
10010000
00000000
10010000
00000000
,
01000000
00000000
00010000
00000000
,
00001000
00000000
00000010
00000000
,
00001001
00000000
00001001
00000000
,
00000110
00000000
00000110
00000000
,
00001000
00000000
00010000
00000000
,
00100000
00000000
10000000
00000000
,
10000000
01000000
10000000
00000000
,
00010000
00100000
00010000
00000000
,
01000000
00100000
01000000
00000000
,
00001000
00010000
00001000
00000000
,
00010000
00001000
00010000
00000000
,
00000010
00000100
00000010
00000000
,
00001000
00000100
00001000
00000000
,
00000001
00000010
00000001
00001001
,
00000000
00000000
00000000
00000000
;
#NOTES:
     dance-double:
     :
     Medium:
     9:
     :
00000000
00000000
00000000
00000000
,
00000000
00000000
00000000
00000000
,
00000000
00000000
00000000
00000000
,
00000000
00000000
00000000
00000000
,
00000000
00000000
00000000
00000000
,
00000000
00000000
00000000
00000000
,
20000000
00000000
32000000
00000000
,
03020000
00000000
00032000
00000000
,
00003020
00000000
00000001
00001030
,
00000001
00001000
00000010
00000000
00000000
00000000
00000000
00000000
,
00000001
00001000
00000001
00000000
00001000
00000001
00001000
00000000
,
00000010
00000100
00000010
00000000
00000100
00000010
00000100
00000000
,
00000010
00010000
00001000
00000000
00010000
00001000
00010000
00000000
,
01000000
00100000
01000000
00000000
10000000
00010000
01000000
00000000
,
00001000
00010000
00001000
00000000
00010000
00001000
00010000
00000000
,
01000000
10000000
01000000
00000000
10000000
01000000
10000000
00000000
,
00010000
00100000
10000000
00000000
00010000
01000000
10000000
00000000
,
00001000
00100000
00010000
00000000
10000000
00010000
01000000
00000000
,
00100000
01000000
00100000
00000000
01000000
00100000
01000000
00000000
,
00001000
00010000
00001000
00000000
00010000
00001000
00010000
00000000
,
00001000
00000100
00000010
00000000
00001000
00000100
00000010
00000000
,
00000001
00000010
00000100
00000000
00010000
00000010
00001000
00000000
,
00000001
00000100
00001000
00000000
00000100
00000001
00001000
00000000
,
00000010
00010000
00001000
00000000
01000000
00001000
00010000
00000000
,
01000000
00100000
00010000
00000000
10000000
01000000
00010000
00000000
,
10000000
00100000
00010000
00000000
10000000
01000000
00100000
00000000
,
00020000
00000000
00000000
10030000
,
02000000
00000000
03020000
00000000
,
00032000
00000000
00000000
00003010
,
00000001
00001000
00000010
00000100
,
00000002
00000000
00000013
00000100
,
00000020
00000000
00001030
00010000
,
00200000
00000000
00000000
00000000
02300000
00000000
00000000
03000000
,
00020000
00000000
10030000
00000000
,
10000000
00010000
10000000
00000000
00010000
01000000
00100000
00000000
,
10000000
01000000
10000000
00000000
01000000
00100000
00010000
00000000
,
00001000
00000100
00001000
00000000
00000100
00000010
00000001
00000000
,
00001000
00000100
00000001
00000000
00001000
00000010
00000001
00000000
,
00001000
00000001
00001000
00000000
00000001
00000100
00001000
00000000
,
00010000
00100000
10000000
00000000
00100000
01000000
00010000
00000000
,
10000000
01000000
10000000
00000000
01000000
00100000
01000000
00000000
,
00100000
00010000
00100000
00000000
00001000
00010000
00001000
00000000
,
00011000
00011000
00110000
00110000
,
01000000
00010000
00001000
00000010
,
00000011
00000011
00001100
00001100
,
00000010
00001000
00010000
00100000
,
11000000
11000000
00110000
00110000
,
00001000
00000100
00000010
00000001
,
00000110
00000110
00001001
00001001
,
00000010
00000100
00001000
00010000
,
00100000
01000000
00100000
00000000
10000000
01000000
10000000
00000000
,
00010000
00100000
00010000
00000000
01000000
00100000
01000000
00000000
,
00001000
00010000
00001000
00000000
00100000
00010000
00100000
00000000
,
00000100
00001000
00000100
00000000
00010000
00001000
00010000
00000000
,
00000010
00000100
00000010
00000000
00001000
00000100
00001000
00000000
,
00000001
00000010
00000001
00000000
00000100
00000010
00000100
00000000
,
00001000
00010000
00001000
00010000
00001000
00010000
00001000
00010000
,
00100000
01000000
00100000
01000000
00010000
10000000
00010000
10000000
,
00000000
00000000
00000000
00000000
;
#NOTES:
     dance-double:
     :
     Hard:
     11:
     :
00000000
00000000
00000000
00000000
,
00000000
00000000
00000000
00000000
,
00000000
00000000
00000000
00000000
,
00000000
00000000
00000000
00000000
,
00000000
00000000
00000000
00000000
,
00000000
00000000
00000000
00000000
,
20000000
30010000
00020000
01030000
,
02000000
03001000
00002000
00013000
,
00020000
00030010
00000020
00000130
,
00000001
00000100
00000002
00000000
00001003
00000000
00000000
00000000
,
00001001
00001000
00000001
00001000
00000001
00001000
00000001
00001000
,
00000010
00000100
00000010
00000100
00000010
00000100
00000010
00000100
,
00000010
00010000
00001000
00010000
00000010
00010000
00001000
00010000
,
00100000
01000000
00100000
01000000
00010000
10000000
00100000
01000000
,
00001000
00010000
00001000
00010000
00001000
00010000
00001000
00010000
,
01000000
10000000
01000000
10000000
01000000
10000000
01000000
10000000
,
00010000
00100000
10000000
00100000
00010000
01000000
10000000
01000000
,
00010000
00100000
01000000
10000000
00010000
01000000
00100000
10000000
,
01000000
00100000
01000000
00100000
01000000
00100000
01000000
00100000
,
00001000
00010000
00001000
00010000
00001000
00010000
00001000
00010000
,
00000010
00000100
00001000
00000100
00000010
00000100
00001000
00000100
,
00000001
00000010
00000100
00001000
00000001
00000100
00000010
00001000
,
00000001
00000100
00001000
00000100
00000001
00000100
00001000
00000100
,
00000010
00010000
00001000
00010000
00000010
00010000
00001000
00010000
,
00100000
01000000
00010000
01000000
10000000
01000000
00010000
00100000
,
00010000
01000000
00100000
10000000
00010000
10000000
01000000
00100000
,
00020000
10000000
00000000
10030000
,
02000000
03010000
00002000
00013000
,
00002000
00000010
00000000
00003010
,
00000002
00002003
00003020
00000230
,
00000302
00000013
00000100
00001000
,
00000020
00000130
00001000
00010000
,
00200000
01000000
00000000
01300000
,
00020000
10000000
00000000
10030000
,
10010000
00010000
10000000
00010000
10000000
00010000
01000000
00100000
,
10000000
01000000
10000000
01000000
00100000
00010000
00100000
00010000
,
00001000
00000100
00001000
00000100
00001000
00000100
00000010
00000001
,
00001000
00000100
00000001
00000100
00001000
00000010
00000001
00000010
,
00001000
00000001
00001000
00000001
00000100
00001000
00000100
00001000
,
00010000
00100000
10000000
00100000
00010000
00001000
00100000
00010000
,
10000000
01000000
10000000
01000000
10000000
01000000
00100000
00010000
,
01000000
00100000
01000000
00100000
01000000
00100000
01000000
00100000
,
01100000
00000000
10010000
00000000
10000000
01000000
00010000
00001000
,
00000010
00000001
00000100
00001000
00010000
00001000
00000010
00000001
,
00000011
00000000
00001100
00000000
00000001
00000010
00001000
00010000
,
00100000
10000000
00010000
01000000
00001000
00010000
01000000
10000000
,
11000000
00000000
00110000
00000000
10000000
00100000
00010000
00001000
,
00000100
00000001
00000010
00001000
00010000
00001000
00000100
00000010
,
00000110
00000000
00001001
00000000
00000001
00000010
00000100
00001000
,
00000001
00000100
00001000
00010000
00000010
00001000
00010000
01000000
,
00100000
01000000
10000000
01000000
00100000
01000000
10000000
01000000
,
00010000
00100000
01000000
00100000
00010000
00100000
01000000
00100000
,
00001000
00010000
00100000
00010000
00001000
00010000
00100000
00010000
,
00000100
00001000
00010000
00001000
00000100
00001000
00010000
00001000
,
00000010
00000100
00001000
00000100
00000010
00000100
00001000
00000100
,
00000001
00000010
00000100
00000010
00000001
00000010
00000100
00000010
,
00000001
00001000
00000001
00001000
00000010
00000100
00001000
00010000
,
01000000
00100000
01000000
00100000
00010000
10000000
01000000
00100000
,
00000000
00000000
00000000
00000000
;
#NOTES:
     dance-double:
     :
     Challenge:
     13:
     :
00000000
00000000
00000000
00000000
,
00000000
00000000
00000000
00000000
,
00000000
00000000
00000000
00000000
,
00000000
00000000
00000000
00000000
,
00000000
00000000
00000000
00000000
,
00000000
00000000
00000000
00000000
,
20000000
00000000
00020000
30000000
,
02000000
00030000
00002000
03000000
,
00020000
00003000
00000020
00030000
,
00002000
00000000
00003030
00000000
,
MMMMMMMM
00001000
00000100
00000010
MMMMMMMM
00000100
00000001
00001000
,
MMMMMMMM
00000010
00000001
00000100
MMMMMMMM
00001000
00000100
00000010
,
MMMMMMMM
00000100
00001000
00010000
MMMMMMMM
00100000
00010000
10000000
,
MMMMMMMM
01000000
00100000
00010000
MMMMMMMM
10000000
01000000
10000000
,
MMMMMMMM
00100000
00010000
00001000
MMMMMMMM
00000100
00000010
00001000
,
MMMMMMMM
00000010
00000001
00000100
MMMMMMMM
00001000
00010000
00001000
,
MMMMMMMM
00000100
00000001
00000010
MMMMMMMM
00001000
00010000
00100000
,
MMMMMMMM
10000000
00010000
01000000
MMMMMMMM
00100000
00010000
01000000
,
MMMMMMMM
10000000
00010000
00100000
MMMMMMMM
10000000
01000000
00010000
,
MMMMMMMM
00100000
00010000
00001000
MMMMMMMM
00000100
00000001
00000010
,
MMMMMMMM
00010000
00001000
00000010
MMMMMMMM
00001000
00000001
00000100
,
MMMMMMMM
00001000
00000001
00000010
MMMMMMMM
00001000
00010000
00100000
,
MMMMMMMM
10000000
00010000
10000000
MMMMMMMM
00100000
01000000
00100000
,
MMMMMMMM
00010000
00001000
00010000
MMMMMMMM
00100000
00010000
00100000
,
MMMMMMMM
10000000
00010000
00100000
MMMMMMMM
00010000
00001000
00000010
,
MMMMMMMM
00000100
00000001
00001000
MMMMMMMM
00000010
00000001
00000100
,
00000020
00000000
00000000
00000230
,
00002000
00000300
00020000
00003000
,
00200000
00000000
00030000
20300000
,
32000000
03020000
02030000
23000000
,
00200000
30000000
00320000
00032000
,
00000020
00003000
00000032
00002003
,
00000020
00003000
00000200
00000030
,
00000002
00000000
00000000
00000303
,
00000001
00001000
MMMMMMMM
00000010
00000100
00001000
MMMMMMMM
00000001
,
00000010
00001000
MMMMMMMM
00010000
00001000
00000010
MMMMMMMM
00000100
,
00001000
00010000
MMMMMMMM
00100000
00010000
10000000
MMMMMMMM
00010000
,
00001000
00010000
MMMMMMMM
10000000
00100000
01000000
MMMMMMMM
00010000
,
00100000
10000000
MMMMMMMM
00100000
00010000
00001000
MMMMMMMM
00010000
,
00001000
00000010
MMMMMMMM
00000100
00000001
00001000
MMMMMMMM
00000010
,
00000100
00001000
MMMMMMMM
00000010
00000001
00000100
MMMMMMMM
00001000
,
00010000
00100000
MMMMMMMM
10000000
01000000
00100000
MMMMMMMM
00000000
,
01100000
01100000
10010000
10010000
,
11000000
01010000
00011000
00001010
,
00000110
00000110
00001001
00001001
,
00000011
00001010
00011000
00110000
,
11000000
11000000
01010000
01010000
,
00011000
00001100
00001001
00001010
,
00000011
00000011
00001100
00001100
,
00011000
01010000
10010000
00110000
,
MMMMMMMM
10000000
01000000
10000000
MMMMMMMM
00010000
00001000
00010000
,
MMMMMMMM
10000000
01000000
00010000
MMMMMMMM
00100000
00010000
00001000
,
MMMMMMMM
00000100
00000001
00000100
MMMMMMMM
00001000
00010000
00001000
,
MMMMMMMM
00000001
00000010
00001000
MMMMMMMM
00000010
00001000
00010000
,
MMMMMMMM
00100000
10000000
00100000
MMMMMMMM
00010000
01000000
00010000
,
MMMMMMMM
10000000
01000000
00010000
MMMMMMMM
00100000
00010000
00001000
,
MMMMMMMM
00000100
00000001
00000100
MMMMMMMM
00001000
00000010
00001000
,
MMMMMMMM
00000010
00000100
00001000
MMMMMMMM
00000100
00001000
00010000
,
MMMMMMMM
00000000
00000000
00000000
,
00000000
00000000
00000000
00000000
;
