
//----- song id: nage
#TITLE:嘆きの樹;
#ARTIST:金獅子;
#TITLETRANSLIT:Nageki no ki;
#ARTISTTRANSLIT:Kinjinshi;
#BANNER:Nageki no ki.png;
#BACKGROUND:Nageki no ki-bg.png;
#CDTITLE:./CDTitles/bmIIDX 13 DistorteD.png;
#MUSIC:Nageki no ki.ogg;
#SAMPLESTART:63;
#SAMPLELENGTH:15;
#BPMS:0=160;
#NOTES:
     dance-single:
     :
     Beginner:
     4:
     :
0000
0000
0000
0000
,
0000
0000
0000
0000
,
0000
0000
0000
0000
,
0000
0000
0000
0000
,
0000
0000
0000
0000
,
0000
0000
0000
0000
,
0000
0000
0000
0000
,
0000
0000
0000
0000
,
0000
0000
0000
0000
,
0000
0000
0000
0000
,
0100
0000
0100
0000
,
0100
0000
0100
0000
,
0100
0000
0100
0000
,
0100
0000
0100
0000
,
1000
0000
1000
0000
,
0001
0000
0001
0000
,
1000
0000
0001
0000
,
1001
0000
0000
0000
,
1000
0000
1000
0000
,
0001
0000
0001
0000
,
1000
0000
1000
0000
,
0001
0000
0001
0000
,
0010
0000
0010
0000
,
0001
0000
0001
0000
,
0100
0000
0100
0000
,
0010
0000
0000
0000
,
0001
0001
0001
0000
,
0001
0001
0001
0000
,
1000
1000
1000
0000
,
1000
1000
1000
0000
,
0001
0001
0001
0000
,
0001
0001
0001
0000
,
1000
1000
1000
0000
,
1000
0000
0000
0000
,
0010
0000
1000
0000
,
0010
0000
1000
0000
,
0001
0000
0010
0000
,
0001
0000
0010
0000
,
0001
0000
1000
0000
,
2002
0000
0000
0000
,
0000
0000
0000
0000
,
3003
0000
0000
0000
,
0100
0000
0010
0000
,
0100
0100
0100
0000
,
0001
0000
1000
0000
,
0001
0001
0001
0000
,
0010
0000
1000
1000
,
1000
0000
0001
0001
,
0001
0000
1000
0000
,
0001
1000
0001
0000
,
0100
0000
0010
0000
,
0100
0100
0100
0000
,
1000
0000
0001
0000
,
1000
1000
1000
0000
,
0010
0000
0010
0010
,
0010
0000
0100
0100
,
0100
0000
0001
0000
,
1000
0001
1000
0000
,
1001
0000
0000
0000
,
0110
0000
0000
0000
,
1001
0000
0000
0000
,
0110
0000
0000
0000
,
0001
0001
0001
0000
,
0010
0010
0010
0000
,
0100
0100
0100
0000
,
1000
1000
1000
0000
,
2002
0000
0000
0000
,
0000
0000
0000
0000
,
0000
0000
0000
0000
,
0000
0000
0000
0000
,
0000
0000
0000
3003
,
0100
0000
0100
0000
,
0100
0000
0100
0000
,
1000
0000
1000
0000
,
0001
0000
0001
0000
,
1000
0000
0001
0000
,
2002
0000
0000
0000
,
0000
0000
0000
0000
,
3003
0000
0000
0000
,
0001
0001
1000
1000
,
1001
0000
0000
0000
,
0000
0000
0000
0000
;
#NOTES:
     dance-single:
     :
     Easy:
     8:
     :
0000
0000
0000
0000
,
0000
0000
0000
0000
,
0000
0000
0000
0000
,
0000
0000
0000
0000
,
0000
0000
0000
0000
,
0000
0000
0000
0000
,
0000
0000
0000
0000
,
0000
0000
0000
0000
,
0000
0000
0000
0000
,
0000
0000
0000
0000
,
0100
0100
0100
0100
,
0100
0100
0100
0100
,
1000
1000
1000
1000
,
1000
0000
1000
0000
1000
0000
1000
1000
,
1000
0010
1000
0100
,
1000
0001
1000
0001
,
0010
0000
0001
0000
0100
0100
0100
0000
,
0002
0003
2000
3000
,
0001
0001
0000
0000
1000
1000
0000
0000
,
0001
0001
0000
0000
1000
1000
0000
0000
,
0010
0010
0000
0000
0100
0100
0000
0000
,
0010
0010
0000
0000
0100
0100
0000
0000
,
0001
0001
0000
0000
0100
0100
0000
0000
,
0010
0010
0000
0000
1000
1000
0000
0000
,
0001
0001
0000
0000
1000
1000
0000
0000
,
0001
0010
0100
1000
,
0001
0101
0001
0010
,
0100
1100
0010
1000
,
0100
0110
0001
1000
,
0002
1003
2000
3001
,
0001
0110
0010
0100
,
0001
0011
0100
1000
,
0010
0101
0001
1000
,
0001
0100
1000
0010
,
0001
0001
0000
0001
0001
0001
0000
0000
,
1000
1000
0000
1000
1000
1000
0000
0000
,
0001
0001
0000
0100
0100
0100
0000
0000
,
1000
1000
0000
0100
0100
0100
0000
0000
,
0010
0010
0000
0010
0010
0010
0000
0000
,
0100
1100
1000
1001
,
0101
0100
0110
0010
,
2002
0000
0000
3003
,
0200
0010
1000
0310
,
0002
0010
1000
0103
,
0020
1000
0100
1030
,
2000
0010
0001
3100
,
2200
3000
0310
0001
,
0202
0003
0310
0100
,
0110
0000
1001
0000
,
0010
0100
1001
0000
,
2010
0100
0001
0100
,
0001
0010
0001
3100
,
0012
0100
1000
0100
,
1000
0010
1000
0103
,
2020
0030
3100
0010
,
0022
0030
0103
0010
,
0110
0000
1001
0000
,
0001
0010
0100
1000
,
0010
0000
0000
0100
0000
0000
0110
0000
,
0001
0000
0000
0100
0000
0000
0101
0000
,
1000
0000
0000
0001
0000
0000
1001
0000
,
0100
0000
0000
1000
0000
0000
1100
0000
,
0001
0001
0001
0000
0001
0001
0001
0000
,
0100
0100
0100
0000
0100
0100
0100
0000
,
0010
0010
0010
0000
0010
0010
0010
0000
,
1000
0000
0000
0001
0000
0000
1001
0000
,
2000
3200
0320
0032
,
0023
0230
2300
3002
,
0023
0230
2300
3002
,
0023
0230
2300
3200
,
0320
0032
0023
0230
,
1300
1000
0000
1000
1000
1000
0000
0001
,
0001
0001
0000
0001
0001
0001
0000
0100
,
0100
0100
0000
0100
0100
0100
0000
0010
,
0010
0010
0000
0010
0010
0010
0000
1000
,
1000
1000
0000
0001
0001
0001
0000
0010
,
0010
0110
0100
1100
,
1010
0010
0110
0100
,
2002
0000
0000
3003
,
0110
0000
0100
0100
0000
0010
0010
1000
,
0001
2002
0000
0000
,
0000
3003
0000
0000
,
0000
0000
0000
0000
;
#NOTES:
     dance-single:
     :
     Medium:
     12:
     :
0000
0000
0000
0000
,
0000
0000
0000
0000
,
0000
0000
0000
0000
,
0000
0000
0000
0000
,
0000
0000
0000
0000
,
0000
0000
0000
0000
,
0000
0000
0000
0000
,
0000
0000
0000
0000
,
0000
0000
0000
0000
,
0000
0000
0000
0000
,
0001
1000
0001
1000
0001
1000
0001
0000
,
1000
0010
1000
0010
1000
0010
1000
0000
,
0010
0100
0010
0100
0010
0100
0010
0000
,
0100
0001
0100
0001
0100
0001
1000
0001
,
0100
0010
0100
0010
0100
0001
0100
0001
,
1000
0010
1000
0010
1000
0001
1000
0001
,
1000
0100
1000
0100
0010
0001
0010
0001
,
0200
0300
0020
0030
,
1000
0001
0000
0001
1000
0010
0000
0010
,
1000
0001
0000
0001
1000
0010
0000
0010
,
0100
0100
0000
0100
0001
0001
0000
0001
,
0010
0010
0000
0010
0100
0100
0000
0100
,
1000
0001
0000
0001
1000
0100
0000
0100
,
0010
0001
0000
0001
0010
0100
0000
0100
,
1000
0001
0000
0001
1000
0010
0000
0100
,
0001
0010
0100
1000
0001
0010
0100
0000
,
1000
1000
0100
0100
0010
0010
0001
0001
,
1000
1000
0010
0010
0100
0100
0001
0001
,
1000
1000
0100
0100
0010
0010
0001
0001
,
1000
1000
0001
0001
0100
0100
0100
0000
,
0001
0001
0010
0010
0100
0100
1000
1000
,
0001
0001
0100
0100
0010
0010
1000
1000
,
0001
0001
0010
0010
0100
0100
1000
1000
,
0010
0001
0100
1000
,
1001
1000
0000
1000
0100
0100
0000
0100
,
0110
0010
0000
0010
0001
0001
0000
0001
,
0101
0100
0000
0100
0010
0010
0000
0010
,
1010
1000
0000
1000
0001
0001
0000
0010
,
0011
0001
0000
1000
1010
0010
0000
1000
,
0100
0000
0000
0010
0000
0000
0001
0000
1000
0000
0000
0100
0000
0000
0010
0000
,
0000
0001
0000
0000
1000
0000
0000
0010
0000
0000
0100
0000
0001
0000
1000
0000
,
2002
0000
0000
3003
,
2000
0000
0001
0000
0100
0000
3001
0010
,
0200
0000
0310
0100
2000
0000
3001
0000
,
0002
0000
1000
0000
0010
0000
1003
0010
,
0200
0000
0310
0100
0002
0000
1003
0000
,
0202
0000
0003
0000
0301
0010
0100
1000
,
2200
0000
3000
0000
1300
0010
0100
0001
,
1000
0001
1000
0000
0000
0000
0000
0000
0001
1000
0001
0000
0000
0000
0000
0000
,
0100
0010
1000
0001
1000
0020
0000
0130
,
0002
0000
0013
0100
2000
0000
3010
0100
,
0002
0000
1003
0010
0200
0000
0310
1000
,
0002
0000
0013
0100
2000
0000
3001
0100
,
0020
0000
1030
0001
0200
0000
0310
1000
,
1002
0000
0100
0000
0013
0100
1000
0001
,
2001
0000
0100
0000
3010
0100
0001
1000
,
0010
0100
0010
0000
0000
0000
0000
0000
0100
0010
0100
0000
0000
0000
0000
0000
,
0001
0010
0001
0100
0010
1000
0001
0100
,
0101
0000
1000
0100
0000
1000
0010
1000
,
1100
0000
0001
0010
0000
0001
0100
0001
,
0011
0000
1000
0010
0000
1000
0100
1000
,
1010
0000
0010
0100
0000
0001
1000
0000
,
0100
0100
0100
0010
0001
0010
0001
0010
,
0100
0100
0100
1000
0001
1000
1000
0001
,
0100
0100
0100
0010
1000
0010
1000
0010
,
0100
0000
0000
0101
0000
0001
1000
0001
,
1000
0100
0010
0001
0001
0010
0100
1000
,
1000
0100
0010
0001
0001
0010
0100
1000
,
1000
0100
0010
0001
0001
0010
0100
1000
,
1000
0100
0010
0001
0001
0010
0100
1000
,
1000
0100
0010
0001
0001
0010
0100
1000
,
0001
0001
0000
0001
0101
0100
0000
0100
,
0010
0010
0000
0010
1010
1000
0000
1000
,
0100
0100
0000
0100
0110
0010
0000
0010
,
0001
0001
0000
0001
0101
0100
0000
0100
,
0110
0010
0000
1000
1001
0001
0000
0010
,
0100
0000
0000
0010
0000
0000
0001
0000
1000
0000
0000
0100
0000
0000
0010
0000
,
0000
0001
0000
0000
1000
0000
0000
0010
0000
0000
0100
0000
0001
0000
1000
0000
,
2002
0000
0000
3003
,
0001
0001
0001
1000
1000
1000
0010
0100
,
0110
2002
0000
0000
,
0000
3003
0000
0000
,
0000
0000
0000
0000
;
#NOTES:
     dance-single:
     :
     Hard:
     16:
     :
0000
0000
0000
0000
,
0000
0000
0000
0000
,
0000
0000
0000
0000
,
0000
0000
0000
0000
,
0000
0000
0000
0000
,
0000
0000
0000
0000
,
0000
0000
0000
0000
,
0000
0000
0000
0000
,
0000
0000
0000
0000
,
0000
0000
0000
0000
,
1001
0000
0100
0000
0010
1000
0001
0000
0010
0000
0100
0000
1000
0001
0100
0000
,
0010
0000
1000
0000
0010
0100
0001
0000
1000
0000
0100
0000
0010
0001
1000
0000
,
0001
0000
0010
0000
0100
1000
0001
0000
0100
0000
0001
0000
1000
0010
0100
0000
,
0001
0000
1000
0000
0001
0010
0100
0000
1000
0000
0001
0000
0100
0000
0010
0000
,
0110
0000
1000
0000
0100
0010
0001
0000
1000
0000
0010
0000
0100
0001
1000
0000
,
0001
0000
0010
0000
0100
1000
0001
0000
0100
0000
0010
0000
1000
0001
0010
0000
,
0100
0000
1000
0000
0001
1000
0010
0000
0100
0000
0100
0000
0010
0000
0010
0000
,
0220
0330
2002
3003
,
1000
1100
1000
0001
0101
0001
1000
0010
,
1010
0010
1000
0001
0011
0001
0010
0100
,
0110
0100
1000
0001
1001
0001
1000
0010
,
0110
0010
0100
0001
1001
0001
1000
0001
,
1001
1100
1000
0001
1001
0101
0001
0010
,
0110
1100
1000
0010
0110
0101
0001
1000
,
1100
0110
0010
0001
0101
0110
0010
1000
,
0001
0010
0100
1000
0001
0010
0100
1000
0010
0100
0001
1000
0010
0100
0001
0000
,
0101
0101
0010
0010
0011
0011
1000
1000
,
0110
0110
0010
0010
1010
1010
0001
0001
,
1100
1100
0001
0001
1001
1001
0010
0010
,
0101
0101
1100
1100
0011
0011
1010
1010
,
0110
0110
0001
0001
0101
0101
0010
0010
,
1001
1001
0100
0100
0110
0110
0001
0001
,
1010
1010
0001
0001
0101
0101
0010
0010
,
1000
1000
0100
0100
0010
0010
0001
0001
,
1000
0000
1100
0000
1000
0000
0010
0100
0001
0000
0101
0000
0001
0000
1000
0010
,
0100
0000
0110
0000
0100
0000
0001
1000
0010
0000
1010
0000
0010
0000
0100
0001
,
1000
0000
1001
0000
1000
0000
0010
0100
0001
0000
0101
0000
0001
0000
0010
0100
,
1000
0000
1100
0000
1000
0000
0001
0010
0100
0000
0110
0000
0100
0000
1000
0001
,
0010
0000
0011
0000
0010
0000
0001
1000
0010
0000
1010
0000
0010
0000
0100
0001
,
1000
0000
0000
1010
0000
0000
1100
0000
0001
0000
0000
0011
0000
0000
0101
0000
,
0000
1100
0000
0000
0101
0000
0000
0011
0000
0000
1010
0000
0110
0000
0101
0000
,
2002
0000
0000
3003
,
1000
0000
0100
0000
0001
0000
0100
0010
0002
0000
1000
0000
1000
0000
0103
0000
,
0010
0000
0100
0000
1000
0000
0100
0010
2000
0000
0001
0000
3001
0000
0100
0000
,
0001
0000
0010
0000
0100
0000
1000
0010
0200
0000
0001
0000
0001
0000
0310
0000
,
1000
0000
0100
0000
0010
0001
1000
0010
0100
0000
0001
0000
0010
0000
0100
0000
,
1200
0000
0310
0001
1000
0010
0001
0010
,
1020
0000
0130
0001
0010
0100
1000
0010
,
0100
0001
0100
0001
0100
0000
0000
0000
0100
1000
0100
1000
0100
0000
0000
0000
,
0100
0001
0100
0001
0100
0010
0100
0010
0100
1000
0200
0000
0000
0000
0310
0000
,
1001
0000
1000
0000
0001
0000
0010
0100
2000
0000
0001
0000
0001
0000
3010
0000
,
0100
0000
0001
0000
0010
0000
0100
1000
0002
0000
0100
0000
0103
0000
0010
0000
,
1000
0000
0100
0000
0010
0000
0001
0100
0020
0000
1000
0000
1000
0000
0130
0000
,
0001
0000
0010
0000
0100
1000
0001
0100
0010
0000
1000
0000
0100
0000
0010
0000
,
1020
0000
0001
0000
1030
0010
0001
0100
,
1200
0000
0001
0000
1300
0100
0001
0010
,
0100
0010
0100
0010
0100
0000
0000
0000
1000
0001
1000
0001
1000
0000
0000
0000
,
0001
0010
0001
0000
0010
0100
0010
0000
0100
1000
0100
0000
1000
0001
1000
0000
,
1000
0100
1000
0100
1000
0000
0001
1000
0001
1000
0001
0000
0010
0100
0010
0000
,
0001
1000
0001
1000
0001
0000
1000
0100
1000
0100
1000
0000
0100
0010
0100
0000
,
1000
0001
1000
0001
0100
0000
0001
0010
0001
0010
0100
0000
1000
0001
0010
0000
,
0001
0100
0001
0100
0010
0000
1000
0001
1000
0001
0100
0000
0010
0100
0001
0000
,
1000
0100
0010
0100
1000
0000
0010
0100
1000
0000
0100
0010
0000
0010
0100
0000
,
0001
0010
0100
0010
0001
0000
0100
0010
0001
0000
0010
0100
0000
0100
0010
0000
,
1000
0100
0010
0100
1000
0000
0010
0100
1000
0000
0100
0010
0000
0010
0100
0000
,
0001
0000
0000
0000
0000
0000
1001
0000
0000
0000
1000
0000
0010
0100
0010
0100
,
0001
1000
0100
0010
0001
0010
0100
1000
0001
1000
0100
0010
0001
0010
0100
1000
,
0001
1000
0100
0010
0001
0010
0100
1000
0001
1000
0100
0010
0001
0010
0100
1000
,
0001
1000
0100
0010
0001
0010
0100
1000
0001
1000
0100
0010
0001
0010
0100
1000
,
0001
1000
0100
0010
0001
0010
0100
1000
0001
1000
0100
0010
0001
0010
0100
1000
,
0001
1000
0100
0010
0001
0010
0100
1000
0001
1000
0100
0010
0001
0010
0100
1000
,
0001
0000
1001
0000
0001
0100
0010
0000
0100
0000
0110
0000
0100
0010
1000
0000
,
0010
0000
1010
0000
0010
0100
0001
0000
0100
0000
0101
0000
0100
0001
0010
0000
,
0001
0000
0011
0000
0001
1000
0100
0000
1000
0000
1100
0000
1000
0010
0100
0000
,
0010
0000
0110
0000
0010
1000
0001
0000
1000
0000
1001
0000
1000
0100
0010
0000
,
0001
0000
0011
0000
0001
1000
0010
0000
1000
0000
1010
0000
1000
0010
0100
0000
,
0110
0000
0000
1010
0000
0000
1001
0000
0101
0000
0000
0011
0000
0000
1001
0000
,
0000
0101
0000
0000
0011
0000
0000
1010
0000
0000
1100
0000
0110
0000
0011
0000
,
2002
0000
0000
3003
,
0100
1000
0010
0100
0010
0000
0100
0001
0010
0100
0010
0000
0100
1000
0010
0100
,
0001
2002
0000
0000
,
0000
3003
0000
0000
,
0000
0000
0000
0000
;
#NOTES:
     dance-single:
     :
     Challenge:
     18:
     :
0000
0000
0000
0000
,
0000
0000
0000
0000
,
0000
0000
0000
0000
,
0000
0000
0000
0000
,
0000
0000
0000
0000
,
0000
0000
0000
0000
,
1000
0000
0000
0010
0000
0000
0100
0000
0000
0001
0000
0000
1000
0000
0000
0000
0000
0000
0001
0000
0010
0000
0100
0000
2000
0000
0000
0000
0000
0000
0000
0000
0000
0000
0000
0000
0000
0000
0000
0000
0000
0000
3000
0000
0000
0001
0000
0000
,
0100
0000
0000
0010
0000
0000
1000
0000
0000
0100
0000
0000
0010
0000
0000
0000
0000
0000
0001
0000
0010
0000
0100
0000
1000
0000
0000
0001
0000
0000
0100
0000
0000
0001
0000
0000
1000
0000
0000
0010
0000
0000
0100
0000
0000
0001
0000
0000
,
0000
1000
0100
0010
0001
0000
0000
0000
1000
0100
0010
0001
0000
0100
0010
0000
,
1000
0100
0010
0001
0000
0100
0010
0000
1000
0100
0010
0001
0000
0100
0010
0000
,
1000
0100
0010
0000
0001
1000
0000
0001
0100
0010
1000
0000
0001
1000
0000
0001
,
1000
0100
0010
0000
0001
1000
0000
0001
0100
0010
1000
0000
0001
1000
0000
0001
,
0010
0100
1000
0000
0001
1000
0000
1000
0100
0010
0001
0000
1000
0001
0000
0001
,
0010
0100
1000
0000
1000
0001
0000
0001
0100
0010
1000
0000
0001
0000
1000
0000
,
1100
0010
0001
0000
0100
0010
1000
0100
0010
0001
0100
0000
0001
0010
0100
1000
,
0010
0100
0001
0000
1000
0100
0010
0001
0100
0010
1000
0000
0001
0010
0100
1000
,
0010
0100
0001
0000
1000
0010
0100
0001
0010
0100
1000
0001
0100
0010
1000
0100
,
0220
0000
0000
0330
2002
0000
0000
3003
,
1100
0011
0100
1000
0101
1010
0100
0001
,
1010
0101
0010
1000
0011
1100
0010
0001
,
1001
0011
0000
1100
1001
1010
0000
0101
,
1001
1010
0000
1100
0110
0011
0000
1000
,
0011
1010
0100
1000
1100
0101
0010
0100
,
1010
1100
0010
0100
0011
0101
0010
1000
,
1001
0101
0001
0010
1001
1100
1000
0001
,
0010
0001
0100
1000
0100
0001
1000
0010
1000
0100
0001
0100
1000
0001
0100
0000
,
1020
1000
0100
0100
0001
0001
0100
0130
,
2010
0010
0001
0001
0100
0100
0001
3001
,
0012
0010
1000
1000
0100
0100
1000
1003
,
0010
1000
0100
0001
0010
1000
0100
0001
,
0021
0001
0100
0130
2001
0001
0010
3010
,
0102
0100
1000
1003
0210
0010
0001
0301
,
2010
0010
0100
3100
0012
0010
0100
0103
,
0000
0010
0000
0010
0000
0010
0000
0010
,
1001
0100
0001
0000
0000
0000
0100
0000
0110
1000
0001
0000
0000
0000
0001
0000
,
0110
0001
1000
0000
0000
0000
0100
0000
0101
0010
1000
0000
0000
0000
0010
0000
,
1100
0001
0100
0000
0000
0000
0010
0000
0011
1000
0001
0000
0000
0000
0001
0000
,
1010
0100
0010
0000
0000
0000
1000
0000
0110
0001
0010
0000
0000
0000
0001
0000
,
1001
0010
0100
0000
0001
0000
1000
0000
0110
0001
1000
0000
0010
0000
0100
0000
,
1000
0100
0001
0100
0010
0001
0100
1000
0100
0010
1000
0100
0010
0001
1000
0010
,
0100
0001
1000
0010
0001
0010
0100
0001
0010
1000
0010
0100
1000
0100
0010
0001
,
0022
0000
0000
0033
,
2100
0000
3001
0010
2000
0000
3001
0100
,
2000
0000
0000
0000
3001
0010
0100
1000
0010
0000
1000
0000
0001
0000
0100
0000
,
0102
0000
1003
0010
0002
0000
1003
0100
,
0002
0000
0000
0000
1003
0010
0100
0001
1000
0000
0001
0000
0010
0000
0100
0000
,
2200
0000
0000
3300
0001
0100
1000
0010
,
0022
0000
0000
0033
1000
0100
0001
0010
,
1000
0010
0001
0010
1000
0000
0000
0000
0001
0100
1000
0100
0001
0000
0000
0000
,
0010
0001
0100
0010
0100
0001
1000
0100
0010
0100
2000
0000
0000
0000
3000
0000
,
0101
0000
0010
0000
1010
0000
0100
0001
0010
0000
0001
0000
1100
0000
0010
0000
,
0101
0000
1000
0000
0001
0000
0100
0010
1000
0000
0010
0000
0110
0000
0001
0000
,
1100
0000
0010
0000
0011
0000
0100
1000
0010
0000
1000
0000
0101
0000
0010
0000
,
1100
0000
0001
0000
1000
0100
0010
0001
0100
0000
0001
0000
0010
0000
1000
0000
,
0021
0000
0100
0000
1030
0010
0001
0100
,
1020
0000
0100
0000
0031
0010
1000
0100
,
1000
0010
0001
0010
1000
0000
0000
0000
0001
0100
1000
0100
0001
0000
0000
0000
,
1000
0100
0010
0001
1000
0010
0100
0001
0100
0010
1000
0100
0010
0001
1000
0000
,
0001
0010
0100
1000
0001
0000
0001
0010
0100
1000
0001
0000
0010
0100
0010
0100
,
1000
0010
0100
0001
1000
0000
1000
0010
0100
0001
1000
0000
0010
0100
0010
0100
,
0001
0100
0010
1000
0001
0000
0001
0100
0010
1000
0001
0000
0010
0100
0010
0100
,
1000
0100
0010
0001
1000
0000
1000
0100
0010
0001
1000
0000
0001
1000
0001
0000
,
0100
0010
1000
0100
0010
0000
0100
0010
0100
1000
0010
0100
1000
0100
0010
0000
,
0010
0100
0001
0010
0100
0000
0010
0100
0010
0001
0100
0010
0001
0010
0100
0000
,
0001
0100
1000
0100
0001
0000
1000
0100
0001
0100
1000
0100
0010
0100
0001
0000
,
0100
0000
0000
1001
0000
0110
0110
0110
,
1000
0000
0100
0000
0010
0000
0001
0000
0000
0100
0000
0000
0010
0000
0000
1000
0000
0000
0100
0000
0000
0010
0000
0000
0001
0000
0010
0000
0100
0000
1000
0000
0000
0010
0000
0000
0100
0000
0000
0001
0000
0000
0010
0000
0000
0100
0000
0000
,
1000
0000
0100
0000
0010
0000
0001
0000
0000
0100
0000
0000
0010
0000
0000
1000
0000
0000
0100
0000
0000
0010
0000
0000
0001
0000
0010
0000
0100
0000
1000
0000
0000
0010
0000
0000
0100
0000
0000
0001
0000
0000
0010
0000
0000
0100
0000
0000
,
1000
0000
0100
0000
0010
0000
0001
0000
0000
0100
0000
0000
0010
0000
0000
1000
0000
0000
0001
0000
0010
0000
0100
0000
2000
0000
0000
0000
0000
0000
0000
0000
0000
0000
0000
0000
0000
0000
0000
0000
0000
0000
3000
0000
0000
0000
0000
0000
,
1000
0000
0000
0100
0000
0000
0010
0000
0000
0001
0000
0000
0010
0000
0001
0000
0100
0000
0010
0000
0000
1000
0000
0000
0001
0000
0000
0100
0000
0000
0010
0000
0000
1000
0000
0000
0001
0000
0010
0000
0100
0000
1000
0000
0000
0001
0000
0000
,
1000
0000
0000
0100
0000
0000
0010
0000
0000
0001
0000
0000
0010
0000
0000
0100
0000
0000
1000
0000
0000
0001
0000
0000
1000
0000
0100
0000
0010
0000
0001
0000
0010
0000
0100
0000
1000
0000
0100
0000
0010
0000
0001
0000
0010
0000
0100
0000
,
1000
0000
0101
0000
1001
0000
0100
0010
0001
0000
1100
0000
1001
0000
0100
0010
,
1000
0000
0101
0000
1001
0000
0010
0100
0001
0000
1010
0000
1001
0000
0100
0010
,
1000
0000
0110
0000
1010
0000
0001
0010
0100
0000
1001
0000
1100
0000
0010
1000
,
0001
0000
1010
0000
0101
0000
0100
0001
0010
0000
1100
0000
0011
0000
0001
1000
,
0100
0000
1001
0000
0110
0000
0010
0001
1000
0000
0110
0000
1001
0000
0001
0000
,
0010
0100
0001
0100
0010
0001
0100
1000
0100
0010
1000
0100
0010
0001
1000
0010
,
0100
0001
1000
0010
0001
0010
0100
0001
0010
1000
0010
0100
1000
0100
0010
0001
,
0022
0000
0000
0000
0000
0033
1001
0000
,
0011
0100
1000
0001
0100
0000
1010
0100
0001
0010
0100
0000
0110
1000
0001
1000
,
0001
0220
0000
0000
,
0000
0330
0000
0000
,
0000
0000
0000
0000
;
#NOTES:
     dance-double:
     :
     Easy:
     8:
     :
00000000
00000000
00000000
00000000
,
00000000
00000000
00000000
00000000
,
00000000
00000000
00000000
00000000
,
00000000
00000000
00000000
00000000
,
00000000
00000000
00000000
00000000
,
00000000
00000000
00000000
00000000
,
00000000
00000000
00000000
00000000
,
00000000
00000000
00000000
00000000
,
00000000
00000000
00000000
00000000
,
00000000
00000000
00000000
00000000
,
00000001
00000001
00000001
00000001
,
00000100
00000100
00000100
00000100
,
00010000
00010000
00010000
00010000
,
01000000
00000000
01000000
00000000
01000000
00000000
01000000
01000000
,
01000000
00100000
10000000
00010000
,
01000000
00001000
00010000
00000100
,
00001000
00000000
00000010
00000000
00000100
00000100
00000100
00000000
,
00000002
00000003
00002000
00003000
,
00000001
00000001
00000000
00000000
00000100
00000100
00000000
00000000
,
00001000
00001000
00000000
00000000
00000010
00000010
00000000
00000000
,
00010000
00010000
00000000
00000000
00100000
00100000
00000000
00000000
,
10000000
10000000
00000000
00000000
01000000
01000000
00000000
00000000
,
00001000
00001000
00000000
00000000
00000100
00000100
00000000
00000000
,
00000001
00000001
00000000
00000000
00000010
00000010
00000000
00000000
,
00001000
00001000
00000000
00000000
00010000
00010000
00000000
00000000
,
00001000
00010000
00100000
01000000
,
10000000
11000000
00010000
00100000
,
00001000
00011000
00000100
00000010
,
00000001
00000101
00001000
00000010
,
00000200
00002300
00023000
00130000
,
10000000
10010000
10000000
01000000
,
00010000
00011000
00010000
00000100
,
00001000
00001001
00001000
00000100
,
00000000
00000010
00000000
00000010
,
00000001
00000001
00000000
00000001
00000001
00000001
00000000
00000000
,
00000100
00000100
00000000
00000100
00000100
00000100
00000000
00000000
,
00001000
00001000
00000000
00001000
00001000
00001000
00000000
00000000
,
00010000
00010000
00000000
00010000
00010000
00010000
00000000
00000000
,
00100000
00100000
00000000
00100000
00100000
00100000
00000000
00000000
,
10000000
10100000
01000000
01001000
,
00011000
00000010
00001010
00000100
,
00002002
00000000
00000000
00003003
,
00000020
00000001
00000100
00001030
,
00020000
00000010
00001000
00130000
,
02000000
10000000
00100000
03010000
,
00002000
01000000
00010000
00003100
,
00000110
00000000
00000100
00001000
,
00011000
00000000
00010000
01000000
,
01100000
00000000
10010000
00000000
,
10000000
00010000
01100000
00000000
,
00200000
00010000
00302000
00100000
,
00023000
00001000
00030020
00010000
,
00000230
00000010
00002300
00000100
,
00023000
00001000
02030000
03100000
,
10010000
00000000
10000000
00010000
,
00011000
00000000
00001000
00000001
,
00001001
00000000
00000110
00000000
,
00000001
00000010
00000100
00001000
,
00010000
00000000
00000000
00001000
00000000
00000000
00011000
00000000
,
00100000
00000000
00000000
10000000
00000000
00000000
10100000
00000000
,
01000000
00000000
00000000
00010000
00000000
00000000
01010000
00000000
,
00001000
00000000
00000000
00000100
00000000
00000000
00001100
00000000
,
00000001
00000000
00000000
00001000
00000000
00000000
00000010
00000010
,
00000010
00000000
00000000
00000100
00000000
00000000
00001000
00001000
,
00001000
00000000
00000000
00010000
00000000
00000000
00100000
00100000
,
00100000
00000000
00000000
01000000
00000000
00000000
01100000
00000000
,
20000000
32000000
03200000
00320000
,
00032000
00003200
00000320
00000032
,
00000023
00000230
00002300
00023000
,
00230000
02300000
23000000
32000000
,
03200000
00320000
00032000
00003200
,
00000310
00000010
00000000
00000010
00000010
00000010
00000000
00000000
,
00000001
00000001
00000000
00000001
00000001
00000001
00000000
00000000
,
00000100
00000100
00000000
00000100
00000100
00000100
00000000
00000000
,
00001000
00001000
00000000
00001000
00001000
00001000
00000000
00010000
,
00010000
00010000
00000000
01000000
01000000
01000000
00000000
10000000
,
10000000
10010000
00100000
00101000
,
00011000
00001010
00000100
00000101
,
00002002
00000000
00000000
00003003
,
00000110
00000000
00000010
00000100
00000000
00001000
00010000
01000000
,
10000000
20020000
00000000
00000000
,
00000000
30030000
00000000
00000000
,
00000000
00000000
00000000
00000000
;
#NOTES:
     dance-double:
     :
     Medium:
     12:
     :
00000000
00000000
00000000
00000000
,
00000000
00000000
00000000
00000000
,
00000000
00000000
00000000
00000000
,
00000000
00000000
00000000
00000000
,
00000000
00000000
00000000
00000000
,
00000000
00000000
00000000
00000000
,
00000000
00000000
00000000
00000000
,
00000000
00000000
00000000
00000000
,
00000000
00000000
00000000
00000000
,
00000000
00000000
00000000
00000000
,
00001000
00010000
00000000
00010000
01000000
10000000
00000000
10000000
,
01000000
00010000
00000000
00001000
00000100
00000001
00000000
00000001
,
00000100
00001000
00000000
00010000
01000000
10000000
00000000
10000000
,
01000000
00010000
00000000
00001000
00000100
00000001
00000000
00000001
,
00000010
00001000
00000000
00010000
01000000
10000000
00000000
10000000
,
00100000
00010000
00000000
00001000
00000100
00000001
00000000
00000001
,
00000010
00001000
00000000
00010000
00100000
10000000
00000000
00100000
,
00020000
00030000
00002000
00003000
,
00011000
00000000
00010000
00001000
00000100
00000000
00000001
00000100
,
00001000
00000000
00000001
00000010
00001000
00000000
00001000
00000100
,
00000001
00000001
00000000
00001000
00000100
00000100
00000000
00010000
,
00001000
00001000
00000000
01000000
00010000
00010000
00000000
10000000
,
00010000
00100000
10000000
00000000
00010000
01000000
10000000
00000000
,
10000000
01000000
00010000
00000000
00001000
00010000
01000000
00010000
,
00001000
00000100
00000001
00000000
00001000
00000100
00000010
00000000
,
00000010
00000001
00000100
00000010
00001000
00000100
00010000
00000000
,
00001000
00001000
00010000
00010000
01000000
01000000
10000000
10000000
,
01000000
01000000
00010000
00010000
00001000
00001000
00000100
00000100
,
00000001
00000001
00000100
00000100
00001000
00001000
00010000
00010000
,
01000000
01000000
00010000
00010000
00001000
00001000
00000010
00000010
,
00000001
00000001
00000100
00000100
00001000
00001000
00010000
00010000
,
00100000
00100000
10000000
10000000
01000000
01000000
00010000
00010000
,
00001000
00001000
00000100
00000100
00000001
00000001
00000010
00000010
,
00002000
00023000
02030000
13000000
,
00010000
10000000
00000000
10000000
11000000
10000000
00000000
01000000
,
01100000
01000000
00000000
00010000
00011000
00010000
00000000
00001000
,
00011000
00001000
00000000
00000100
00000110
00000100
00000000
00000001
,
00000101
00000001
00000000
00000100
00000110
00000100
00000000
00001000
,
00011000
00001000
00000000
00010000
00011000
00010000
00000000
01000000
,
10000000
00000000
00000000
01000000
00000000
00000000
00100000
00000000
00010000
00000000
00000000
01000000
00000000
00000000
00100000
00000000
,
00000000
00010000
00000000
00000000
00001000
00000000
00000000
00000100
00000000
00000000
00000010
00000000
00000001
00000000
00001000
00000000
,
00002002
00000000
00000000
00003003
,
00002000
00000000
00000100
00000000
00000010
00000000
00003001
00000100
,
00002000
00000000
00013000
01000000
20000000
00000000
00100000
00000000
,
30020000
00000000
01000000
00000000
00100000
00000000
10030000
01000000
,
00020000
00000000
00031000
00000010
00000002
00000000
00001003
00000001
,
00000022
00000000
00000033
00000000
00000001
00000100
00001000
00010000
,
00022000
00000000
00033000
00000000
00001000
00010000
01000000
10000000
,
00010000
10000000
00010000
00000000
00000000
00000000
00000000
00000000
10000000
00010000
10000000
00000000
00000000
00000000
00000000
00000000
,
00100000
00010000
01000000
00100000
10000000
02000000
00000000
03000000
,
00020000
00000000
00031000
00010000
02000000
00000000
13000000
00100000
,
00020000
00000000
00031000
00010000
00100000
00000000
00010000
00000000
,
00002000
00000000
00013000
00001000
00000200
00000000
00000301
00000010
,
00002000
00000000
00013000
00001000
00000100
00000000
00001000
00010000
,
00021000
00000000
01030000
00000000
10000000
00100000
01000000
00001000
,
00012000
00000000
00003100
00000000
00000001
00000010
00000100
00001000
,
00000001
00001000
00000001
00000000
00000000
00000000
00000000
00000000
00000100
00000010
00000100
00000000
00000000
00000000
00000000
00000000
,
00001000
00000100
00010000
00001000
00100000
00010000
01000000
00100000
,
10000000
00000000
00000000
10010000
00000000
00100000
10000000
01000000
,
00010000
00000000
00000000
01100000
00000000
00100000
01000000
00010000
,
00001000
00000000
00000000
00011000
00000000
00010000
00001000
00000100
,
00000001
00000000
00000000
00001001
00000000
00000001
00001000
00000000
,
00000001
00000001
00000001
00001000
00000100
00010000
00000010
00001000
,
00000100
00000100
00000100
00010000
00000100
00100000
00001000
00010000
,
00001000
00001000
00001000
01000000
00010000
00100000
00001000
01000000
,
01010000
00000000
00000000
10010000
00000000
00100000
01000000
00000000
,
10000000
01000000
00010000
00001000
00001000
00010000
01000000
10000000
,
01000000
00010000
00001000
00000100
00000100
00001000
00010000
01000000
,
00010000
00001000
00000100
00000001
00000001
00000100
00001000
00010000
,
00001000
00000100
00000001
00000010
00000010
00000001
00000100
00001000
,
00010000
00001000
00000100
00000001
00000001
00000100
00001000
00010000
,
01000000
11000000
00000000
10000000
00100000
00010000
00000000
00010000
,
00011000
00001000
00000000
00001000
00000100
00000001
00000000
00000001
,
00001001
00000001
00000000
00000001
00000010
00001000
00000000
00001000
,
00011000
00010000
00000000
00010000
01000000
10000000
00000000
10000000
,
10010000
10000000
00000000
10000000
00100000
00010000
00000000
00100000
,
10000000
00000000
00000000
01000000
00000000
00000000
00100000
00000000
00010000
00000000
00000000
01000000
00000000
00000000
00100000
00000000
,
00000000
00010000
00000000
00000000
00001000
00000000
00000000
00000100
00000000
00000000
00000010
00000000
00000001
00000000
00001000
00000000
,
00002002
00000000
00000000
00003003
,
00000001
00000010
00000100
00001000
00010000
00100000
01000000
10000000
,
00010000
20020000
00000000
00000000
,
00000000
30030000
00000000
00000000
,
00000000
00000000
00000000
00000000
;
#NOTES:
     dance-double:
     :
     Hard:
     16:
     :
00000000
00000000
00000000
00000000
,
00000000
00000000
00000000
00000000
,
00000000
00000000
00000000
00000000
,
00000000
00000000
00000000
00000000
,
00000000
00000000
00000000
00000000
,
00000000
00000000
00000000
00000000
,
00000000
00000000
00000000
00000000
,
00000000
00000000
00000000
00000000
,
00000000
00000000
00000000
00000000
,
00000000
00000000
00000000
00000000
,
00010000
00001000
01000000
00000000
00010000
00000000
00100000
00000000
01000000
10000000
00010000
00000000
01000000
00000000
00001000
00000000
,
00010000
00000010
00001000
00000000
00000100
00000000
00010000
00000000
00000010
00001000
00000001
00000000
00000010
00000000
00000100
00000000
,
00010000
00000010
00001000
00000000
00000100
00000000
00010000
00000000
00001000
00100000
00010000
00000000
01000000
00000000
00100000
00000000
,
10000000
00010000
01000000
00000000
00001000
00000000
00100000
00000000
00010000
01000000
00001000
00000000
00010000
00000000
00000100
00000000
,
00001000
00000001
00000100
00000000
00000010
00000000
00001000
00000000
00000100
00010000
00001000
00000000
00010000
00000000
01000000
00000000
,
00100000
00010000
10000000
00000000
00100000
00000000
10000000
00000000
00010000
01000000
00100000
00000000
00010000
00000000
00001000
00000000
,
00010000
00000100
00001000
00000000
00000001
00000000
00000010
00000000
00001000
00000000
00001000
00000000
00010000
00000000
00010000
00000000
,
00022000
00033000
02200000
03300000
,
10000000
11000000
10000000
01000000
00100000
01100000
00100000
00001000
,
00010000
00011000
00010000
00000100
00000010
00000110
00000010
00000001
,
00001000
00001001
00001000
00000001
00000100
00000110
00000100
00001000
,
00010000
00011000
00010000
00001000
00100000
01100000
00100000
00010000
,
10000000
11000000
01000000
00100000
00001000
00011000
00001000
00010000
,
00000100
00000110
00000100
00000010
00000001
00001001
00000001
00000100
,
00000010
00000110
00000010
00010000
00001000
00011000
00010000
00001000
,
00010000
00001000
00010000
00001000
00100000
00010000
00100000
00010000
01000000
00100000
01000000
00100000
10000000
01000000
10000000
00000000
,
11000000
11000000
00100000
00100000
00001000
00001000
00010000
00010000
,
00001100
00001100
00000010
00000010
00000001
00000001
00000100
00000100
,
00001010
00001010
00000100
00000100
00010000
00010000
00001000
00001000
,
01020000
01000000
10000000
10000000
00100000
00100000
00001000
00031000
,
00001100
00001100
00000001
00000001
00000100
00000100
00001000
00001000
,
00011000
00011000
01000000
01000000
10000000
10000000
00010000
00010000
,
10100000
10100000
00010000
00010000
00001000
00001000
00000010
00000010
,
00002100
00000100
00000001
00000001
00000010
00000010
00010000
00013000
,
01000000
00000000
01010000
00000000
00000000
00000000
10000000
01000000
00100000
00000000
01100000
00000000
00000000
00000000
01000000
00010000
,
00001000
00000000
00011000
00000000
00000000
00000000
00001000
00000010
00000100
00000000
00000110
00000000
00000000
00000000
00000001
00000100
,
00000010
00000000
00000110
00000000
00000000
00000000
00000100
00001000
00010000
00000000
00011000
00000000
00000000
00000000
00010000
00100000
,
01000000
00000000
01100000
00000000
00000000
00000000
10000000
01000000
00100000
00000000
01100000
00000000
00000000
00000000
01000000
00010000
,
00001000
00000000
00000100
00000000
00000001
00000000
00000100
00001000
00010000
00000000
01000000
00000000
10000000
00000000
00010000
00000000
,
11000000
00000000
00000000
01100000
00000000
00000000
00110000
00000000
01010000
00000000
00000000
10100000
00000000
00000000
01010000
00000000
,
00000000
00101000
00000000
00000000
00010100
00000000
00000000
00001100
00000000
00000000
00001010
00000000
00000110
00000000
00000101
00000000
,
00000022
00000000
00000000
00000033
,
00002001
00000000
00000000
00000000
00003100
00000000
00000010
00000100
00002000
00000000
00000000
00000000
00003001
00000000
00000100
00000000
,
00001020
00000000
00000000
00000000
00010030
00000000
00001000
00010000
01000000
00000000
10000000
00000000
00010000
00000000
01000000
00000000
,
10200000
00000000
00000000
00000000
01300000
00000000
00010000
00100000
02000000
00000000
00000000
00000000
13000000
00000000
00100000
00000000
,
02010000
00000000
00000000
00000000
03001000
00100000
00010000
01000000
00001000
00000000
00010000
00000000
00000010
00000000
00001000
00000000
,
00002100
00000000
00000001
00000000
00003010
00001000
00010000
01000000
,
01020000
00000000
10000000
00000000
00130000
00010000
00001000
00000100
,
00000010
00000001
00000010
00000001
00000010
00000000
00000000
00000000
00000010
00001000
00000010
00001000
00000010
00000000
00000000
00000000
,
00000010
00000001
00000100
00000010
00001000
00000100
00010000
00001000
00100000
00010000
02000000
00000000
00000000
00000000
03100000
00000000
,
10020000
00000000
00000000
00000000
00130000
00000000
01000000
00100000
00020000
00000000
00000000
00000000
10030000
00000000
00100000
00000000
,
02010000
00000000
00000000
00000000
03001000
00000000
00010000
00001000
00000010
00000000
00000001
00000000
00001000
00000000
00000010
00000000
,
00000201
00000000
00000000
00000000
00000310
00000000
00001000
00000100
00000020
00000000
00000000
00000000
00000031
00000000
00000100
00000000
,
00001020
00000000
00000000
00000000
00010030
00000100
00001000
00000010
00010000
00000000
00001000
00000000
00100000
00000000
00010000
00000000
,
01020000
00000000
10000000
00000000
00130000
00010000
00001000
00000010
,
00002100
00000000
00000001
00000000
00003010
00001000
00010000
00100000
,
01000000
10000000
01000000
10000000
01000000
00000000
00000000
00000000
01000000
00010000
01000000
00010000
01000000
00000000
00000000
00000000
,
10000000
01000000
00100000
00000000
00100000
00010000
00001000
00000000
00001000
00000100
00000010
00000000
00000010
00000001
00001000
00000000
,
00001001
00000000
00000001
00000100
00000001
00000000
00000110
00000000
00000010
00001000
00000010
00000000
00001000
00000100
00001000
00000000
,
00010100
00000000
00010000
00001000
00010000
00000000
00011000
00000000
00001000
00100000
00001000
00000000
00100000
00010000
00100000
00000000
,
10010000
00000000
10000000
00100000
10000000
00000000
01100000
00000000
01000000
00010000
01000000
00000000
00010000
00100000
00010000
00000000
,
00101000
00000000
00001000
00010000
00001000
00000000
00010100
00000000
00000100
00001000
00000100
00000000
00001000
00000001
00001000
00000000
,
00000001
00000010
00000100
00000010
00000001
00000000
00000100
00000000
00001000
00000000
00000001
00000010
00000000
00000010
00001000
00000000
,
00000010
00000100
00001000
00000100
00000010
00000000
00001000
00000000
00000100
00000000
00000010
00001000
00000000
00001000
00010000
00000000
,
00001000
00010000
00100000
00010000
00001000
00000000
00010000
00000000
01000000
00000000
10000000
00010000
00000000
00010000
00100000
00000000
,
01000000
00000000
00000000
10010000
00000000
10000000
00010000
10010000
,
10000000
01000000
00100000
00000000
00010000
00100000
01000000
00000000
00010000
00001000
00000010
00000000
00000001
00000010
00000100
00000000
,
00010000
00001000
00000100
00000000
00000010
00000100
00001000
00000000
01000000
00100000
00010000
00000000
00001000
00010000
00100000
00000000
,
10000000
01000000
00100000
00010000
01000000
00000000
00001000
00100000
00020000
00000000
00000000
00000000
00030000
00000000
00000000
00000000
,
01000000
00010000
00100000
00001000
00000000
00010000
00001000
00000000
01000000
00010000
00100000
00001000
00000000
00010000
00001000
00000000
,
01000000
00010000
00100000
00001000
00010000
00001000
00000100
00000010
00001000
00000001
00000100
00000001
00000010
00000100
00001000
00000001
,
00000100
00000000
00000100
00000000
00000010
00000100
00001000
00000000
00010000
00000000
00010000
00000000
00001000
00010000
01000000
00000000
,
10000000
00000000
10000000
00000000
00100000
01000000
10000000
00000000
01000000
00000000
01000000
00000000
00100000
00010000
00001000
00000000
,
00010000
00000000
00010000
00000000
00001000
00000100
00000010
00000000
00001000
00000000
00001000
00000000
00000001
00000010
00000100
00000000
,
00000010
00000000
00000010
00000000
00000100
00001000
00010000
00000000
00100000
00000000
00100000
00000000
00001000
00010000
01000000
00000000
,
10000000
00000000
10000000
00000000
00010000
01000000
00100000
00000000
10000000
00000000
10000000
00000000
00010000
00100000
01000000
00000000
,
11000000
00000000
00000000
01100000
00000000
00000000
00110000
00000000
01010000
00000000
00000000
10100000
00000000
00000000
01010000
00000000
,
00000000
00101000
00000000
00000000
00010100
00000000
00000000
00001100
00000000
00000000
00001010
00000000
00000110
00000000
00000101
00000000
,
00000022
00000000
00000000
00000033
,
00000010
00000001
00000100
00000010
00001000
00000000
00000100
00010000
00001000
00100000
00010000
00000000
01000000
00010000
10000000
00100000
,
01000000
22000000
00000000
00000000
,
00000000
33000000
00000000
00000000
,
00000000
00000000
00000000
00000000
;
#NOTES:
     dance-double:
     :
     Challenge:
     18:
     :
00000000
00000000
00000000
00000000
,
00000000
00000000
00000000
00000000
,
00000000
00000000
00000000
00000000
,
00000000
00000000
00000000
00000000
,
00000000
00000000
00000000
00000000
,
00000000
00000000
00000000
00000000
,
00000000
00000000
00000000
00000000
,
00000000
00000000
00000000
00000000
,
00000000
00000000
00000000
00000000
,
00000000
00000000
00000000
00000000
,
11000000
00000000
00100000
00000000
00010000
01000000
00100000
00000000
10000000
00000000
00010000
00000000
00100000
00001000
00010000
00000000
,
00011000
00000000
00000100
00000000
00001000
00000010
00000100
00000000
00000010
00000000
00001000
00000000
00000001
00000100
00000010
00000000
,
00000110
00000000
00001000
00000000
00000001
00001000
00000100
00000000
00000010
00000000
00001000
00000000
00010000
00001000
00100000
00000000
,
00101000
00000000
00010000
00000000
00100000
00010000
01000000
00000000
10000000
00000000
01000000
00000000
00010000
00000000
01000000
00000000
,
10000000
01000000
00100000
00000000
10000000
00010000
01000000
00000000
00010000
00100000
00001000
00000000
00010000
01000000
00010000
00000000
,
00001000
00000100
00000010
00000000
00001000
00000001
00000100
00000000
00000001
00000010
00000100
00000000
00001000
00000100
00010000
00000000
,
00001000
00010000
01000000
00000000
10000000
00010000
00100000
00000000
00010000
00000000
00010000
00000000
10000000
00000000
10000000
00000000
,
02200000
00000000
00000000
03300000
20020000
00000000
00000000
30030000
,
11000000
11000000
01000000
00010000
00011000
00011000
00000100
00000001
,
00000101
00000101
00000010
00001000
00011000
00011000
01000000
10000000
,
11000000
00110000
00000000
00101000
00011000
00010010
00000000
00000110
,
00000101
00001010
00000000
00010100
00011000
01001000
00000000
00100000
,
11000000
00010000
00001000
00000100
00000101
00001000
00010000
00100000
,
10100000
00010000
00001000
00000010
00000011
00001000
00010000
01000000
,
01100000
00010000
00001000
00000100
00000110
00000010
00001000
00000100
,
00000010
00000001
00000100
00000010
00001000
00000100
00010000
00001000
00100000
00010000
01000000
00100000
10000000
01000000
00100000
00000000
,
01020000
01000000
10000000
10000000
00100000
00100000
00001000
00032000
,
00000100
00000100
00000001
00000001
00000010
00000010
00010000
00023000
,
01000000
01000000
10000000
10000000
00100000
00100000
00001000
00031000
,
00000100
00000010
00000001
00000100
00001000
00100000
00010000
10000000
,
01020000
01030000
10020000
10030000
00120000
00130000
00021000
00031000
,
00002100
00003100
00002001
00003001
00002010
00003010
00012000
00013000
,
01020000
01030000
10020000
10030000
00120000
00130000
00011000
00011000
,
00001000
00000010
00000000
00000010
00000100
00000010
00000000
00000010
,
00000001
00000000
00000110
00000000
00001000
00000000
00000001
00000100
00001000
00000000
00011000
00000000
00010000
00000000
00001000
00010000
,
01000000
00000000
01100000
00000000
00100000
00000000
00010000
01000000
10000000
00000000
01100000
00000000
00010000
00000000
10000000
01000000
,
00010000
00000000
00011000
00000000
00001000
00000000
00010000
00001000
00000010
00000000
00000110
00000000
00000100
00000000
00001000
00000010
,
00000001
00000000
00000110
00000000
00001000
00000000
00000001
00000010
00001000
00000000
00011000
00000000
00010000
00000000
00001000
00010000
,
00100000
00000000
01100000
00000000
10000000
00000000
00010000
01000000
10000000
00000000
01100000
00000000
00010000
00000000
10000000
00000000
,
01000000
00010000
00000000
00001000
00000010
00000000
00000001
00001000
00000010
00000100
00000000
00001000
00010000
00000000
00100000
01000000
,
00000000
00100000
10000000
00000000
00100000
01000000
00000000
00001000
00010000
00000000
00001000
00100000
00001000
00010000
00000010
00001000
,
00000220
00000000
00000000
00000330
,
00002010
00000000
00003100
00000010
00000012
00000000
00000103
00000010
,
00020010
00000000
00000000
00000000
00031000
00010000
00100000
01000000
10000000
00000000
01000000
00000000
00010000
00000000
00100000
00000000
,
00120000
00000000
01030000
00010000
20100000
00000000
31000000
00100000
,
00102000
00000000
00000000
00000000
00013000
00001000
00000100
00000010
00000001
00000000
00000010
00000000
00000100
00000000
00001000
00000000
,
00022000
00000000
00000000
00033000
00000100
00001000
00010000
01000000
,
20020000
00000000
00000000
30030000
01000000
00001000
00010000
00000010
,
00000100
00000010
00001000
00000100
00010000
00000000
00000000
00000000
00001000
01000000
00010000
00100000
00001000
00000000
00000000
00000000
,
00010000
01000000
00100000
01000000
00010000
00001000
00000100
00000010
00000100
00001000
00020000
00000000
00000000
00000000
00030000
00000000
,
01000000
00000000
10000000
00000000
00110000
00000000
00001000
00010000
00000100
00000000
00001000
00000000
00000011
00000000
00001000
00000010
,
00000100
00000000
00000001
00000000
00001100
00000000
00010000
00001000
00100000
00000000
00010000
00000000
11000000
00000000
00100000
00000000
,
00010000
00000000
00001000
00000000
00001010
00000000
00000100
00000010
00010000
00000000
00001000
00000000
00110000
00000000
01000000
00100000
,
00010000
00000000
00001000
00000000
00000100
00000010
00000001
00000100
00000010
00000000
00001000
00000000
00000100
00000000
00000010
00000000
,
00000021
00000000
00001000
00000000
00010030
00001000
00010000
00100000
,
12000000
00000000
00010000
00000000
03001000
00010000
00001000
00000100
,
00000010
00000001
00001000
00000100
00010000
00000000
00000000
00000000
00001000
00100000
00010000
10000000
01000000
00000000
00000000
00000000
,
01000000
00100000
01000000
10000000
00010000
00100000
01000000
00100000
00001000
00010000
00001000
00010000
00000100
00001000
00000100
00000010
,
00000001
00000100
00001000
00000100
00000001
00000000
00000001
00000010
00001000
00000010
00000001
00000000
00000001
00000100
00001000
00000000
,
00010000
00001000
00000100
00001000
00010000
00000000
00001000
00010000
01000000
00010000
00001000
00000000
00001000
00010000
01000000
00000000
,
10000000
01000000
00010000
01000000
10000000
00000000
10000000
00100000
00010000
00100000
10000000
00000000
10000000
01000000
00010000
00000000
,
00001000
00010000
00100000
00010000
00001000
00000000
00010000
00001000
00000010
00001000
00010000
00000000
00010000
00001000
00000100
00000000
,
00000001
00000100
00001000
00000100
00000001
00000000
00000010
00000100
00001000
00000000
00001000
00010000
00000000
00010000
01000000
00000000
,
10000000
01000000
00010000
01000000
10000000
00000000
01000000
00100000
00010000
00000000
00010000
00001000
00000000
00001000
00000010
00000000
,
00000001
00000010
00001000
00000010
00000001
00000000
00000100
00000010
00001000
00000000
00001000
00010000
00000000
00010000
00001000
00000000
,
00011000
00000000
00000000
01010000
00000000
01100000
01100000
01100000
,
10000000
01000000
00100000
00010000
00001000
00010000
00100000
01000000
00100000
00010000
00001000
00000100
00000010
00000100
00001000
00010000
,
00001000
00000100
00000010
00000001
00000010
00000100
00001000
00010000
00001000
00000100
00000010
00000100
00001000
00010000
00100000
01000000
,
10000000
01000000
00100000
00010000
00100000
00000000
00001000
00010000
02000000
00000000
00000000
00000000
00000000
00000000
03000000
00000000
,
00010000
00001000
00000100
00000010
00000000
00001000
00000001
00000000
00000100
00001000
00010000
00100000
00000000
10000000
00010000
00000000
,
01000000
00100000
00010000
00001000
00000100
00000010
00000100
00001000
00010000
00001000
00000100
00000010
00000100
00001000
00010000
00100000
,
01000000
01100000
00100000
10000000
11000000
00110000
01000000
00010000
,
01010000
00101000
00010000
00000100
00001100
00010010
00001000
00000010
,
00000101
00000011
00000100
00001000
00010100
00010010
00001000
01000000
,
01010000
00110000
01000000
10000000
11000000
10100000
01000000
00010000
,
01001000
00101000
00010000
00010100
00001100
00001010
00000100
00001001
,
00000100
00000001
00000010
00000100
00001000
00000010
00010000
00000100
00010000
00001000
00100000
00010000
01000000
10000000
01000000
00100000
,
10000000
01000000
00100000
00010000
10000000
00100000
01000000
00010000
00100000
00001000
00010000
00000100
00000010
00001000
00000010
00000001
,
00000022
00000000
00000000
00000033
,
00000001
00000100
00001000
00010000
00100000
00000000
10000000
01000000
00010000
00001000
00000010
00000000
00000001
00000100
00001000
00010000
,
01000000
22000000
00000000
00000000
,
00000000
33000000
00000000
00000000
,
00000000
00000000
00000000
00000000
;
