
//----- song id: mrps
#TITLE:ミライプリズム;
#ARTIST:ここなつ;
#TITLETRANSLIT:Mirai prism;
#ARTISTTRANSLIT:CocoNatsu;
#BANNER:Mirai prism.png;
#BACKGROUND:Mirai prism-bg.png;
#CDTITLE:./CDTitles/DDR (2014).png;
#MUSIC:Mirai prism.ogg;
#SAMPLESTART:70.286;
#SAMPLELENGTH:15;
#BPMS:0=140;
#NOTES:
     dance-single:
     :
     Beginner:
     2:
     :
0000
0000
0000
0000
,
0000
0000
0000
0000
,
0000
0000
0000
0000
,
0000
0000
0000
0000
,
0000
0000
0000
0000
,
0002
0000
0003
0000
,
0000
0000
0000
0000
,
2000
0000
3000
0000
,
0000
0000
0000
0000
,
1000
0000
1000
0000
,
0001
0001
0001
0000
,
0001
0000
0001
0000
,
1000
1000
1000
0000
,
0100
0000
0000
0000
,
0010
0000
0000
0000
,
0001
0000
1000
0000
,
1001
0000
0000
0000
,
2002
0000
3003
0000
,
0000
0000
0000
0000
,
0010
0000
0100
0000
,
1000
0000
0000
0000
,
0100
0000
0010
0000
,
0001
0000
0000
0000
,
1000
0000
0001
0000
,
1001
0000
0000
0000
,
0001
0000
0000
0000
,
1000
0000
0000
0000
,
0001
0000
1000
0000
,
1001
0000
0000
0000
,
0010
0000
0000
0000
,
0100
0000
0000
0000
,
0010
0000
0100
0000
,
0110
0000
0000
0000
,
2000
0000
3001
0000
,
0001
0000
0000
0000
,
0002
0000
1003
0000
,
1000
0000
0000
0000
,
0100
0000
0100
0000
,
0010
0000
0010
0000
,
2000
0000
3002
0000
,
1003
0000
0000
0000
,
0001
0000
0001
0000
,
1000
1000
1000
0000
,
1000
0000
1000
0000
,
0001
0001
0001
0000
,
0100
0000
0000
0000
,
0010
0000
0000
0000
,
1000
0000
0001
0000
,
1001
0000
0000
0000
,
1000
0000
1000
0000
,
0001
0001
0001
0000
,
0001
0000
0001
0000
,
1000
1000
1000
0000
,
0100
0000
0000
0000
,
0010
0000
0000
0000
,
0001
0000
1000
0000
,
1001
0000
0000
0000
,
0220
0000
0330
0000
,
0000
0000
0000
0000
,
0010
0000
0100
0000
,
1000
0000
0000
0000
,
0100
0000
0010
0000
,
0001
0000
0000
0000
,
1000
0000
0001
0000
,
1000
0000
1001
0000
,
0000
0000
0000
0000
;
#NOTES:
     dance-single:
     :
     Easy:
     4:
     :
0000
0000
0000
0000
,
0000
0000
0000
0000
,
0000
0000
0000
0000
,
0000
0000
0000
0000
,
0000
0000
0000
0000
,
0002
0000
0003
0000
,
2000
0000
3000
0000
,
0020
0000
0030
0000
,
0200
0000
0300
0000
,
1000
1000
0001
0000
,
0010
0010
0001
0000
,
1000
0000
0001
0000
,
0010
0100
0100
0000
,
1000
0100
0010
0000
,
0001
0010
0100
0000
,
1000
0001
0100
0000
,
2002
0000
3003
0000
,
0220
0000
0000
0000
,
0000
0330
0000
0000
,
0010
0100
0010
0000
,
1000
0001
1000
0000
,
0100
0010
0100
0010
,
0001
1000
0001
0000
,
0010
0001
1000
0000
,
0010
1000
0001
1001
,
0000
0001
0000
0001
,
1000
0100
1000
0100
,
0000
0010
0000
0010
,
0001
1000
1001
0000
,
0000
0010
0000
0010
,
1000
0001
1000
0001
,
0000
0010
0000
0010
,
0001
1000
1001
0000
,
0010
0100
0010
0000
,
0001
1000
1001
0000
,
0010
0001
1000
0000
,
0001
0100
0101
0000
,
1000
0100
1000
0100
,
0010
0001
0010
0001
,
2000
0000
3001
0000
,
0110
0000
1001
0000
,
0001
0001
1000
0000
,
0010
0010
1000
0000
,
0001
0000
1000
0000
,
0010
0100
0100
0000
,
0001
0100
0010
0000
,
1000
0010
0100
0000
,
0001
1000
0100
0000
,
2002
0000
3003
0000
,
1000
1000
0001
0000
,
0010
0010
0001
0000
,
1000
0000
0001
0000
,
0010
0100
0100
0000
,
1000
0100
0010
0000
,
0001
0010
0100
0000
,
1000
0001
0100
0000
,
2002
0000
3003
0000
,
0220
0000
0000
0000
,
0000
0330
0000
0000
,
0010
0100
0010
0000
,
1000
0001
1000
0000
,
0100
0010
0100
0010
,
0001
1000
0001
0000
,
0010
0001
1000
0000
,
0010
1000
0001
1001
,
0000
0000
0000
0000
;
#NOTES:
     dance-single:
     :
     Medium:
     7:
     :
0000
0000
0000
0000
,
0000
0000
0000
0000
,
0000
0000
0000
0000
,
0000
0000
0000
0000
,
0000
0000
0000
0000
,
0002
0000
0000
0003
,
0200
0000
0000
0300
,
0020
0000
0000
0030
,
2000
0000
0000
3000
,
1000
0000
0001
0000
0100
0010
0000
0000
,
1000
0000
0100
0000
0010
0100
0000
1000
,
0001
1000
0000
0001
1000
0001
0000
0000
,
0010
0000
0001
1000
0001
1000
0000
0000
,
0020
0000
0000
1000
0000
0000
1030
0000
,
0200
0000
0000
0001
0000
0000
0301
0000
,
0020
0000
0000
0100
0000
0000
0130
0000
,
0001
1000
0001
1000
0000
1001
0000
0000
,
0020
0000
0000
0200
0000
0000
0000
0000
,
0000
0000
0330
0000
0000
0001
0100
0000
,
0010
0000
1000
0000
0001
0000
0010
0100
,
0000
1000
0000
0001
0000
0010
0000
0000
,
1000
0000
0100
0000
0001
0000
0100
0010
,
0000
0001
0000
0010
0000
0100
1000
0000
,
0010
0000
0100
0000
0001
0000
0100
1000
,
0000
0100
0000
0010
0000
1000
0001
0000
,
1000
0000
1000
0000
0100
0010
0100
0000
,
0010
0000
0010
0000
0001
1000
0001
0000
,
0010
0010
0100
0100
,
1000
0000
1000
0000
0010
0100
0010
0000
,
1000
0000
1000
0000
0001
0100
0001
0000
,
0010
0000
0010
0000
0100
1000
0100
0000
,
0010
0010
0001
0001
,
1000
0000
0100
0010
0000
0010
0100
0000
,
2000
0000
0100
0000
3100
0010
0001
0000
,
0010
0100
0000
0110
0000
0000
0000
0000
,
0002
0000
1000
0000
1003
0010
0100
0000
,
0010
0100
0000
0110
0000
0000
0000
0000
,
0002
0100
0103
0101
,
0020
1000
1030
1010
,
1000
0100
0001
0010
,
1001
0000
0110
0110
,
1000
0000
0001
0000
0100
0010
0000
0000
,
1000
0000
0100
0000
0010
0100
0000
1000
,
0001
1000
0000
0001
1000
0001
0000
0000
,
0010
0000
0001
1000
0001
1000
0000
0000
,
0020
0000
0000
1000
0000
0000
1030
0000
,
0200
0000
0000
0001
0000
0000
0301
0000
,
0020
0000
0000
0100
0000
0000
0130
0000
,
0001
1000
0001
1000
0000
1001
0000
0000
,
0001
0000
1000
0000
0100
0010
0000
0000
,
0001
0000
0100
0000
0010
0100
0000
0001
,
1000
0001
0000
1000
0001
1000
0000
0000
,
0010
0000
1000
0001
1000
0001
0000
0000
,
0020
0000
0000
0001
0000
0000
0031
0000
,
0200
0000
0000
1000
0000
0000
1300
0000
,
0020
0000
0000
0100
0000
0000
0130
0000
,
1000
0001
1000
0001
0000
1001
0000
0000
,
0020
0000
0000
0200
0000
0000
0000
0000
,
0000
0000
0330
0000
0000
1000
0100
0000
,
0010
0000
0001
0000
1000
0000
0010
0100
,
0000
0001
0000
1000
0000
0010
0000
0000
,
0001
0000
0100
0000
1000
0000
0100
0010
,
0000
1000
0000
0010
0000
0100
0001
0000
,
0010
0000
0100
0000
1000
0000
0100
0001
,
0000
0100
0000
0010
0000
0001
1000
0000
,
0000
0000
0000
0000
;
#NOTES:
     dance-single:
     :
     Hard:
     10:
     :
0000
0000
0000
0000
,
0000
0000
0000
0000
,
0000
0000
0000
0000
,
0000
0000
0000
0000
,
0000
0000
0000
0000
,
0002
0000
0000
0010
0000
0000
0103
0000
,
2000
0000
0000
0010
0000
0000
0100
0000
,
3002
0000
0000
0010
0000
0000
0100
0000
,
2003
0000
0000
0002
0000
0000
3003
0000
,
1001
0001
1000
0100
0010
0001
0000
1000
,
0010
0100
0001
0010
0100
1000
0000
0001
,
0010
1000
0000
0001
0100
1000
0001
1000
,
0010
0100
0001
0020
0000
0130
0000
1000
,
0002
0000
0000
0100
0000
0000
0010
0000
,
2003
0000
0000
0001
0000
0000
0010
0000
,
3002
0000
0000
0100
0000
0000
1000
0000
,
0013
0100
0010
0100
0000
2002
3003
0000
,
1000
0000
0020
0200
0000
0000
0000
0000
,
0000
0000
0330
0000
0000
0001
1000
0100
,
0110
0000
0011
0000
0101
0000
1000
0001
,
0000
0011
0000
1010
0000
0001
1000
0000
,
1010
0000
0110
0000
0101
0000
0010
1000
,
0000
1001
0000
1100
0000
0010
0001
1000
,
1010
0000
1001
0000
0101
0000
0001
0010
,
0000
0110
0000
1001
0000
0110
0110
0000
,
0000
1000
0100
0010
0001
0100
0010
0000
,
0000
0100
0001
1000
0100
0001
0100
0000
,
0000
0010
0100
1000
0100
0010
0001
1000
,
0010
0000
0001
0010
0000
1000
0010
0000
,
0000
0100
0001
1000
0001
0010
0100
0000
,
0000
1000
0010
0100
0001
1000
0100
0000
,
0000
0010
0001
0100
1000
0100
0001
0010
,
0100
0000
1000
0001
0000
0100
0010
0000
,
2010
0000
0001
0000
3010
1000
0001
0100
,
0010
1000
0000
1100
0000
0010
0001
1000
,
2001
0000
0010
0000
3001
0100
0010
1000
,
0000
0100
0010
0100
0000
0010
0001
1000
,
1020
0000
0001
0000
1030
0100
0001
0201
,
0000
1000
0000
0301
0000
1000
0100
0010
,
0001
0000
0100
0010
0000
1000
0000
0002
,
0000
0000
0000
0000
0010
0000
0013
0100
,
1000
0001
1000
0100
0010
0001
0000
1000
,
0010
0100
0001
0010
0100
1000
0000
0001
,
0010
1000
0000
0001
0100
1000
0001
1000
,
0010
0100
0001
0020
0000
0130
0000
1000
,
0002
0000
0000
0100
0000
0000
0010
0000
,
2003
0000
0000
0001
0000
0000
0010
0000
,
3002
0000
0000
0100
0000
0000
1003
0100
,
0010
0001
0100
0010
0000
2002
3003
0000
,
0001
1000
0001
0100
0010
1000
0000
0001
,
0010
0100
1000
0010
0100
0001
0000
1000
,
0010
0001
0000
1000
0100
0001
1000
0001
,
0010
0100
1000
0020
0000
0130
0000
0001
,
2000
0000
0000
0100
0000
0000
0010
0000
,
3002
0000
0000
1000
0000
0000
0010
0000
,
2003
0000
0000
0100
0000
0000
0001
0000
,
3010
0100
0010
0100
0000
2002
3003
0000
,
0001
0000
0020
0200
0000
0000
0000
0000
,
0000
0000
0330
0000
0000
1000
0001
0100
,
0110
0000
1010
0000
1100
0000
0001
1000
,
0000
1010
0000
0011
0000
1000
0001
0000
,
0011
0000
0110
0000
1100
0000
0010
0001
,
0000
1001
0000
0101
0000
0010
1000
0001
,
0011
0000
1001
0000
1100
0000
1000
0010
,
0000
0110
0000
1001
0000
0110
0110
0000
,
0000
0000
0000
0000
;
#NOTES:
     dance-double:
     :
     Easy:
     4:
     :
00000000
00000000
00000000
00000000
,
00000000
00000000
00000000
00000000
,
00000000
00000000
00000000
00000000
,
00000000
00000000
00000000
00000000
,
00000000
00000000
00000000
00000000
,
00000020
00000000
00000030
00000000
,
00002000
00000000
00003000
00000000
,
00020000
00000000
00030000
00000000
,
00200000
00000000
00300000
00000000
,
10000000
10000000
00010000
00000000
,
00100000
00100000
00010000
00000000
,
00011000
00000000
00011000
00000000
,
00000010
00000001
00000001
00000000
,
00001000
00000100
00000010
00000000
,
00000001
00000010
00000100
00000000
,
00010000
00001000
00000100
00000000
,
00000220
00000000
00000330
00000000
,
00002002
00000000
00000000
00000000
,
00000000
00003003
00000000
00000000
,
00000010
00000100
00000010
00000000
,
00001000
00010000
00001000
00000000
,
00100000
01000000
00100000
01000000
,
10000000
00010000
10000000
00000000
,
00100000
00001000
00010000
00000000
,
00000010
00000100
00001000
00001001
,
00000000
00000001
00000000
00000001
,
00001000
00000100
00001000
00000100
,
00000000
00000010
00000000
00000010
,
00010000
00001000
00011000
00000000
,
00000000
00100000
00000000
00100000
,
10000000
01000000
10000000
01000000
,
00000000
00100000
00000000
00100000
,
00001000
00010000
00011000
00000000
,
00000010
00000100
00000010
00000000
,
00000001
00001000
00001001
00000000
,
00000010
00010000
00001000
00000000
,
00010000
01000000
00010000
00000000
,
10000000
01000000
10000000
01000000
,
00100000
00010000
00100000
00010000
,
00002000
00000000
00000002
00003003
,
00000110
00000000
00001001
00000000
,
00000001
00000001
00001000
00000000
,
00000010
00000010
00001000
00000000
,
00011000
00000000
00011000
00000000
,
00100000
10000000
10000000
00000000
,
00010000
01000000
00100000
00000000
,
10000000
00100000
01000000
00000000
,
00001000
00010000
01000000
00000000
,
02200000
00000000
03300000
00000000
,
10000000
10000000
00010000
00000000
,
00100000
00100000
00010000
00000000
,
00011000
00000000
00011000
00000000
,
00000010
00000001
00000001
00000000
,
00001000
00000100
00000010
00000000
,
00000001
00000010
00000100
00000000
,
00010000
00001000
00000100
00000000
,
00000220
00000000
00000330
00000000
,
00002002
00000000
00000000
00000000
,
00000000
00003003
00000000
00000000
,
00000010
00000100
00000010
00000000
,
00001000
00010000
00001000
00000000
,
00100000
01000000
00100000
01000000
,
10000000
00010000
10000000
00000000
,
00100000
00001000
00010000
00000000
,
00000010
00000100
00001000
00001001
,
00000000
00000000
00000000
00000000
;
#NOTES:
     dance-double:
     :
     Medium:
     7:
     :
00000000
00000000
00000000
00000000
,
00000000
00000000
00000000
00000000
,
00000000
00000000
00000000
00000000
,
00000000
00000000
00000000
00000000
,
00000000
00000000
00000000
00000000
,
00000002
00000000
00000000
00000103
,
00002000
00000000
00000000
00003000
,
00020000
00000000
00000000
00130000
,
20000000
00000000
00000000
30000000
,
10000000
00000000
00010000
00000000
00100000
01000000
00000000
00000000
,
00010000
00000000
00001000
00000000
00000010
00000100
00000000
00001000
,
00000001
00001000
00000000
00000001
00001000
00000001
00000000
00000000
,
00000100
00000000
00001000
00010000
00001000
00010000
00000000
00000000
,
00200000
00000000
00000000
10000000
00000000
00000000
10300000
00000000
,
02000000
00000000
00000000
00010000
00000000
00000000
03010000
00000000
,
00200000
00000000
00000000
00001000
00000000
00000000
00301000
00000000
,
00000100
00000010
00000100
00000010
00000000
00001001
00000000
00000000
,
00000002
00000000
00000000
00002000
00000000
00000000
00000000
00000000
,
00000000
00000000
00003003
00000000
00000000
00000001
00000100
00000000
,
00000010
00000000
00001000
00000000
00010000
00000000
01000000
00100000
,
00000000
10000000
00000000
00010000
00000000
00100000
00000000
00000000
,
10000000
00000000
01000000
00000000
00010000
00000000
00001000
00010000
,
00000000
00001000
00000000
00000010
00000000
00000001
00001000
00000000
,
00000010
00000000
00000100
00000000
00000001
00000000
00000100
00001000
,
00000000
00010000
00000000
00100000
00000000
10000000
00010000
00000000
,
10000000
00000000
10000000
00000000
01000000
00100000
01000000
00000000
,
00010000
00000000
00010000
00000000
00001000
00010000
00001000
00000000
,
00000010
00000010
00000001
00000001
,
00000100
00000000
00000100
00000000
00000010
00001000
00000010
00000000
,
00000001
00000000
00000001
00000000
00000100
00000010
00000100
00000000
,
00001000
00000000
00001000
00000000
00010000
00001000
00010000
00000000
,
00100000
00100000
10000000
10000000
,
01000000
00000000
00100000
00010000
00000000
00010000
00100000
00000000
,
20000000
00000000
01000000
00000000
31000000
00100000
00010000
00000000
,
00100000
01000000
00000000
01100000
00000000
00000000
00000000
00000000
,
00020000
00000000
00001000
00000000
00031000
00000010
00000001
00000000
,
00000010
00000100
00000000
00000110
00000000
00000000
00000000
00000000
,
00000002
00000100
00000103
00000101
,
00000020
00001000
00001030
00001010
,
00011000
00011000
00110000
01100000
,
10010000
00000000
01100000
01100000
,
10000000
00000000
00010000
00000000
00100000
01000000
00000000
00000000
,
00010000
00000000
00001000
00000000
00000010
00000100
00000000
00001000
,
00000001
00001000
00000000
00000001
00001000
00000001
00000000
00000000
,
00000100
00000000
00001000
00010000
00001000
00010000
00000000
00000000
,
00200000
00000000
00000000
10000000
00000000
00000000
10300000
00000000
,
02000000
00000000
00000000
00010000
00000000
00000000
03010000
00000000
,
00200000
00000000
00000000
00001000
00000000
00000000
00301000
00000000
,
00000100
00000010
00000100
00000010
00000000
00001001
00000000
00000000
,
00000001
00000000
00001000
00000000
00000010
00000100
00000000
00000000
,
00001000
00000000
00010000
00000000
00100000
01000000
00000000
00010000
,
10000000
00010000
00000000
10000000
00010000
10000000
00000000
00000000
,
01000000
00000000
00010000
00001000
00010000
00001000
00000000
00000000
,
00000020
00000000
00000000
00000001
00000000
00000000
00000031
00000000
,
00000200
00000000
00000000
00001000
00000000
00000000
00001300
00000000
,
00000020
00000000
00000000
00010000
00000000
00000000
00010030
00000000
,
00100000
01000000
00100000
01000000
00000000
10010000
00000000
00000000
,
20000000
00000000
00000000
00020000
00000000
00000000
00000000
00000000
,
00000000
00000000
30030000
00000000
00000000
01000000
00010000
00000000
,
00100000
00000000
00010000
00000000
00001000
00000000
00000100
00000010
,
00000000
00000001
00000000
00001000
00000000
00000010
00000000
00000000
,
00000001
00000000
00000100
00000000
00001000
00000000
00010000
00001000
,
00000000
00010000
00000000
00100000
00000000
10000000
00010000
00000000
,
00100000
00000000
01000000
00000000
10000000
00000000
01000000
00010000
,
00000000
00001000
00000000
00000010
00000000
00000001
00001000
00000000
,
00000000
00000000
00000000
00000000
;
#NOTES:
     dance-double:
     :
     Hard:
     11:
     :
00000000
00000000
00000000
00000000
,
00000000
00000000
00000000
00000000
,
00000000
00000000
00000000
00000000
,
00000000
00000000
00000000
00000000
,
00000000
00000000
00000000
00000000
,
00000002
00000000
00000000
00000000
,
00002003
00000000
00000000
00000000
,
00023000
00000000
00000000
00000000
,
20030000
00000000
00000000
30000000
,
10000000
00010000
10000000
01000000
00100000
00010000
00000000
00001000
,
00000010
00000100
00000001
00000010
00000100
00001000
00000000
00000001
,
00000010
00001000
00000000
00010000
00100000
10000000
01000000
00010000
,
00001000
00010000
00100000
02000000
00000000
13000000
00000000
00000000
,
00010000
01000000
00010000
10000000
00010000
00100000
00010000
00000000
,
00001000
00000100
00001000
00000001
00001000
00000010
00001000
00000000
,
00010000
01000000
00010000
10000000
00010000
00100000
00010000
00000000
,
00001000
00010000
00001000
00010000
00000000
00022000
00033000
00000000
,
00000110
00000000
00002000
00000002
00000000
00000000
00000000
00000000
,
00000000
00000000
00003003
00000000
00000000
00000001
00001000
00000100
,
00000110
00000000
00000011
00000000
00000101
00000000
00001000
00010000
,
00000000
00110000
00000000
01100000
00000000
00010000
10000000
00000000
,
11000000
00000000
01100000
00000000
01010000
00000000
00001000
00010000
,
00000000
00011000
00000000
00001010
00000000
00000001
00001000
00000100
,
00000110
00000000
00000011
00000000
00001001
00000000
00000001
00000100
,
00000000
00001100
00000000
00011000
00000000
01100000
01100000
00000000
,
10000000
01000000
00100000
00010000
10000000
00100000
00010000
00000000
,
00100000
10000000
01000000
00010000
00001000
00000010
00001000
00000000
,
00000010
00000100
00001000
00000001
00000100
00001000
00010000
00001000
,
00000010
00000001
00000100
00001000
00000001
00000010
00000100
00000000
,
00001000
00010000
00100000
10000000
01000000
00100000
00010000
00000000
,
00000010
00000100
00001000
00000010
00000100
00000001
00000010
00000000
,
00000001
00000010
00001000
00010000
00000010
00001000
00010000
01000000
,
00100000
10000000
01000000
00100000
00010000
01000000
00100000
00000000
,
10200000
00000000
00010000
00000000
10300000
10000000
00010000
01000000
,
00100000
10000000
00000000
11000000
00000000
01000000
00010000
00001000
,
00021000
00000000
00100000
00000000
00031000
00000010
00000001
00000100
,
00000000
00000001
00000010
00000001
00000000
00000010
00001000
00010000
,
00012000
00000000
00000100
00000000
00013000
00000100
00000010
00000210
,
00000000
00001000
00000000
00000310
00000000
00000001
00000100
00001000
,
00010000
00000000
00100000
10000000
00000000
01000000
00100000
00020000
,
00000000
00000000
00000000
00000000
01000000
00000000
01030000
00100000
,
10000000
00010000
10000000
01000000
00100000
00010000
00000000
00001000
,
00000010
00000100
00000001
00000010
00000100
00001000
00000000
00000001
,
00000010
00001000
00000000
00010000
00100000
10000000
01000000
00010000
,
00001000
00010000
00100000
02000000
00000000
13000000
00000000
00000000
,
00010000
01000000
00010000
10000000
00010000
00100000
00010000
00000000
,
00001000
00000100
00001000
00000001
00001000
00000010
00001000
00000000
,
00010000
01000000
00010000
10000000
00010000
00100000
00010000
00001000
,
00000100
00000010
00000001
00000100
00000000
00002002
00003003
00000000
,
00000001
00001000
00000001
00000100
00000010
00001000
00000000
00010000
,
00100000
01000000
10000000
00100000
01000000
00010000
00000000
10000000
,
00100000
00010000
00000000
00001000
00000010
00000001
00000100
00001000
,
00010000
00001000
00000010
00000200
00000000
00000301
00000000
00000000
,
00001000
00000100
00001000
00000001
00001000
00000010
00001000
00000000
,
00010000
01000000
00010000
10000000
00010000
00100000
00010000
00000000
,
00001000
00000100
00001000
00000001
00001000
00000010
00001000
00000000
,
00010000
00001000
00010000
00001000
00000000
00022000
00033000
00000000
,
01100000
00000000
00020000
20000000
00000000
00000000
00000000
00000000
,
00000000
00000000
30030000
00000000
00000000
10000000
00010000
01000000
,
01100000
00000000
10100000
00000000
11000000
00000000
00010000
00001000
,
00000000
00001010
00000000
00000110
00000000
00001000
00000001
00000000
,
00000101
00000000
00000110
00000000
00001100
00000000
00010000
00001000
,
00000000
00011000
00000000
00110000
00000000
10000000
00010000
01000000
,
01100000
00000000
10100000
00000000
10010000
00000000
10000000
01000000
,
00000000
01010000
00000000
00011000
00000000
00000110
00000110
00000000
,
00000000
00000000
00000000
00000000
;
