#TITLE:マインド・ゲーム;
#ARTIST:96 with メカショッチョー;
#TITLETRANSLIT:Mind Game;
#BANNER:Mind Game.png;
#BACKGROUND:Mind Game-bg.png;
#CDTITLE:./CDTitles/DDR (2014).png;
#MUSIC:Mind Game.ogg;
#SAMPLESTART:57.306;
#SAMPLELENGTH:15;
#BPMS:0=180;
#NOTES:
     dance-single:
     :
     Beginner:
     3:
     :
0000
0000
0000
0000
,
0000
0000
0000
0000
,
0000
0000
0000
0000
,
0000
0000
0000
0000
,
0000
0000
0000
0000
,
0000
0000
0000
0000
,
0000
0000
0000
0000
,
0100
0000
0000
0000
,
0010
0000
0000
0000
,
1000
0000
0001
0000
,
1000
0000
0000
0000
,
0001
0001
0001
0000
,
0001
0000
0100
0000
,
1000
1000
1000
0000
,
1000
0000
0100
0000
,
0010
0000
0100
0000
,
0001
0000
0100
0000
,
1000
0000
0001
0000
,
1000
0000
0000
0000
,
0100
0000
0100
0000
,
0100
0000
0100
0000
,
0100
0000
0000
0000
,
1000
0000
0000
0000
,
0001
0000
0000
0000
,
0001
0000
0001
0000
,
0001
0000
0000
0000
,
0100
0000
0000
0000
,
0001
0000
0001
0000
,
0001
0000
0001
0000
,
0001
0000
0000
0000
,
0100
0000
0000
0000
,
1000
0000
0000
0000
,
1000
0000
1000
0000
,
1000
0000
0000
0000
,
0010
0000
0000
0000
,
0100
0000
0000
0000
,
0100
0000
0100
0000
,
0001
0000
0001
0000
,
0100
0000
0000
0000
,
1000
0000
0000
0000
,
0001
0000
0001
0000
,
1000
0000
0000
0000
,
0000
0000
0000
0000
,
0100
0100
0100
0000
,
0010
0010
0010
0000
,
1000
0000
1000
0000
,
0001
0000
0001
0000
,
1000
1000
1000
0000
,
0001
0001
0001
0000
,
0100
0000
0100
0000
,
0010
0000
0010
0000
,
0010
0000
0000
0000
,
1000
0000
0000
0000
,
0001
0000
0000
0000
,
1000
0000
1000
0000
,
0100
0000
0000
0000
,
0010
0000
0000
0000
,
0100
0000
0100
0000
,
0100
0000
0000
0000
,
0001
0000
0001
0000
,
0010
0000
0010
0000
,
0100
0000
0100
0000
,
0100
0000
0000
0000
,
1000
0000
1000
0000
,
0010
0000
0010
0000
,
0100
0000
0000
0000
,
0100
0000
0000
0000
,
0001
0000
0000
0000
,
1000
0000
1000
0000
,
0001
0000
0000
0000
,
0010
0000
0010
0000
,
0010
0000
0000
0000
,
0100
0000
0000
0000
,
0001
0000
0001
0000
,
0100
0000
0000
0000
,
1000
1000
1000
0000
,
0100
0100
0100
0000
,
0001
0001
0001
0000
,
0100
0100
0100
0000
,
0010
0010
0010
0000
,
0100
0100
0100
0000
,
0001
0001
0001
0000
,
1000
1000
1000
0000
,
0001
0000
1000
0000
,
1001
0000
0000
0000
,
0000
0000
0000
0000
;
#NOTES:
     dance-single:
     :
     Easy:
     7:
     :
0000
0000
0000
0000
,
0000
0000
0000
0000
,
0000
0000
0000
0000
,
0000
0000
0000
0000
,
0000
0000
0000
0000
,
0000
0000
0000
0000
,
0000
0000
0000
0000
,
2000
0000
0000
3000
,
0020
0000
0000
0030
,
0100
0000
0001
0000
,
2000
0000
0000
3000
,
0010
1000
1000
0100
,
0001
0010
0001
1000
,
0001
0100
0100
0010
,
1000
0001
1000
0100
,
0001
1001
0000
1000
,
0010
0110
0000
0100
,
0001
0010
0100
2000
,
0000
0000
0000
3000
,
0100
0100
1000
0100
,
1000
1000
0100
1000
,
0010
0010
0000
0000
,
1000
0001
0000
0000
,
0100
0100
0010
0100
,
1000
1000
0001
1000
,
0010
0010
0100
0010
,
0001
1001
0000
1001
,
0100
0001
0100
0001
,
1000
0010
1000
0010
,
0001
1000
0001
1000
,
0010
0010
0010
0100
,
1000
0010
1000
0010
,
0100
1000
0100
1000
,
0001
0010
0001
0020
,
0030
0001
1000
0010
,
0100
0000
1001
0000
,
0100
0100
1000
0000
,
0001
0000
0110
0000
,
1000
0001
0100
0000
,
0010
0000
1001
0000
,
0010
0001
0200
0000
,
0010
0010
0010
0310
,
0000
0000
0000
0000
,
0001
0010
0100
0010
,
0001
0100
0010
0100
,
0001
0001
1000
1000
,
1001
1000
1001
0000
,
1000
0010
0100
0010
,
1000
0100
0010
0100
,
1000
1000
0001
0001
,
0010
0100
0010
0110
,
1000
0200
0300
1000
,
0001
0200
0300
0001
,
1000
0020
0030
0100
,
0001
0010
0100
1000
,
0010
2000
3000
0010
,
0100
0002
0003
0100
,
0010
1000
0001
0200
,
0300
0010
0100
0010
,
2000
0000
0000
3000
,
0200
0000
0000
0300
,
0010
0000
0001
0000
,
0200
0000
0000
0300
,
2000
0000
0000
3000
,
0002
0000
0000
0003
,
0010
1000
1000
1000
,
0001
0010
0010
0010
,
0200
0000
0000
0300
,
0001
0001
0010
0010
,
0002
0000
0003
0001
,
1000
0000
1000
0000
,
1000
1000
0001
0100
,
0010
0010
1000
0010
,
0100
0010
0100
0001
,
1000
0010
0100
0001
,
1001
1001
1001
1001
,
1001
1001
1001
1001
,
0110
0110
0110
0110
,
0110
0110
0010
0100
,
1001
1001
1001
1001
,
1001
1001
1001
1001
,
0011
0011
0011
0011
,
0110
0110
0110
0110
,
0220
0000
0000
0330
,
2002
0000
0000
0000
,
3003
0000
0000
0000
,
0000
0000
0000
0000
;
#NOTES:
     dance-single:
     :
     Medium:
     10:
     :
0000
0000
0000
0000
,
0000
0000
0000
0000
,
0000
0000
0000
0000
,
0000
0000
0000
0000
,
0000
0000
0000
0000
,
0000
0000
0000
0000
,
0000
0000
0000
0000
,
1100
0020
0000
0030
,
0101
0020
0000
0030
,
1100
0000
0000
0000
0101
0000
0000
2002
,
0000
0000
0000
3003
,
1001
1100
0100
1100
,
0001
0000
0100
0010
0000
0010
1000
0000
,
1001
0101
0100
0101
,
0010
0000
1000
0100
0000
0100
0010
0000
,
0011
2002
3000
0103
,
1010
2001
0000
3100
,
0010
0001
0010
0000
0100
1000
0001
0200
,
0000
0000
0000
0300
,
1000
0100
0010
1000
,
0001
0100
0010
0001
,
1000
0010
1000
0100
,
0001
0000
0010
0000
0100
0000
1000
0001
,
0100
0100
0001
1000
,
0010
0001
0100
0010
,
0001
1000
0001
0100
,
0010
1000
0001
0010
0000
0010
0100
0000
,
1000
0010
1000
0000
1000
0010
1000
0000
,
0001
0100
0001
0000
0001
0100
0001
0000
,
1000
0010
1000
0000
0001
0010
0001
0000
,
1000
0100
1000
0000
0001
0100
0001
0000
,
1000
0001
1000
0000
0001
0010
0001
0000
,
1000
0100
1000
0000
0001
0100
0001
0000
,
1000
0010
1000
0000
0010
0100
0010
0100
,
0000
0001
0010
0100
,
1100
1000
0000
1000
0020
0000
0000
0130
,
0000
0100
0000
0100
0010
0000
0000
0000
,
0101
0001
0000
0001
0020
0000
0000
0130
,
0000
0100
0000
0100
0010
0000
0000
0000
,
0001
1001
0000
1000
0020
0000
0000
0130
,
0000
0100
0000
0001
1000
0000
0010
0200
,
0000
0000
0010
0000
0310
0000
0010
1001
,
0000
0000
0000
0000
,
1100
0101
1100
0101
,
2010
0001
3100
0010
,
0001
1000
0001
1000
0001
0000
0100
0000
,
1010
0000
0101
0000
0010
1000
0001
0000
,
0011
1010
0011
1010
,
0012
1000
0103
0010
,
1000
0100
1000
0100
1000
0000
0010
0000
,
0100
0101
0011
1010
,
0100
0000
0100
0001
0000
1000
0001
0000
,
0100
0000
0100
1000
0000
0001
1000
0000
,
0010
0000
0010
0100
0000
0001
1000
0000
,
0100
1000
0010
0001
,
0100
0000
0010
0100
0000
0001
1000
0001
,
1000
0000
0100
0010
0000
0001
1000
0001
,
1000
0000
0010
0000
0100
0000
0000
1001
,
0000
0010
0010
0010
,
0002
0000
0000
0100
0000
0000
1003
0000
,
0020
0000
0000
0001
0000
0000
0130
0000
,
1000
0000
0001
0100
0100
0000
0010
0000
,
1000
0100
1000
0100
0010
0000
0001
0000
,
0200
0000
0000
1000
0000
0000
0310
0000
,
0002
0000
0000
0010
0000
0000
1003
0000
,
1010
0100
0001
0010
,
0011
0100
1000
0010
,
0200
0000
0000
0300
,
0001
0100
0001
0100
0010
1000
0010
1000
,
0002
0000
0000
0103
,
2000
0000
0000
0000
0000
0000
3010
0100
,
0002
1000
0000
1003
,
1020
0100
0000
0130
,
0001
0010
0001
1000
0001
1000
0100
1000
,
0100
0110
0011
1001
,
1000
0001
1000
0001
1000
0100
1000
0100
,
1000
0010
1000
0010
0100
0001
0100
0001
,
0010
0001
0010
0001
1000
0100
1000
0100
,
0010
0001
0100
0010
,
1010
1001
0101
1001
,
0011
1001
1100
1001
,
0110
1100
0110
0011
,
0110
1010
0110
0101
,
1000
0100
0100
1000
0000
0001
0000
0100
,
2002
0000
0000
0000
,
3003
0000
0000
0000
,
0000
0000
0000
0000
;
#NOTES:
     dance-single:
     :
     Hard:
     14:
     :
0000
0000
0000
0000
,
0000
0000
0000
0000
,
0000
0000
0000
0000
,
0000
0000
0000
0000
,
0000
0000
0000
0000
,
0000
0000
0000
0000
,
0000
0000
0000
0000
,
0010
0100
1000
0010
0000
0000
0000
0000
,
0100
0001
0010
0100
0000
0000
0000
0000
,
1000
0010
1000
0010
0100
0010
1000
0002
,
0000
0000
0000
2000
0000
0000
3003
0000
,
0010
0000
1000
0000
0001
0000
0100
0000
0001
0000
0010
0001
0000
0010
0001
0000
,
1000
0000
0010
0000
0100
0000
0001
0000
1000
0000
0001
1000
0000
0001
1000
0000
,
0010
0000
0100
0000
0001
0000
1000
0000
0010
0000
1000
0010
0000
1000
0010
0000
,
0100
0000
0001
0000
0010
0000
0100
0000
1000
0000
0001
1000
0000
0001
1000
0000
,
0100
0010
0001
0100
0010
1000
0010
0001
,
1000
0100
0001
0010
0001
1000
0100
0010
,
0001
0010
0001
0010
0001
0100
0010
2000
,
0000
0000
0000
0002
0000
0000
3003
0000
,
0100
0100
0100
0100
,
1000
0000
1000
0000
1000
0000
1000
0010
,
1000
0000
0001
0000
0001
0000
0001
0100
,
0001
0100
0010
0000
1000
0001
1000
0100
,
0010
0010
0010
0010
,
0001
0001
1000
1000
,
0010
0010
0100
0100
,
0001
0010
0000
0100
0000
2020
0000
3030
,
0001
0100
0000
1000
0001
0010
0000
1000
,
0001
0100
0000
1000
0001
0010
0100
1000
,
0010
0100
0000
1000
0100
0010
0000
1000
,
0010
0100
0000
1000
0100
0010
0001
1000
,
0010
0100
0000
0001
0010
0100
0000
1000
,
0001
0010
0000
0010
1000
0010
0100
0010
,
0001
1000
0000
1000
0010
0100
0001
1001
,
0000
0000
1000
0010
1000
0000
0010
1000
0010
0000
1000
0000
0010
0000
0100
0000
,
0001
0000
0001
0000
0000
0000
1000
0001
0020
0000
0000
0000
0000
0000
0130
0000
,
0000
0000
1000
0000
0000
0000
0001
1000
0020
0000
0000
0000
0030
0000
0000
0000
,
0100
0000
0100
0000
0000
0000
0001
1000
0020
0000
0000
0000
0000
0000
0130
0000
,
0000
0000
0001
0000
0000
0000
1000
0001
0020
0000
0000
0000
0030
0000
0000
0000
,
0001
0000
0001
0000
0000
0000
1000
0100
0020
0000
0000
0000
0000
0000
0031
0000
,
0000
0000
1000
0000
0000
0000
0001
0100
0020
0000
0000
0000
1030
0000
0001
0000
,
0000
0000
0010
0000
0001
1000
0000
0001
1000
0000
0010
0100
0010
0000
2000
0000
,
0000
3200
0320
0000
0032
0000
1003
0000
,
0010
0000
1000
0000
0001
1000
0001
0000
0100
0000
0010
0000
1000
0000
0010
0000
,
0100
0000
0001
0000
1000
0001
1000
0000
0010
0000
0100
0000
0001
0000
0100
0000
,
0010
1000
1000
0010
0100
1000
0010
0100
,
0001
0100
0010
0100
0001
0010
1100
0000
,
0010
0000
0100
0000
0001
0010
0001
0000
1000
0000
0100
0000
1000
0000
0001
0000
,
0010
0000
0100
0000
1000
0010
1000
0000
0100
0000
1000
0000
0001
0000
1000
0000
,
0010
0100
0100
0010
0001
1000
0010
0100
,
0001
0000
1000
0010
1000
0000
0010
1000
0010
0000
1000
0000
1001
0000
0000
0000
,
0020
0000
0100
0130
0010
0000
0100
1000
,
0020
0000
0100
0130
0010
0000
0100
0001
,
0020
0000
0100
0130
0010
0000
0100
1000
,
0010
0000
0000
0000
0100
0000
0001
0000
1000
0000
0010
0000
0100
0000
0001
1000
,
0001
0010
0100
0020
0000
0031
0100
0001
,
1000
0010
0100
0020
0000
1030
0001
1000
,
0001
0000
0100
0001
0100
0000
0010
1000
0010
0000
1000
0100
1000
0000
0001
0000
,
0000
0100
0100
0010
1000
0100
0010
0001
,
0201
0000
0300
0011
0000
0000
0100
0000
,
2100
0000
3000
0101
0000
0000
1000
0000
,
2001
0000
0000
3010
0100
0000
0000
0100
,
0010
1000
0010
0001
0010
1000
0010
0000
,
0120
0000
0030
0101
0000
0000
1000
0000
,
0012
0000
0003
1010
0000
0000
0100
0000
,
1000
0010
1000
0010
0001
0100
0001
0100
,
1000
0010
1000
0010
0001
0100
0001
0100
,
0020
0000
0000
0030
,
0001
0100
1000
0100
0001
0010
0100
0010
,
0002
0000
0000
0000
0003
0100
0010
0100
,
0110
0001
0100
0010
1000
0100
0010
0100
,
1000
0000
1001
0001
0100
0000
1010
0100
,
0001
0000
0011
0100
1000
0001
0010
0000
,
0001
0100
1000
0100
0010
1000
0100
0010
,
0001
0100
1000
0100
0010
1000
1001
0000
,
0101
0100
0001
0100
0010
0010
1000
0010
,
1010
1000
0001
1000
0001
0001
1000
0100
,
1100
1000
0001
0010
0001
0001
0100
0010
,
0110
1000
0100
0010
0001
0000
0100
0000
,
1000
0000
0010
1000
0010
0000
1000
0010
1000
0000
0010
1000
0010
0000
1000
0000
,
0001
0000
0100
0001
0100
0000
0001
0100
0001
0000
0100
0001
0100
0000
0001
0000
,
1000
0000
0001
1000
0001
0000
1000
0001
1000
0000
0001
1000
0001
0000
0100
0000
,
0010
0000
0100
0010
0100
0000
0010
0100
0010
0000
0100
0010
0100
0000
0010
0000
,
0100
0100
0001
1000
0000
1001
0000
0011
,
2200
0000
0000
0000
,
3300
0000
0000
0000
,
0000
0000
0000
0000
;
#NOTES:
     dance-double:
     :
     Easy:
     7:
     :
00000000
00000000
00000000
00000000
,
00000000
00000000
00000000
00000000
,
00000000
00000000
00000000
00000000
,
00000000
00000000
00000000
00000000
,
00000000
00000000
00000000
00000000
,
00000000
00000000
00000000
00000000
,
00000000
00000000
00000000
00000000
,
02000000
00000000
00000000
03000000
,
00200000
00000000
00000000
00300000
,
20000000
30000000
00020000
00030000
,
20000000
00000000
00000000
30000000
,
01000000
00010000
01000000
00010000
,
00010000
00001000
00010000
00001000
,
00001000
00000100
00001000
00000100
,
00000100
00000001
00000100
00000001
,
00000010
00000010
00000000
00000010
,
00000100
00000100
00000000
00000001
,
00000100
00001000
00010000
00002000
,
00000000
00000000
00000000
00003000
,
00010000
00000000
00010000
00000000
,
00100000
01000000
00100000
10000000
,
00010000
00000000
00010000
00000000
,
01000000
00010000
01000000
00100000
,
00001000
00000000
00001000
00000000
,
00010000
00001000
00010000
00000100
,
00001000
00000000
00001000
00000000
,
00000010
00000100
00000100
00000100
,
00000001
00001001
00000000
00001001
,
00000100
00000110
00000000
00000110
,
00000100
00000100
00001000
00010000
,
00001000
00011000
00000000
00011000
,
01000000
01100000
00000000
01100000
,
00100000
00100000
10000000
00010000
,
10000000
10010000
00000000
10010000
,
01000000
00100000
01000000
00100000
,
00010000
00000000
00011000
00000000
,
00001000
00001000
00000100
00000000
,
00000010
00000000
00000110
00000000
,
00000001
00000001
00000100
00000000
,
00001000
00000000
00001001
00000000
,
00000100
00001000
00020000
00000000
,
00001000
00001000
00001000
00031000
,
00000000
00000000
00000000
00000000
,
00001000
00010000
00100000
00010000
,
00001000
00000100
00001000
00000000
,
00010000
00010000
01000000
10000000
,
01000000
00010000
00001000
00000000
,
00010000
00001000
00000010
00001000
,
00010000
01000000
00010000
00000000
,
00001000
00001000
00000100
00000001
,
00000100
00001000
00010000
00001000
,
00011000
00000000
00200000
00300000
,
10010000
00000000
02000000
03000000
,
01100000
00000000
00020000
00030000
,
00011000
00010000
00000100
00000000
,
00001001
00000000
00000200
00000300
,
00000110
00000000
00002000
00003000
,
00011000
00000000
00010000
00001000
,
00010000
00000000
01000000
00000000
,
20000000
00000000
00000000
30000000
,
00200000
00000000
00000000
00300000
,
00010000
00000000
00001000
00000000
,
00000020
00000000
00000000
00000030
,
00000002
00000000
00000000
00000003
,
00000200
00000000
00000000
00000300
,
00001000
00000100
00001000
00000100
,
00001000
00010000
00001000
00010000
,
00002000
00000000
00000000
00003000
,
00100000
00100000
00010000
00010000
,
20000000
00000000
30000000
01000000
,
00200000
00000000
00000000
00300000
,
01000000
01100000
00000000
01100000
,
00010000
00011000
00000000
00011000
,
00000100
00000110
00000000
00000110
,
00000001
00001001
00000000
00001001
,
00000110
00000110
00000110
00000110
,
00000010
00000100
00001000
00010000
,
00011000
00011000
00011000
00011000
,
00001000
00010000
01000000
00100000
,
01100000
01100000
01100000
01100000
,
00110000
00110000
00110000
00110000
,
00101000
00101000
00101000
00101000
,
00011000
00011000
00011000
00011000
,
00020020
00000000
00000000
00030030
,
00022000
00000000
00000000
00000000
,
00033000
00000000
00000000
00000000
,
00000000
00000000
00000000
00000000
;
#NOTES:
     dance-double:
     :
     Medium:
     10:
     :
00000000
00000000
00000000
00000000
,
00000000
00000000
00000000
00000000
,
00000000
00000000
00000000
00000000
,
00000000
00000000
00000000
00000000
,
00000000
00000000
00000000
00000000
,
00000000
00000000
00000000
00000000
,
00000000
00000000
00000000
00000000
,
00010100
00200000
00000000
00300000
,
01001000
00000020
00000000
00000030
,
00010100
00000000
00000000
00000000
01001000
00000000
00000000
00022000
,
00000000
00000000
00000000
00033000
,
00011000
00000010
00000001
00000100
,
00000010
00000000
00001000
00000010
00000000
00010000
00001000
00000000
,
00011000
00100000
10000000
01000000
,
00100000
00000000
00010000
01000000
00000000
00001000
00100000
00000000
,
00120000
00002000
00033000
00000100
,
00002010
00020000
00033000
01000000
,
00100000
01000000
00100000
00000000
10000000
01000000
00000000
00200000
,
00000000
00000000
00000000
00300000
,
00010000
01000000
00100000
01000000
,
00010000
10000000
00100000
00010000
,
00001000
00000100
00000001
00000100
,
00000010
00000000
00001000
00000000
00000001
00000000
00000010
00000001
,
00001000
00000100
00000010
00000100
,
00001000
00000001
00000010
00001000
,
00010000
01000000
10000000
00010000
,
01000000
00100000
00000000
10000000
00000000
10010000
00000000
00000000
,
10000000
01000000
00000000
11000000
00000000
00010000
00000000
01000000
,
00001000
01000000
00000000
01001000
00000000
00100000
00000000
00001000
,
00010000
00001000
00000000
00011000
00000000
00000010
00000000
00001000
,
00000100
00001000
00000000
00000001
00000000
00000100
00000000
00000010
,
00001000
00000010
00000000
00001010
00000000
00000001
00000000
00001000
,
00000100
00001000
00000000
00001100
00000000
00010000
00000000
00001000
,
00100000
00001000
00000000
00101000
00000000
00010000
00000000
01100000
,
00000000
10000000
01000000
00100000
,
00010000
10000000
00000000
10000000
00020000
00000000
00000000
00001000
,
00000000
00130000
00000000
01000000
00100000
00000000
00000000
00000000
,
00010000
00001000
00000000
00010000
00000200
00000000
00000000
00000010
,
00000000
00001300
00000000
00000001
00001000
00000000
00000000
00000000
,
00000010
00000100
00000000
00000010
00002000
00000000
00000000
00010000
,
00000000
00003010
00000000
00000100
00000010
00000000
00001000
00020000
,
00000000
00000000
00001000
00000000
00031000
00000000
00000000
00011000
,
00000000
00001000
00010000
01000000
,
10000000
01010000
00001000
01010000
,
10000000
00110000
00001000
00110000
,
10000000
01000000
10000000
00000000
00010000
01000000
00010000
00000000
,
00100000
00001000
00010000
00000100
,
00000001
00001100
00010000
00001100
,
00000001
00001010
00010000
00001010
,
00000001
00000100
00000001
00000000
00001000
00000100
00001000
00000000
,
00000001
00000000
00000010
00000000
00001000
00010000
00100000
00000000
,
01000000
00000000
01000000
00100000
00000000
10000000
01000000
00000000
,
00100000
00000000
00100000
01000000
00000000
00010000
00001000
00000000
,
00000100
00000000
00000100
00000010
00000000
00001000
00000001
00000000
,
00000100
00001000
00010000
00001000
,
00001000
00010000
00001000
00100000
00000000
00100000
01000000
00000000
,
10000000
01000000
00100000
00010000
00000000
00010000
01000000
00000000
,
00100000
10000000
00010000
01000000
00000000
00001000
00010000
00001000
,
00000000
00010000
00001000
00000100
,
00000020
00000000
00000000
00000100
00000000
00000000
00001030
00000000
,
00000002
00000000
00000000
00000010
00000000
00000000
00001003
00000000
,
00000100
00000000
00000010
00000001
00000100
00000000
00001000
00000000
,
00010000
00001000
00010000
00001000
00100000
00000000
00010000
00000000
,
02000000
00000000
00000000
00100000
00000000
00000000
13000000
00000000
,
02000000
00000000
00000000
00100000
00000000
00000000
03010000
00000000
,
10010000
00100000
00010000
00001000
,
00011000
00001000
00000100
00000010
,
00000002
00000000
00000000
00000003
,
00000100
00000010
00000100
00000010
00001000
00000100
00001000
00000100
,
00020000
00000000
00000000
01030000
,
20000000
00000000
00000000
00000000
00000000
00000000
30100000
01000000
,
00100000
00010000
00001000
00010000
,
00000200
00000310
00000200
00000310
,
00001000
00000001
00001000
00000001
00000100
00000010
00000100
00000010
,
00001000
00000001
00000101
00001010
,
00000010
00001000
00000010
00000000
00000100
00000010
00000100
00000000
,
00001000
00010000
00001000
00000000
00100000
00001000
00100000
00000000
,
01000000
00100000
01000000
00000000
10000000
00010000
10000000
00010000
,
01000000
00100000
10000000
01000000
,
12000000
03100000
02010000
03001000
,
00021000
00030100
00001020
00000130
,
00000001
00000100
00000010
00000000
00000010
00001000
00000100
00000000
,
00000100
00010000
00001000
00000000
00001000
01000000
00100000
00000000
,
10000000
01000000
00100000
00010000
00000000
10000000
00000000
00010000
,
20020000
00000000
00000000
00000000
,
30030000
00000000
00000000
00000000
,
00000000
00000000
00000000
00000000
;
#NOTES:
     dance-double:
     :
     Hard:
     15:
     :
00000000
00000000
00000000
00000000
,
00000000
00000000
00000000
00000000
,
00000000
00000000
00000000
00000000
,
00000000
00000000
00000000
00000000
,
00000000
00000000
00000000
00000000
,
00000000
00000000
00000000
00000000
,
00000000
00000000
00000000
00000000
,
01000000
00100000
00010000
00001000
00000000
00000000
00000000
00000000
,
00000010
00000100
00001000
00010000
00000000
00000000
00000000
00000000
,
10000000
01000000
00100000
00010000
01000000
00100000
00010000
00002000
,
00000000
00000000
00000000
00020000
00000000
00000000
00033000
00000000
,
00000100
00001000
00000010
00000100
00000001
00000001
00000100
00000010
,
00000100
00001000
00010000
00001000
00100000
01000000
10000000
00100000
,
01000000
00010000
00100000
01000000
10000000
10000000
00100000
01000000
,
00010000
00100000
01000000
10000000
00010000
10000000
01000000
00010000
,
00001000
00100000
01000000
00010000
00001000
00000100
00000010
00000100
,
00000001
00001000
00000100
00000010
00000001
00000100
00000010
00001000
,
00000001
00001000
00000001
00001000
00000001
00000100
00001000
00020000
,
00000000
00000000
00000000
00002000
00000000
00000000
00033000
00000000
,
00010000
00001000
00010000
00001000
,
00100000
00010000
00100000
00010000
,
01000000
10000000
01000000
10000000
,
00010000
00000000
00001000
00000000
00010000
00000000
00001000
00010000
,
00000100
00000001
00000100
00000001
,
00001000
00000010
00001000
00000010
,
00000001
00001000
00000001
00001000
,
00000010
00000100
00000000
00000010
00000000
00020200
00000000
00030300
,
00001000
00010000
00000000
00001000
00010000
01000000
00000000
00100000
,
00010000
10000000
00000000
00010000
10000000
00100000
00000000
01000000
,
00010000
00100000
00000000
00010000
00100000
01000000
00000000
00010000
,
00001000
00010000
00000000
00001000
00010000
00001000
00000100
00000010
,
00001000
00000001
00000000
00001000
00000001
00000100
00000000
00000010
,
00000100
00001000
00000000
00000100
00001000
00010000
00000000
00100000
,
01000000
00010000
00000000
10000000
00010000
00100000
00000000
01100000
,
00000000
00000000
10000000
01000000
10000000
00000000
01000000
10000000
01000000
00000000
10000000
00000000
01000000
00000000
00010000
00000000
,
00001000
00000000
00001000
00000000
00000000
00000000
00001000
00010000
00000020
00000000
00000000
00000000
00000000
00000000
00000130
00000000
,
00000000
00000000
00000100
00000000
00000000
00000000
00000001
00001000
00000020
00000000
00000000
00000000
00000130
00000000
00000000
00000000
,
00001000
00000000
00001000
00000000
00000000
00000000
00010000
00001000
00200000
00000000
00000000
00000000
00000000
00000000
01300000
00000000
,
00000000
00000000
01000000
00000000
00000000
00000000
10000000
00010000
00200000
00000000
00000000
00000000
01300000
00000000
00000000
00000000
,
00010000
00000000
00010000
00000000
00000000
00000000
00001000
00010000
00000020
00000000
00000000
00000000
00000000
00000000
00000130
00000000
,
00000000
00000000
00000100
00000000
00000000
00000000
00000001
00001000
00000200
00000000
00000000
00000000
00000310
00000000
00000100
00000000
,
00000000
00000000
00001000
00000000
00000001
00001000
00000000
00000001
00001000
00000000
00000010
00000000
00000100
00000000
00002000
00000000
,
00000000
00023000
00230000
00000000
02300000
00000000
13000000
00000000
,
01000000
00010000
10100000
00010000
01000000
00010000
00101000
00010000
,
01000000
00000000
00010000
00000000
10000000
00010000
10000000
00000000
01000000
00000000
00100000
00000000
01000000
00000000
00010000
00000000
,
00001000
00001000
00000100
00001000
00010000
00010000
01000000
00010000
,
00001000
00010000
00000100
00010000
00000010
00001000
00001001
00000000
,
00000100
00001000
00000011
00001000
00000100
00001000
00010010
00001000
,
00000100
00000000
00001000
00000000
00000001
00001000
00000001
00000000
00000100
00000000
00000010
00000000
00000100
00000000
00001000
00000000
,
00010000
00010000
00100000
00010000
00001000
00001000
00000010
00001000
,
00010000
00000000
00001000
00100000
00001000
00000000
00010000
00000100
00010000
00000000
00001000
00000000
00011000
00000000
00000000
00000000
,
00120000
00000000
01000000
01000000
10030000
00000000
00120000
00000000
,
00032000
00000000
00000100
00000100
00003001
00000000
00002010
00000000
,
00023000
00000000
01000000
01000000
10030000
00000000
00120000
00000000
,
00031000
00000000
00000000
00000000
00101000
00000000
00010000
00000000
00100000
00000000
01000000
00000000
10000000
00000000
00010000
10000000
,
00010000
00100000
01000000
00020000
00000000
00031000
00001000
00010000
,
00001000
00000100
00000010
00002000
00000000
00013000
00010000
00001000
,
00000010
00000000
00001000
00000010
00001000
00000000
00000001
00001000
00000001
00000000
00000100
00000001
00000100
00000000
00000010
00000000
,
00000000
00000100
00000001
00001000
00000010
00010000
00001000
00100000
,
02000000
00000000
13000000
00100000
01000000
00000000
01010000
00000000
,
21000000
00000000
30100000
01000000
00010000
00000000
10000000
00000000
,
00210000
00000000
00301000
00010000
01000000
00000000
00010000
00001000
,
00010000
00000100
00000010
00000100
00010000
00001000
00010000
00000000
,
00012000
00000000
00003100
00000001
00001000
00000000
00000001
00000000
,
00000012
00000000
00001003
00000010
00000100
00000000
00000001
00000000
,
00000010
00000001
00000100
00000010
00001000
00000100
00010000
00001000
,
01000000
00010000
00100000
00001000
00010000
00000100
00001000
00000010
,
00000200
00000010
00000010
00000310
,
00000100
00000001
00000100
00001000
00010000
00001000
00010000
01000000
,
20000000
00000000
01000000
00000000
31000000
00100000
00010000
10000000
,
10010000
00100000
01000000
00010000
00100000
01000000
00010000
00001000
,
00010000
00000000
00011000
00100000
00010000
00000000
00101000
00010000
,
00001000
00000000
00011000
00000010
00001000
00000000
00010100
00001000
,
00010000
00001000
00000100
00000010
00000001
00000010
00000100
00001000
,
00010000
00100000
01000000
10000000
01000000
00100000
00010000
00000000
,
00001000
00100000
00010000
01000000
00100000
10000000
00010000
01000000
,
00001000
00000000
00100000
00001000
00100000
00000000
00001000
00010000
00001000
00000000
00010000
00000100
00010000
00000000
00000100
00000000
,
00000020
00000000
00000001
00000031
00001000
00000100
00010000
00001000
,
00100000
00010000
01000000
00100000
10000000
00000000
00010000
00000000
,
10000000
00000000
01000000
10000000
01000000
00000000
10000000
01000000
10000000
00000000
01000000
10000000
01000000
00000000
00100000
00000000
,
00010000
00000000
01000000
00010000
01000000
00000000
00010000
01000000
00010000
00000000
01000000
00010000
01000000
00000000
00001000
00000000
,
00010000
00000000
00001000
00010000
00001000
00000000
00010000
00001000
00010000
00000000
00001000
00010000
00001000
00000000
00010000
00000000
,
00000100
00000000
00001000
00000010
00001000
00000000
00000010
00001000
00000010
00000000
00001000
00000010
00001000
00000000
00000010
00000000
,
00000100
00000001
00000100
00000001
00000000
00001010
00000000
00001001
,
00020020
00000000
00000000
00000000
,
00030030
00000000
00000000
00000000
,
00000000
00000000
00000000
00000000
;
