
//----- song id: niko
#TITLE:滅亡天使 † にこきゅっぴん;
#ARTIST:日向美ビタースイーツ♪;
#TITLETRANSLIT:Metsubou tenshi nikokyuppin;
#ARTISTTRANSLIT:Hinatabi Bitter Sweets♪;
#BANNER:Metsubou tenshi nikokyuppin.png;
#BACKGROUND:Metsubou tenshi nikokyuppin-bg.png;
#CDTITLE:./CDTitles/DDR (2014).png;
#MUSIC:Metsubou tenshi nikokyuppin.ogg;
#SAMPLESTART:67.18;
#SAMPLELENGTH:15;
#BPMS:0=200;
#NOTES:
     dance-single:
     :
     Beginner:
     4:
     :
0000
0000
0000
0000
,
0000
0000
0000
0000
,
0000
0000
0000
0000
,
0000
0000
0000
0000
,
0000
0000
0000
0000
,
0000
0000
0000
0000
,
1000
0000
0000
0000
,
0001
0000
0000
0000
,
1000
0000
0001
0000
,
0010
0000
0010
0000
,
0001
0001
0001
0000
,
0010
0010
0010
0000
,
1000
1000
1000
0000
,
0010
0000
0010
0000
,
0001
0001
0001
0000
,
0010
0010
0010
0000
,
1000
1000
1000
0000
,
0010
0000
0010
0000
,
1000
0000
0001
0000
,
0100
0000
0100
0000
,
1000
1000
1000
0000
,
0100
0000
0000
0000
,
0001
0001
0001
0000
,
0010
0000
0000
0000
,
0010
0000
0001
0000
,
0010
0000
1000
0000
,
0010
0000
0001
0000
,
0010
0010
0010
0000
,
0001
0001
0001
0000
,
0100
0000
0000
0000
,
1000
1000
1000
0000
,
0010
0000
0000
0000
,
0010
0000
1000
0000
,
0010
0000
0001
0000
,
0010
0000
1000
0000
,
0010
0010
0010
0000
,
0010
0000
0000
0010
,
0000
0000
0000
0100
,
0000
0000
0000
0100
,
0000
0000
0000
1000
,
0000
0000
0000
0001
,
0000
0000
0000
1000
,
1000
1000
1000
0000
,
0001
0000
0000
0000
,
1000
0000
0100
0000
,
0000
0001
0001
0001
,
0001
0000
0100
0000
,
0000
1000
0000
1000
,
1000
0000
0100
0000
,
0000
0001
0001
0001
,
0001
0000
0100
0000
,
0000
1000
0000
1000
,
0000
0000
0000
0000
,
0010
0000
0010
0000
,
0010
0000
0001
0000
,
0010
0000
1000
0000
,
0001
0001
0001
0000
,
0100
0100
0100
0000
,
0001
0000
0010
0000
,
1000
1000
1000
0000
,
0010
0010
0010
0000
,
0010
0000
0100
0000
,
0001
0000
0100
0000
,
0010
0000
1000
0000
,
1000
1000
1000
0000
,
0100
0100
0100
0000
,
1000
0000
0010
0000
,
0001
0001
0001
0000
,
0010
0010
0010
0000
,
0010
0000
0100
0000
,
0001
0001
0001
0000
,
1000
1000
1000
0000
,
0001
0000
0100
0000
,
1000
0000
0100
0000
,
0001
0000
0100
0000
,
1000
0000
0100
0000
,
0020
0000
0000
0000
,
0000
0030
0000
0000
,
0001
0001
0001
0000
,
0010
0010
0010
0000
,
1000
1000
1000
0000
,
0010
0000
0010
0000
,
0001
0001
0001
0000
,
0010
0010
0010
0000
,
1000
1000
1000
0000
,
0010
0000
0010
0000
,
1000
0000
0000
0000
,
0000
0000
0000
0000
,
0001
0000
0000
0000
,
0000
0000
0000
0000
,
1000
0000
0000
0000
,
0000
0000
0000
0000
,
0000
0000
0000
0000
,
0000
0000
0000
0100
,
0100
0000
0000
0000
,
0000
0000
0000
0000
;
#NOTES:
     dance-single:
     :
     Easy:
     6:
     :
0000
0000
0000
0000
,
0000
0000
0000
0000
,
0000
0000
0000
0000
,
0000
0000
0000
0000
,
0000
0000
0000
0000
,
0000
0000
0000
0000
,
1001
0000
0000
0000
,
1001
0000
0000
0000
,
1000
0000
0001
0000
,
0010
0010
0010
0000
,
0001
1000
0100
0000
,
0010
0000
0010
0000
,
1000
0001
0100
0000
,
0200
0300
0100
0100
,
1000
0001
0100
0000
,
0010
0000
0010
0000
,
0001
1000
0100
0000
,
0200
0300
0100
0100
,
0010
0000
0010
0000
,
0100
0000
0100
0000
,
1000
0010
1000
0000
,
0100
0100
0100
0000
,
0001
0010
0001
0000
,
0010
0010
0010
0000
,
0010
0000
0001
0000
,
0100
0000
1000
0000
,
0010
0000
0001
0000
,
0100
1000
0010
0000
,
0001
0010
0001
0000
,
0100
0100
0100
0000
,
1000
0010
1000
0000
,
0010
0010
0010
0000
,
0010
0000
1000
0000
,
0100
0000
0001
0000
,
0010
0000
1000
0000
,
0010
0010
0010
0000
,
1000
0000
0000
1001
,
0000
0000
0000
0110
,
0000
0000
0000
1001
,
0000
0000
0000
0110
,
0000
0000
0000
1001
,
0000
0000
0000
1000
,
0001
1000
0001
1000
,
0000
0001
0000
1000
,
1000
0000
0100
0020
,
0030
0001
0010
0001
,
0001
0000
0100
0020
,
0030
1000
0000
1000
,
1000
0000
0100
0020
,
0030
0001
0000
0010
,
0100
0000
1000
0200
,
0300
0010
0000
0001
,
0000
0000
0000
0000
,
1000
1000
1000
0000
,
0001
0010
0001
0010
,
0001
0000
1000
0000
,
0001
1000
0100
0000
,
0100
1000
0100
0000
,
0001
0001
0010
0010
,
1000
1000
1000
0000
,
1000
0001
0010
0000
,
0010
0001
0010
0000
,
1000
1000
0100
0100
,
0001
0001
0001
0000
,
1000
0001
0100
0000
,
0100
0001
0100
0000
,
1000
1000
0010
0010
,
0001
0001
0001
0000
,
0001
1000
0010
0000
,
0010
1000
0010
0000
,
0001
1000
0001
0000
,
1000
0001
1000
0000
,
0001
0000
0100
0010
,
0100
0000
0100
1000
,
0100
0000
0100
0010
,
0100
0100
0100
0000
,
2002
0000
0000
3003
,
1000
0001
1000
0000
,
0001
1000
0100
0000
,
0010
0000
0010
0000
,
1000
0001
0100
0000
,
0200
0300
0100
0100
,
1000
0001
0100
0000
,
0010
0000
0010
0000
,
0001
1000
0100
0000
,
0200
0300
0100
0100
,
2000
0000
0000
0000
,
0000
0000
0000
3000
,
0002
0000
0000
0000
,
0000
0000
0000
0003
,
1000
0000
1001
0000
,
0000
0000
0000
0000
,
0000
0000
0000
0000
,
0000
0000
0000
0100
,
0100
0000
0000
0000
,
0000
0000
0000
0000
;
#NOTES:
     dance-single:
     :
     Medium:
     9:
     :
0000
0000
0000
0000
,
0000
0000
0000
0000
,
0000
0000
0000
0000
,
0000
0000
0000
0000
,
0000
0000
0000
0000
,
0000
0000
0000
0000
,
1001
0000
0000
0000
,
0110
0000
0000
0000
,
1001
0000
0110
0000
,
0101
1100
0110
0110
,
1000
0000
0100
0000
0101
0000
0000
1000
,
0000
0100
0000
1000
0010
0000
1000
0000
,
0010
0001
0010
0100
,
0022
0033
1001
0110
,
0001
0000
0100
0000
1100
0000
0000
0001
,
0000
0100
0000
0001
0010
0000
0010
0000
,
0001
1000
0010
0000
,
2020
3030
1100
0101
,
1001
0000
0110
0000
,
1000
0001
0000
1000
0000
0001
1000
0000
,
1000
0001
0010
0000
1000
0000
0001
0000
,
0100
0000
0010
0000
0100
0001
0100
0000
,
0001
0010
0001
1000
,
0100
0000
0010
0000
0100
0100
0100
0000
,
0100
0000
1100
0000
,
1001
0000
0011
0000
,
1100
0000
0011
0000
,
1000
0001
0100
0000
0001
0000
0100
0000
,
0001
1000
0010
0000
0001
0000
1000
0000
,
0100
0000
0010
0000
0100
1000
0100
0000
,
1000
0010
1000
0001
,
0100
0000
0010
0000
0100
0100
0100
0000
,
0100
0000
0101
0000
,
1001
0000
1010
0000
,
1100
0000
0000
0000
0001
0010
0001
0010
,
0000
0001
0000
0010
0001
0000
0000
0000
,
0010
0000
1000
0011
,
0100
0000
0100
1010
,
0001
0000
0001
1001
,
0100
0100
0100
0110
,
1000
0000
0000
0100
0010
0000
0000
0000
,
0001
0100
0001
0000
,
0010
1000
0010
0001
,
0010
1000
0010
0001
,
1000
0010
0000
0000
0100
0000
0020
0000
,
0030
0100
0010
0001
,
1000
0100
0000
0000
0100
0000
0020
0000
,
0030
0001
0000
1000
,
0001
0010
0000
0000
0100
0000
0020
0000
,
0030
0100
0010
0001
,
0100
0010
0000
0000
0100
0000
0020
0000
,
0030
1000
0000
1000
,
0001
0010
0001
0010
,
0001
0100
0000
1000
0100
0000
0000
0000
,
0001
0100
0010
1000
,
0010
1000
0000
0010
0100
0000
0110
0000
,
0001
0100
1100
0001
,
1000
0001
0010
1100
,
0001
0001
0010
0010
,
0001
0010
0001
0010
0000
0001
0100
0000
,
1000
0000
0010
0000
0110
0000
0000
0010
,
0000
1000
0110
0000
,
0001
1000
0001
1000
,
0001
0100
0001
0100
0001
0000
0010
0000
,
1000
0100
0101
1000
,
0001
1000
0010
0101
,
1000
1000
0010
0010
,
1000
0010
1000
0010
0000
1000
0100
0000
,
0001
0000
0010
0000
0110
0000
0000
0010
,
0000
0001
0110
0000
,
0001
1100
0001
1000
,
0001
0100
0101
0000
,
0110
0000
0000
0100
0010
0000
0010
0000
,
0100
0000
0000
0100
0010
0000
0010
0000
,
1100
0000
0011
0000
,
0101
1100
0101
1100
,
0010
0000
0000
0000
0000
0000
0000
0100
,
0000
0010
0000
0100
0010
0000
1001
0000
,
1000
0000
0100
0000
0101
0000
0000
1000
,
0000
0100
0000
1000
0010
0000
1000
0000
,
0010
0001
0010
0100
,
0022
0033
1001
0110
,
0001
0000
0100
0000
1100
0000
0000
0001
,
0000
0100
0000
0001
0010
0000
0010
0000
,
0001
1000
0010
0000
,
2020
3030
1100
0101
,
2000
0000
0000
3000
,
0200
0000
0000
0300
,
0002
0000
0000
0003
,
0020
0000
0000
0030
,
0000
0000
1001
0000
,
1000
0100
0000
0000
,
0000
0000
0000
0000
,
0000
0000
0000
0001
,
0100
0000
0000
0000
,
0000
0000
0000
0000
;
#NOTES:
     dance-single:
     :
     Hard:
     12:
     :
0000
0000
0000
0000
,
0000
0000
0000
0000
,
0000
0000
0000
0000
,
0000
0000
0000
0000
,
0000
0000
0000
0000
,
0000
0000
0000
0000
,
0001
0000
0100
0010
0000
1000
0100
1000
,
0100
0000
0000
0000
0010
0000
0100
0000
0000
0000
0010
0100
0010
0100
0000
0000
,
0001
0000
1100
0000
,
0011
0110
1100
0110
,
0001
1000
0100
0000
0010
0000
0100
0010
,
0000
0001
0000
1000
0010
0000
0010
0000
,
1000
0001
0100
0000
0010
0000
0100
0010
,
0000
1000
0000
0001
0010
0000
0010
0000
,
1000
0001
0100
0000
0010
0000
0100
0010
,
0000
1000
0000
0001
0010
0000
0010
0000
,
0001
1000
0100
0000
0010
0000
0100
0010
,
0000
0001
0000
1000
0010
0000
0010
0000
,
1100
0000
0011
0000
,
0100
0000
0000
0010
0000
0000
0100
0000
0000
0000
1000
0000
0100
0000
0000
0000
,
0001
0100
0010
0000
0100
0000
1000
0001
,
0000
0010
0000
0001
0100
0001
1000
0100
,
1000
0000
1000
0000
0001
0000
1000
0100
,
0000
1000
0000
0001
0100
0001
0100
0000
,
1001
0000
0010
0000
0100
0010
0100
0000
,
1100
0000
0101
0000
0100
0010
0100
0000
,
1010
0000
0011
0000
,
1000
0010
0100
0001
0100
0010
1000
0000
,
0001
1000
0000
0100
0000
1000
0010
1000
,
0000
0100
0000
0010
0001
0010
0000
0100
,
0000
1000
0000
0100
0000
1000
0010
0100
,
0000
0001
0000
0010
0001
0010
0100
0000
,
1001
0000
0110
0000
0100
1000
0100
0000
,
1001
0000
0110
0000
0001
0010
0100
0000
,
1100
0000
0000
0000
0001
0100
0010
1000
,
0000
0010
0000
0001
0100
0000
1001
0000
,
0010
0000
0000
1000
0100
0000
0011
0000
,
0010
0000
0000
0001
0100
0000
1100
0000
,
0001
0000
0000
1000
0001
0000
1001
0000
,
0100
0010
0100
0000
0010
0000
0100
0000
0010
0000
0000
0000
0110
0000
0000
0000
,
1000
0000
0000
0100
0010
0000
0000
0000
,
0011
0000
0000
0110
0000
0000
1010
0000
1000
0000
0100
0000
0000
0000
0000
0000
,
1000
0000
0001
0000
1000
0100
1000
0100
,
1000
0000
0000
0000
0001
0000
0000
0100
0010
0000
0100
0000
0010
0000
0100
0000
,
1000
0010
1000
0000
0100
0000
0020
0000
,
0030
0100
0010
0001
,
1000
0100
1000
0000
0100
0000
0020
0000
,
0030
0001
0000
1100
,
0001
0010
0001
0000
0100
0000
0020
0000
,
0030
0100
0010
0001
,
0100
0010
0100
0000
0100
0000
0020
0000
,
0030
1000
0000
0001
,
1100
0101
1100
0101
,
1000
0100
0000
0001
0100
0000
0000
0000
,
1000
0010
0100
0001
0100
0010
1000
0010
,
1000
0100
0000
0001
0100
0000
1001
0000
,
0001
0000
0100
0000
1100
0000
0000
0001
,
0000
0010
0001
0000
0100
0000
1100
0000
,
0001
0010
0001
0100
0010
1000
0010
0100
,
0001
0100
0001
1000
0000
1000
0100
0000
,
1000
0000
0100
0000
0101
0000
0000
1000
,
0000
0010
1000
0000
0110
0000
0000
0100
,
1000
0010
1000
0100
0010
0001
0000
0010
,
0000
0100
1000
0001
0010
0001
0100
0000
,
1000
0000
0100
0000
0101
0000
0000
1000
,
0000
0010
1000
0000
0100
0000
0101
0000
,
1000
0010
1000
0100
0010
0001
0010
0100
,
1000
0100
1000
0001
0000
0100
0010
0000
,
0001
0000
0100
0000
1100
0000
0000
0002
,
0000
0000
0013
0000
0110
0000
0000
0100
,
1000
0010
1000
0100
0010
0001
0010
0100
,
0010
0100
1000
0001
0010
0000
0000
0000
,
1100
0000
0000
0010
0100
0000
0011
0000
,
0100
0000
0000
1000
0100
0000
0110
0000
,
1000
0000
0000
0100
1000
0000
0001
0000
,
0100
0000
0001
0010
0100
1000
0100
0000
,
2000
0000
3010
0100
0001
0010
0100
1000
,
0000
0001
0000
0100
0001
0000
1001
0000
,
1000
0001
0100
0000
0010
0000
0100
0010
,
0000
1000
0000
0001
0010
0000
0010
0000
,
0001
1000
0100
0000
0010
0000
0100
0010
,
0000
0001
0000
1000
0010
0000
0010
0000
,
0001
1000
0100
0000
0010
0000
0100
0010
,
0000
0001
0000
1000
0010
0000
0010
0000
,
1000
0001
0100
0000
0010
0000
0100
0010
,
0000
1000
0000
0001
0010
0000
0010
0000
,
0002
0000
0010
0000
,
0203
0000
0001
0000
,
2300
0000
0100
0000
,
3020
0000
1000
0030
,
0101
0000
1001
0000
,
1000
0001
0100
0000
0000
0000
0000
0000
,
0000
0000
0000
0000
,
0000
0000
0000
0000
0000
0000
0001
0100
,
1000
0100
0000
0000
0000
0000
0000
0000
,
0000
0000
0000
0000
;
#NOTES:
     dance-double:
     :
     Easy:
     6:
     :
00000000
00000000
00000000
00000000
,
00000000
00000000
00000000
00000000
,
00000000
00000000
00000000
00000000
,
00000000
00000000
00000000
00000000
,
00000000
00000000
00000000
00000000
,
00000000
00000000
00000000
00000000
,
00011000
00000000
00000000
00000000
,
00011000
00000000
00000000
00000000
,
00001000
00000000
00010000
00000000
,
00100000
10000000
01000000
00000000
,
10000000
01000000
00010000
00000000
,
00001000
00000000
00000100
00000000
,
00000001
00000100
00001000
00000000
,
00010000
00000000
01000000
10000000
,
10000000
01000000
00010000
00000000
,
00001000
00000000
00000100
00000000
,
00000001
00000100
00001000
00000000
,
02000000
03000000
00010000
01000000
,
00100000
00000000
00100000
00000000
,
01000000
00000000
01000000
00000000
,
10000000
00100000
00010000
00001000
,
00000100
00000001
00000100
00000000
,
00000001
00000010
00001000
00010000
,
00100000
10000000
00100000
00000000
,
10000000
00000000
01000000
00000000
,
00010000
00000000
00001000
00000000
,
00010000
00000000
00000100
00000000
,
00010000
00001000
00010000
00001000
,
00010000
00001000
00000100
00000001
,
00000010
00000001
00000100
00000000
,
00000001
00000010
00001000
00010000
,
00100000
10000000
00100000
00000000
,
10000000
00000000
01000000
00000000
,
00010000
00000000
00001000
00000000
,
00010000
00000000
00000100
00000000
,
00010000
00001000
00000100
00000001
,
00000010
00000000
00000001
00000100
,
00000000
00000000
00000000
00011000
,
00000000
00000000
00000000
10010000
,
00000000
00000000
00000000
00011000
,
00000000
00000000
00000000
00001001
,
00000000
00000000
00000000
00011000
,
00010000
00001000
00010000
00001000
,
00010000
00001000
00000100
00000001
,
00000001
00000000
00000100
00001000
,
00000000
00010000
00000000
10000000
,
10000000
00000000
01000000
00010000
,
00000000
00001000
00000000
00000010
,
00000001
00000000
00000100
00001000
,
00000000
00010000
00000000
10000000
,
10000000
00000000
01000000
00010000
,
00000000
00001000
00000000
00010000
,
00001000
00010000
00001000
00010000
,
00011000
00011000
00011000
00000000
,
00001000
00100000
00001000
00100000
,
00010000
00000000
01000000
00000000
,
00010000
10000000
01000000
00000000
,
10000000
01000000
00010000
00000000
,
00001000
00001000
00000010
00000010
,
00000001
00000001
00000001
00000000
,
00001000
00000001
00000010
00000000
,
00000001
00000010
00001000
00000000
,
00010000
00010000
01000000
01000000
,
10000000
10000000
10000000
00000000
,
10000000
01000000
00010000
00000000
,
00001000
00010000
00001000
00000000
,
00001000
00001000
00000010
00000010
,
00000001
00000001
00000001
00000000
,
00001000
00000001
00000010
00000000
,
00000001
00000010
00001000
00000000
,
00010000
00001000
00010000
00001000
,
00100000
00001000
00100000
00000000
,
00010000
00000000
01000000
00100000
,
01000000
00000000
00010000
10000000
,
01000000
00000000
10000000
00000000
,
01000000
00010000
00001000
00000000
,
00020000
00000000
00000000
00030000
,
00000100
00000000
00000010
00000000
,
00000001
00000100
00001000
00000000
,
00010000
00000000
01000000
00000000
,
10000000
01000000
00010000
00000000
,
00001000
00000000
00000100
00000001
,
00000001
00000100
00001000
00000000
,
00010000
00000000
01000000
00000000
,
10000000
01000000
00010000
00000000
,
00000200
00000300
00001000
00000100
,
00000002
00000000
00000000
00000000
,
00000000
00000000
00000000
00000003
,
00000200
00000000
00000000
00000000
,
00000000
00000000
00000000
00000300
,
00001000
00000000
00011000
00000000
,
00010000
00001000
00000000
00000000
,
00000000
00000000
00000000
00000000
,
00000000
00000000
00000000
00010000
,
00001000
00000000
00000000
00000000
,
00000000
00000000
00000000
00000000
;
#NOTES:
     dance-double:
     :
     Medium:
     9:
     :
00000000
00000000
00000000
00000000
,
00000000
00000000
00000000
00000000
,
00000000
00000000
00000000
00000000
,
00000000
00000000
00000000
00000000
,
00000000
00000000
00000000
00000000
,
00000000
00000000
00000000
00000000
,
00011000
00000000
00000000
00000000
,
01100000
00000000
00000000
00000000
,
11000000
00000000
01100000
00000000
,
00010000
00001000
00000100
00000101
,
00000001
00000000
00000100
00000000
00001000
00000000
00000000
00010000
,
00000000
01000000
00000000
10000000
00100000
00000000
10000000
00000000
,
01000000
00010000
00001000
00000100
,
00000002
00000000
00000013
00000110
,
00000001
00000000
00000100
00000000
00001000
00000000
00000000
00010000
,
00000000
01000000
00000000
10000000
00100000
00000000
10000000
00000000
,
01000000
00010000
00001000
00000000
,
00000020
00000000
00000130
00000011
,
00000110
00000000
00011000
00000000
,
00010000
00001000
00000000
00010000
00000000
00001000
00010000
00000000
,
00100000
10000000
00100000
00000000
10000000
00000000
01000000
00000000
,
00010000
00000000
00001000
00000000
00000100
00000001
00000100
00000000
,
00000001
00000010
00001000
00010000
,
01000000
00000000
10000000
00000000
01000000
01000000
01000000
00000000
,
10000000
10000000
01000000
01000000
,
00010000
00010000
00001000
00001000
,
00000110
00000000
00000011
00000000
,
00000001
00000010
00000001
00000000
00000100
00000000
00000001
00000000
,
00000010
00000001
00000010
00000000
00000001
00000000
00000100
00000000
,
00001000
00000000
00010000
00000000
01000000
10000000
01000000
00000000
,
10000000
00100000
00010000
00001000
,
00000100
00000000
00000001
00000000
00000100
00000100
00000100
00000000
,
00000001
00000001
00000100
00000100
,
00001000
00001000
00010000
00010000
,
01000000
00000000
01000000
00000000
10000000
00100000
10000000
00100000
,
00000000
10000000
00000000
00100000
10000000
00000000
00000000
00000000
,
10000000
00000000
00000000
10000000
01000000
00000000
00000000
00000000
,
00010000
00000000
00000000
00010000
00001000
00000000
00000000
00000000
,
00000100
00000000
00000000
00000100
00000001
00000000
00000000
00000000
,
00001000
00000000
00000100
00000000
00010000
00000100
00001000
00000100
,
00010000
00000000
00000000
00001000
00100000
00000000
00000000
00000000
,
00010000
01100000
10000000
00000000
,
10000000
00100000
00010000
00001000
,
00000100
00000001
00000010
00000001
,
00000001
00000010
00000000
00000000
00001000
00000000
00020000
00000000
,
00030000
01000000
10000000
00100000
,
10000000
01000000
00000000
00000000
01000000
00000000
00200000
00000000
,
00300000
00001000
00000000
00010000
,
00001000
00010000
00000000
00000000
00000100
00000000
00002000
00000000
,
00003000
00000001
00000010
00000001
,
00000100
00001000
00000000
00000000
00010000
00000000
00200000
00000000
,
00300000
10000000
00000000
10000000
,
00010000
00100000
00001000
00010000
,
00001000
00000100
00000000
00000001
00000100
00000000
00000000
00000000
,
00000001
00000100
00001000
00010000
,
00100000
10000000
00000000
00100000
01000000
00000000
01100000
00000000
,
10100000
01000000
00010000
00001000
,
00000100
00000001
00000010
00000101
,
00000001
00000001
00000100
00000100
,
00001000
00010000
00001000
00010000
00000000
00001000
01000000
00000000
,
00010000
00000000
10000000
00000000
01000000
00000000
00000000
00100000
,
00000000
10000000
01100000
00000000
,
00010000
00001000
00000100
00000001
,
00000100
00000001
00000100
00000001
00000100
00000000
00000001
00000000
,
00000011
00000100
00001000
00010000
,
01000000
10000000
00100000
11000000
,
10000000
10000000
01000000
01000000
,
00010000
00001000
00010000
00001000
00000000
00010000
00000100
00000000
,
00001000
00000000
00000001
00000000
00000100
00000000
00000000
00000010
,
00000000
00000001
00000110
00000000
,
00010000
00001000
00100000
00001000
,
00010000
00001000
00010000
00000000
00001000
00010000
00000000
00000000
,
01100000
00000000
00000000
10000000
01000000
00000000
10000000
00000000
,
01000000
00000000
00000000
00010000
00001000
00000000
00011000
00000000
,
00000010
00010000
00001000
00100000
,
00010000
00001000
00010000
01000000
,
10000000
00000000
00000000
00000000
00000000
00000000
00000000
01000000
,
00000000
00010000
00000000
00001000
00000110
00000000
00000000
00000000
,
00000001
00000000
00000100
00000000
00001000
00000000
00000000
00010000
,
00000000
01000000
00000000
10000000
00100000
00000000
10000000
00000000
,
01000000
00010000
00001000
00000100
,
00000002
00000000
00000013
00000110
,
00000001
00000000
00000100
00000000
00001000
00000000
00000000
00010000
,
00000000
01000000
00000000
10000000
00100000
00000000
10000000
00000000
,
01000000
00010000
00001000
00000000
,
00000020
00000000
00000130
00000011
,
00000002
00000000
00000000
00000003
,
00000020
00000000
00000000
00000000
,
00002030
00000000
00000000
00000000
,
00023000
00000000
00000000
00000000
,
01030000
00000000
10010000
00000000
,
10000000
01000000
00000000
00000000
,
00000000
00000000
00000000
00000000
,
00000000
00000000
00000000
00000001
,
00000100
00000000
00000000
00000000
,
00000000
00000000
00000000
00000000
;
#NOTES:
     dance-double:
     :
     Hard:
     12:
     :
00000000
00000000
00000000
00000000
,
00000000
00000000
00000000
00000000
,
00000000
00000000
00000000
00000000
,
00000000
00000000
00000000
00000000
,
00000000
00000000
00000000
00000000
,
00000000
00000000
00000000
00000000
,
10000000
00000000
01000000
00100000
00000000
00010000
01000000
00001000
,
00010000
00000000
00000000
00000000
00001000
00000000
00010000
00000000
00000000
00000000
00001000
00010000
00001000
00000000
00000000
00000000
,
00010000
00000000
00000010
00000000
,
00000011
00000110
00001100
00011000
,
00010000
00100000
10000000
00000000
00100000
00000000
01000000
00100000
,
00000000
00010000
00000000
00001000
00000100
00000000
00000010
00000000
,
00001000
00000001
00000100
00000000
00001000
00000000
00010000
00100000
,
00000000
10000000
00000000
00010000
00100000
00000000
00100000
00000000
,
00001000
00100000
00001000
00000000
00100000
00000000
01000000
00100000
,
00000000
00001000
00000000
00010000
00000100
00000000
00000010
00000000
,
00000001
00000010
00000100
00000000
00000010
00000000
00001000
00010000
,
00000000
00001000
00000000
00010000
00100000
00000000
01000000
00000000
,
11000000
00000000
00110000
00000000
,
00010000
00000000
00000000
00001000
00000000
00000000
00010000
00000000
00000000
00000000
00010000
00000000
00001000
00000000
00000000
00000000
,
00010000
00001000
00000100
00000000
00000001
00000000
00001000
00000100
,
00000000
00000010
00000000
00000001
00000100
00001000
00010000
01000000
,
10000000
00000000
01000000
00000000
10000000
00000000
01000000
00010000
,
00000000
00001000
00000000
00000100
00000001
00000010
00000001
00000000
,
00000100
00000000
00001000
00000000
00010000
00100000
01000000
00000000
,
10000000
00000000
00010000
00000000
10000000
01000000
00010000
00000000
,
00011000
00000000
00010100
00000000
,
00001000
00000010
00000100
00000001
00000100
00001000
00000001
00000000
,
00000100
00001000
00000000
00010000
00000000
01000000
10000000
01000000
,
00000000
10000000
00000000
00100000
00010000
00001000
00000000
00000100
,
00000000
00000001
00000000
00000010
00000000
00000001
00000010
00001000
,
00000000
00010000
00000000
00001000
00010000
00001000
01000000
00000000
,
10010000
00000000
01100000
00000000
10000000
01000000
00010000
00000000
,
00011000
00000000
00011000
00000000
00001000
00000100
00000001
00000000
,
00000011
00000000
00000000
00000000
00000001
00000100
00000010
00010000
,
00000000
00001000
00000000
00010000
00001000
00000000
00011000
00000000
,
00100000
00000000
00000000
10000000
01000000
00000000
10000000
00000000
,
00100000
00000000
00000000
00010000
00001000
00000000
00000110
00000000
,
00000001
00000000
00000000
00000100
00001000
00000000
00010000
00000000
,
00001000
00100000
00001000
00000000
00100000
00000000
00001000
00000000
01000000
00000000
00000000
00000000
01100000
00000000
00000000
00000000
,
10000000
00000000
00000000
01000000
00010000
00000000
00000000
00000000
,
00001000
00000000
00000000
00010000
00000000
00000000
00001000
00000000
00000100
00000000
00000001
00000000
00000000
00000000
00000000
00000000
,
00000001
00000000
00000100
00000000
00001000
00010000
01000000
10000000
,
01000000
00000000
00000000
00000000
10000000
00000000
00000000
01000000
00100000
00000000
01000000
00000000
00100000
00000000
00000000
00000000
,
10000000
01000000
00010000
00000000
00001000
00000000
00000200
00000000
,
00000300
00000001
00000010
00000001
,
00000001
00000100
00001000
00000000
00010000
00000000
00200000
00000000
,
00300000
10000000
00000000
11000000
,
00010000
00001000
00010000
00000000
00001000
00000000
00000200
00000000
,
00000300
00000001
00000010
00000001
,
00000010
00001000
00010000
00000000
01000000
00000000
00200000
00000000
,
00300000
00001000
00000000
00010000
,
00001000
00010000
00001000
00010000
,
00001000
00000100
00000000
00000001
00000100
00000000
00000000
00000000
,
00000001
00000100
00001000
00010000
01000000
10000000
01000000
00100000
,
10000000
01000000
00000000
00010000
00001000
00000000
00011000
00000000
,
00010000
00000000
00001000
00000000
00000110
00000000
00000000
00000001
,
00000000
00000010
00001000
00000000
00010000
00000000
00011000
00000000
,
00001000
00100000
00010000
01000000
00100000
10000000
00100000
01000000
,
00001000
01000000
00001000
00010000
00000000
00001000
00000100
00000000
,
00000001
00000000
00000010
00000000
00000011
00000000
00000000
00000001
,
00000000
00000010
00001000
00000000
00011000
00000000
00000000
01000000
,
10000000
00100000
10000000
01000000
00100000
00001000
00000000
00010000
,
00000000
00001000
00010000
00001000
00010000
00000100
00000010
00000000
,
00000001
00000000
00001000
00000000
00000110
00000000
00000000
00000001
,
00000000
00000010
00001000
00000000
00010000
00000000
00011000
00000000
,
00001000
00100000
00010000
01000000
00100000
10000000
00100000
01000000
,
00001000
01000000
00001000
00010000
00000000
00001000
00000100
00000000
,
00000001
00000000
00000010
00000000
00000011
00000000
00000000
00000001
,
00000000
00000010
00001000
00000000
00011000
00000000
00000000
01000000
,
10000000
00100000
10000000
01000000
00100000
00000000
00001000
00010000
,
00000100
00001000
00000100
00000010
00000001
00000010
00000001
00000000
,
00000011
00000000
00000000
00000100
00001000
00000000
00011000
00000000
,
00010000
00000000
00000000
00100000
01000000
00000000
01100000
00000000
,
10000000
00000000
00000000
01000000
00010000
00000000
00001000
00000000
,
00000010
00000000
00000001
00000010
00000100
00001000
00000100
00000000
,
00010000
00000000
00001000
01000000
00010000
00100000
01000000
10000000
,
00000000
00010000
00000000
01000000
00001000
00000000
00011000
00000000
,
00010000
00100000
10000000
00000000
00100000
00000000
01000000
00100000
,
00000000
00010000
00000000
00001000
00000100
00000000
00000010
00000000
,
00001000
00000001
00000100
00000000
00001000
00000000
00010000
00100000
,
00000000
10000000
00000000
00010000
00100000
00000000
00100000
00000000
,
00001000
00100000
00001000
00000000
00100000
00000000
01000000
00100000
,
00000000
00001000
00000000
00010000
00000100
00000000
00000010
00000000
,
00000001
00000010
00000100
00000000
00000010
00000000
00001000
00010000
,
00000000
00001000
00000000
00010000
00100000
00000000
01000000
00000000
,
00020000
01000000
01000000
01000000
,
10000000
10000000
10000000
01000000
,
01000000
01000000
01000000
01000000
,
00100000
00000000
00000000
00000000
,
00030010
00000000
00011000
00000000
,
00001000
00010000
00001000
00000000
00000000
00000000
00000000
00000000
,
00000000
00000000
00000000
00000000
,
00000000
00000000
00000000
00000000
00000000
00000000
00010000
01000000
,
10000000
01000000
00000000
00000000
00000000
00000000
00000000
00000000
,
00000000
00000000
00000000
00000000
;
