#TITLE:回レ!雪月花;
#ARTIST:歌組雪月花;
#TITLETRANSLIT:Maware! Setsugetsuka;
#ARTISTTRANSLIT:Utagumi Setsugetsuka;
#BANNER:Maware! Setsugetsuka.png;
#BACKGROUND:Maware! Setsugetsuka-bg.png;
#CDTITLE:./CDTitles/DDR (2014).png;
#MUSIC:Maware! Setsugetsuka.ogg;
#SAMPLESTART:59.977;
#SAMPLELENGTH:15;
#BPMS:0=160;
#NOTES:
     dance-single:
     :
     Beginner:
     2:
     :
0000
0000
0000
0000
,
0000
0000
0000
0000
,
0000
0000
0000
0000
,
0000
0000
0000
0000
,
0000
0000
0000
0000
,
0000
0000
0000
0000
,
0001
0000
0001
0000
,
0001
0000
0001
0000
,
1000
0000
1000
0000
,
1000
0000
0000
0000
,
0001
0000
0001
0000
,
0001
0000
0000
0000
,
1000
0000
1000
0000
,
1000
0000
0000
0000
,
0001
0000
0001
0000
,
0001
0000
0000
0000
,
0100
0000
0100
0000
,
0100
0100
0100
0000
,
0100
0000
0000
0000
,
1000
0000
1000
0000
,
1000
0000
1000
0000
,
0001
0000
0001
0000
,
0001
0000
0000
0000
,
1000
0000
1000
0000
,
1000
0000
0000
0000
,
0001
0000
0001
0000
,
0001
0000
0000
0000
,
1000
0000
1000
0000
,
1000
0000
0000
0000
,
0100
0000
0100
0000
,
0100
0100
0100
0000
,
0100
0000
0000
0000
,
0010
0000
0000
0000
,
0001
0000
0001
0000
,
0100
0000
0100
0000
,
1000
0000
0000
0000
,
0001
0000
0000
0000
,
1000
0000
0000
0000
,
0100
0000
0100
0000
,
0100
0000
0000
0000
,
0001
0000
0100
0000
,
1000
0000
0010
0000
,
0001
0000
0000
0000
,
0100
0000
0000
0000
,
1000
0000
0100
0000
,
0001
0000
0010
0000
,
1000
0000
0000
0000
,
0100
0000
0000
0000
,
0001
0000
0001
0000
,
1000
0000
1000
0000
,
0001
0000
0000
0000
,
1000
0000
0000
0000
,
1001
0000
0001
0000
,
0010
0000
1000
0000
,
0100
0000
0100
0000
,
0100
0100
0100
0000
,
1000
0000
1000
0000
,
1000
0000
1000
0000
,
0001
0000
0001
0000
,
0001
0000
0000
1001
,
0000
0000
0000
0000
;
#NOTES:
     dance-single:
     :
     Easy:
     5:
     :
0000
0000
0000
0000
,
0000
0000
0000
0000
,
0000
0000
0000
0000
,
0000
0000
0000
0000
,
0000
0000
0000
0000
,
0000
0000
0000
0000
,
1000
0001
1000
0001
,
1000
0001
1000
0001
,
0010
0100
0010
0100
,
0020
0000
0030
0000
,
1000
0000
1000
0000
,
1000
0100
0010
0000
,
0001
0000
0001
0000
,
0001
0100
0010
0000
,
1000
0000
1000
0000
,
0100
0100
0100
0100
,
0001
0000
1000
0000
,
0001
1000
0001
0000
,
1001
0000
1001
0000
,
1000
0001
1000
0001
,
1000
0001
1000
0001
,
0010
0100
0010
0100
,
0020
0000
0030
0010
,
0001
0000
0001
0000
,
0001
0100
0010
0000
,
1000
0000
1000
0000
,
1000
0100
0010
0000
,
0001
0000
0001
0000
,
1000
0000
1000
0000
,
0001
0000
1000
0000
,
0001
1000
0001
0000
,
1001
0000
1001
0000
,
0200
0000
0000
0300
,
0001
0001
0001
0000
,
0200
0300
2000
3000
,
0020
0000
0000
0030
,
0001
0000
1000
0000
,
0010
0000
0100
0000
,
0002
0000
0000
0000
,
0003
0000
0000
0000
,
0100
1000
0010
0001
,
0100
1000
0010
0001
,
0100
0000
0100
0000
,
1000
0001
1000
0000
,
0100
0001
0010
1000
,
0100
0001
0010
1000
,
0100
0000
0100
0000
,
0010
0000
0001
0001
,
1001
0000
0110
0000
,
1000
0100
0010
0001
,
1000
0000
0001
0000
,
0100
0100
0010
0010
,
0110
0000
1001
0000
,
0010
1000
0100
0001
,
0010
0000
0100
0000
,
0010
0100
1001
0000
,
1000
0001
1000
0001
,
1000
0001
1000
0001
,
0010
0100
0010
0100
,
0020
0000
0030
1001
,
0000
0000
0000
0000
;
#NOTES:
     dance-single:
     :
     Medium:
     8:
     :
0000
0000
0000
0000
,
0000
0000
0000
0000
,
0000
0000
0000
0000
,
0000
0000
0000
0000
,
0000
0000
0000
0000
,
0000
0000
0000
0000
,
0000
1000
0000
0100
0000
0001
0000
0100
,
0000
1000
0000
0100
0000
0001
0100
0001
,
0000
0100
0000
1000
0000
0100
0000
0001
,
0000
0100
0000
1000
0000
0001
1000
0001
,
1000
1000
1000
1000
,
0001
0001
0201
0310
,
1000
1000
1000
1000
,
0001
0001
1100
0011
,
1000
0000
1000
0000
1000
0100
1000
0000
,
0100
0010
0110
0110
,
0001
0001
1000
1000
,
0010
0100
1001
0100
,
0110
0000
0000
0000
0010
1000
0010
1000
,
0000
0001
0000
0100
0000
1000
0000
0100
,
0000
0001
0000
0100
0000
1000
0100
1000
,
0000
0100
0000
0001
0000
0100
0000
1000
,
0200
0000
0300
1001
,
0100
0100
0010
0000
,
1000
1000
0002
0023
,
0130
0100
0010
0000
,
0001
0001
0101
0000
,
1000
0000
1000
0000
1000
0010
1000
0000
,
0010
0000
0100
0000
0001
1000
0001
0000
,
1000
1000
0001
0001
,
0100
0010
0110
0000
,
1000
0000
0011
0000
0100
1000
0100
0000
,
1000
0100
0001
0100
,
1000
0010
0001
0010
,
1000
0100
0001
0010
,
1000
0200
0320
0032
,
2003
0000
3010
0000
,
0100
0100
0010
0000
,
0001
0010
0100
2000
,
0002
3003
0000
0000
,
1001
0110
1001
0110
,
1001
0110
1001
0110
,
1000
0100
0001
0010
,
0001
1000
2002
3003
,
0110
1001
0110
1001
,
0110
1001
0110
1001
,
0010
0001
0100
0010
,
1000
0001
0100
0000
0010
0000
0010
0000
,
0101
0000
0000
0100
0010
0000
0000
1000
,
0100
0010
0001
1000
,
0002
0100
2003
0010
,
3001
0100
0001
0000
0010
0000
1000
0100
,
0001
0000
0001
0100
1000
0000
0001
0000
,
1001
0110
1001
0110
,
1000
0001
0100
0010
,
1100
0101
1001
0000
,
0000
0010
0000
1001
0000
0100
0000
1001
,
0000
0010
0000
1001
0000
0100
0000
1001
,
0000
0010
0000
1001
0000
0100
0000
0010
,
0200
0000
0300
1001
,
0000
0000
0000
0000
;
#NOTES:
     dance-single:
     :
     Hard:
     11:
     :
0000
0000
0000
0000
,
0000
0000
0000
0000
,
0000
0000
0000
0000
,
0000
0000
0000
0000
,
0000
0000
0000
0000
,
0000
0000
0000
0000
,
0100
0010
0100
0001
0100
0010
0100
0001
,
0100
0010
0100
0001
0100
0010
0100
0001
,
1000
0100
0010
0100
1000
0100
0010
0100
,
1000
0100
0010
0100
1000
0001
1000
0001
,
0100
0100
0100
0100
,
1000
0100
0010
0001
1000
0000
0001
0000
,
0100
0100
0100
0100
,
1000
0010
0100
0001
0020
0000
0130
0000
,
1000
1000
0001
0001
,
0100
1000
0010
0000
0010
0001
0100
0000
,
0010
1000
0100
0001
,
0011
1100
0101
0010
,
0100
0000
0000
0100
0000
0000
0100
0000
0010
0000
0000
0000
1001
0000
0000
0000
,
0010
0100
0010
1000
0010
0100
0010
1000
,
0010
0100
0010
1000
0010
0100
0010
1000
,
0001
0010
0100
0010
0001
0010
0100
0010
,
0001
0010
0000
0010
0100
0000
1001
0000
,
0100
0100
0010
0100
,
1000
0100
0010
0001
1000
0100
0010
0001
,
0100
0100
0010
0100
,
1000
0010
0100
0001
0020
0000
0130
0000
,
0001
0101
1000
1100
,
0010
0001
0100
0010
1000
0100
0010
0000
,
0001
0100
1000
0010
,
0101
1010
1001
0100
,
0010
0000
0000
0010
0000
0000
0010
0000
0100
0000
0001
0000
1000
0000
0000
0000
,
1000
0000
0000
1000
0100
0000
0000
0100
0010
0000
0000
0010
0001
0000
0000
0001
,
0100
0000
0000
0100
0010
0000
0000
0010
1000
0000
0000
1000
0100
0000
0000
0100
,
0010
0000
0000
0010
0001
0000
0000
0001
0100
0000
0000
0100
0010
0000
0000
0010
,
1000
0000
0000
1000
0100
0000
0000
0100
0010
0000
0000
0010
0001
0000
0000
0001
,
0200
0000
0310
0000
,
1000
0000
0001
0100
0010
1000
0001
0000
,
0200
0320
2030
3002
,
0103
0000
2002
3003
,
0001
0100
1000
0010
0001
0100
1000
0010
,
0001
0000
0100
0000
1000
0000
0010
0000
0001
0000
0000
0100
0000
0000
1000
0000
,
0000
0100
0001
0100
0001
0000
1000
0000
,
0011
1100
2002
3003
,
1000
0100
0001
0010
1000
0100
0001
0010
,
1000
0000
0100
0000
0001
0000
0010
0000
1000
0000
0000
0100
0000
0000
0001
0000
,
0000
0100
1000
0100
1000
0000
0001
0000
,
0010
0100
1000
0000
1000
0000
0001
0000
,
0101
0000
0000
1000
1100
0000
0000
0001
,
0001
1000
1000
0001
1000
0100
0010
0001
,
0100
0000
0000
0100
0010
0000
0000
0010
1000
0000
0000
1000
0100
0000
0000
0100
,
0010
0000
0000
0010
0001
0000
0000
0000
0100
0000
0000
0000
1010
0000
0000
0000
,
1200
0310
0201
0310
,
1000
0000
0100
0000
0001
0000
0010
0000
1000
0000
0000
0100
0000
0000
0001
0000
,
0000
0100
1000
0000
0001
0000
0100
0000
,
1010
0101
0011
0000
,
1000
0010
0100
0010
1000
0010
0100
0010
,
1000
0010
0100
0010
1000
0010
0100
0001
,
0010
0100
1000
0100
0010
0100
1000
0100
,
0020
0100
0000
0100
0130
0000
1001
0000
,
0000
0000
0000
0000
;
#NOTES:
     dance-single:
     :
     Challenge:
     13:
     :
0000
0000
0000
0000
,
0000
0000
0000
0000
,
0000
0000
0000
0000
,
0000
0000
0000
0000
,
0000
0000
0000
0000
,
0000
0000
0000
0000
,
0000
0101
0000
0011
0000
1010
0000
1100
,
0000
0101
0000
0011
0000
0010
1000
0100
,
0000
1100
0000
1010
0000
0011
0000
0101
,
0000
1100
0000
1010
0000
0010
0010
0010
,
0000
0000
0100
0000
0001
0000
0100
0001
0000
0000
1000
0000
0001
0000
0010
0000
,
0100
0000
1000
0000
0100
0000
0010
0000
0001
1000
0000
0001
1000
0000
0100
0000
,
0000
0000
0010
0000
0001
0000
0100
0000
0001
1000
0000
0001
1000
0001
0000
1000
,
0100
0000
0010
0000
0001
0000
0100
0000
1000
0000
0000
0010
0000
0000
0001
0000
,
0000
0100
0010
0100
0001
0100
1000
0100
,
0001
1000
0001
1000
0001
0000
0010
0000
0100
0000
0010
0000
0100
0000
1000
0000
,
0010
0000
0000
0001
0000
0000
0100
0000
1000
0000
0010
0000
0100
0000
0001
0000
,
1000
0100
0020
0000
0031
0000
1000
0000
,
1100
0000
0000
0101
0000
0000
1100
0000
0010
0000
0100
0010
0100
0000
0001
0000
,
0000
0101
0000
0011
0000
1010
0000
1100
,
0000
0101
0000
0011
0000
0010
1000
0100
,
0000
1100
0000
1010
0000
0011
0000
0001
,
0200
0010
0000
0010
0310
0000
1001
0000
,
0000
0000
0010
0000
1000
0000
0010
0000
0001
0000
0010
0000
1000
0000
0010
0100
,
0010
0000
1000
0000
0100
0000
0010
0000
0001
1000
0000
1000
0001
1000
0001
0000
,
1000
0000
0010
0000
0100
0000
0001
0000
1000
0100
1000
0000
0010
0000
0100
0000
,
0010
0000
0100
0000
0001
0000
0020
0000
0001
0000
0000
1000
0000
0000
0031
0000
,
0000
0000
0010
0000
0100
0000
1000
0000
0010
0000
0100
0000
0001
1000
0000
0001
,
1000
0000
0010
0000
0100
0000
0010
0000
1000
0000
0001
0100
0001
0000
0010
0000
,
1000
0000
0000
0100
0000
0000
0001
0000
0010
0000
0100
0000
1000
0000
0100
0000
,
1100
0101
1001
0010
,
0101
0000
0000
1100
0000
0000
0101
0000
0010
0000
0100
0000
0001
0000
1000
0000
,
0001
0000
0000
0001
1000
0000
0000
1000
0100
0000
0000
0100
0001
0000
0000
0001
,
1000
0000
0000
1000
0100
0000
0000
0100
0001
0000
0000
0001
1000
0000
0000
1000
,
0001
0000
0000
0001
1000
0000
0000
1000
0010
0000
0000
0010
0001
0000
0000
0001
,
1000
0000
0000
1000
0010
0000
0000
0010
0001
0000
0000
0001
1000
0000
0000
0000
,
1001
0200
0302
0013
,
0200
0000
0301
0001
2000
0000
3100
0000
,
0020
2030
3200
0302
,
1003
0000
0220
0330
,
0001
0000
0001
0100
0000
0100
1000
0000
1000
0010
0000
0010
0001
0000
0001
0100
,
0000
0100
1000
0000
1000
0010
0000
0010
0002
0000
0000
0203
0000
0000
1300
0000
,
0000
0000
0100
0000
0010
0000
0100
0000
0001
0000
0000
0011
0000
0000
0010
0000
,
0001
1000
0010
0100
0002
0000
1003
0000
,
1000
0000
1000
0100
0000
0100
0001
0000
0001
0010
0000
0010
1000
0000
1000
0100
,
0000
0100
0001
0000
0001
0010
0000
0010
2000
0000
0000
3200
0000
0000
0301
0000
,
0000
0000
0100
0000
0010
0000
0100
0000
1000
0000
0000
0001
0000
0000
0100
0000
,
0010
1000
0001
0000
1100
0000
0110
0000
,
0202
0000
0000
0000
0303
0000
1000
0100
2000
0000
0000
0000
3000
0000
0001
0100
,
0001
0000
1000
0010
1000
0000
0001
0000
0010
0000
1000
0000
0010
0000
0001
0000
,
0000
0000
0001
0000
1000
0000
0010
0000
0100
0000
0000
0010
0000
0000
0010
0000
,
1000
1000
0100
0000
0011
0000
0101
0000
,
0010
0100
0010
0100
0010
0000
1000
0001
0020
0000
0000
0000
0030
0000
0001
0000
,
0010
0000
1000
0000
0100
0000
0001
0000
0010
0000
0000
1001
0000
0000
0110
0000
,
0000
0000
0001
0000
1000
0000
0010
0000
0100
0000
0000
0001
0000
0000
0010
0000
,
1100
1001
1010
0000
,
0000
0011
0000
0101
0000
1100
0000
1010
,
0000
0011
0000
0101
0000
0100
1000
0010
,
0000
0110
0000
1001
0000
0110
0000
1001
,
0001
0100
1000
0010
0001
0000
1001
0000
,
0000
0000
0000
0000
;
#NOTES:
     dance-double:
     :
     Easy:
     3:
     :
00000000
00000000
00000000
00000000
,
00000000
00000000
00000000
00000000
,
00000000
00000000
00000000
00000000
,
00000000
00000000
00000000
00000000
,
00000000
00000000
00000000
00000000
,
00000000
00000000
00000000
00000000
,
00010000
00000000
00010000
00000000
,
00001000
00000000
00001000
00000000
,
00010000
00000000
00010000
00000000
,
00001000
00000000
00000000
00000000
,
00010000
00000000
00010000
00000000
,
00010000
00000000
00000000
00000000
,
01000000
00000000
01000000
00000000
,
01000000
00000000
00000000
00000000
,
10000000
00000000
10000000
00000000
,
10000000
00000000
00000000
00000000
,
00100000
00000000
00100000
00000000
,
00100000
00000000
00000000
00000000
,
01100000
00000000
00000000
00000000
,
00010000
00000000
00010000
00000000
,
00001000
00000000
00001000
00000000
,
00010000
00000000
00010000
00000000
,
00001000
00000000
00000000
00000000
,
00001000
00000000
00001000
00000000
,
00001000
00000000
00000000
00000000
,
00000100
00000000
00000100
00000000
,
00000100
00000000
00000000
00000000
,
00000001
00000000
00000001
00000000
,
00000001
00000000
00000000
00000000
,
00000010
00000000
00000010
00000000
,
00000010
00000000
00000000
00000000
,
00000110
00000000
00000000
00000000
,
00002000
00000000
00003000
00000000
,
00020000
00000000
00030000
00000000
,
00200000
00000000
00300000
00000000
,
20000000
00000000
30000000
00000000
,
01000000
00000000
00000000
00000000
,
00010000
00000000
00000000
00000000
,
00002000
00000000
00000000
00000000
,
00003000
00000000
00000000
00000000
,
00000100
00000000
00001000
00000000
,
00000010
00000000
00000001
00000000
,
00000100
00000000
00000100
00000000
,
00001000
00000000
00010000
00000000
,
00100000
00000000
10000000
00000000
,
01000000
00000000
00010000
00000000
,
00100000
00000000
00100000
00000000
,
00100000
00000000
00000000
00000000
,
10000000
00000000
01000000
00000000
,
00100000
00000000
00010000
00000000
,
00001000
00000000
00001000
00000000
,
00001000
00000000
00000000
00000000
,
00000100
00000000
00001000
00000000
,
00000010
00000000
00000001
00000000
,
00000100
00000000
00000000
00000000
,
00001000
00001000
00001000
00000000
,
00010000
00000000
00010000
00000000
,
00001000
00000000
00001000
00000000
,
00010000
00000000
00010000
00000000
,
00001000
00000000
00001000
00011000
,
00000000
00000000
00000000
00000000
;
#NOTES:
     dance-double:
     :
     Medium:
     7:
     :
00000000
00000000
00000000
00000000
,
00000000
00000000
00000000
00000000
,
00000000
00000000
00000000
00000000
,
00000000
00000000
00000000
00000000
,
00000000
00000000
00000000
00000000
,
00000000
00000000
00000000
00000000
,
00010000
00000100
00010000
00000010
,
00010000
00000100
00010000
00001000
,
00100000
00001000
01000000
00001000
,
00100000
00001000
01000000
00001000
,
00011000
01000000
01000000
01000000
,
10000000
00000000
01000000
00000000
00010000
00001000
00010000
00000000
,
00001000
00000100
00000100
00000100
,
00000001
00000010
00000001
00001100
,
00010000
00001000
00000100
00001000
,
00010000
00100000
01000000
00100000
,
10000000
10000000
00010000
00010000
,
10000000
00010000
10010000
00000000
,
00101000
00000000
00010100
00000000
,
00001000
00100000
00001000
01000000
,
00001000
00100000
00001000
00010000
,
00000100
00010000
00000010
00010000
,
00000100
00010000
00001000
00011000
,
00000010
00000100
00000010
00000100
,
00000010
00000000
00000001
00000000
00000100
00001000
00010000
00000000
,
00100000
01000000
00100000
00100000
,
10000000
01000000
00010000
00000000
00001000
00000000
00000000
00000000
,
00010000
00000010
00000100
00000010
,
00001000
01000000
00100000
01000000
,
00010000
00010000
00001000
00001000
,
00010000
00001000
00011000
00000000
,
01001000
00000000
00010010
00000000
,
00000200
00000001
00000320
00000001
,
00000130
00000000
00001000
00000000
00010000
00001000
00100000
00000000
,
02000000
10000000
03200000
10000000
,
00310000
10000000
00100000
00010000
,
00002000
00000000
00000010
00000000
,
00023000
00000000
00100000
00000000
,
00031000
00010000
00001000
00000100
,
00000002
00000000
00001003
00000000
,
00000100
00001000
00000010
00000001
,
00000100
00001000
00000010
00000001
,
00000100
00001000
00010000
00100000
,
01000000
00100000
01000000
00000000
20020000
00000000
30030000
00000000
,
01000000
00010000
00100000
10000000
,
01000000
00010000
00100000
10000000
,
01000000
00010000
10000000
01000000
,
00010000
00001000
00000100
00000010
,
00001001
00000000
00000110
00000000
,
00011000
00100000
01000000
10010000
,
01000000
00010000
00001000
00000100
,
00000010
00000100
00001000
00000000
00010000
00000000
01100000
00000000
,
01000000
00100000
00010000
00000000
00001000
00010000
00001000
00000000
,
00000100
00000001
00000010
00001000
,
00000100
00000001
00000010
00001000
,
00010000
00001000
00011000
00000000
,
00010000
00000100
00010000
00000010
,
00010000
00000100
00010000
00001000
,
00100000
00001000
01000000
00010000
,
00100000
10000000
01000000
00010000
,
00000000
00000000
00000000
00000000
;
#NOTES:
     dance-double:
     :
     Hard:
     12:
     :
00000000
00000000
00000000
00000000
,
00000000
00000000
00000000
00000000
,
00000000
00000000
00000000
00000000
,
00000000
00000000
00000000
00000000
,
00000000
00000000
00000000
00000000
,
00000000
00000000
00000000
00000000
,
00100000
00010000
01000000
00001000
00100000
00010000
01000000
00001000
,
00100000
00010000
01000000
00001000
00100000
00010000
01000000
00001000
,
00010000
00000010
00001000
00000100
00010000
00000010
00001000
00000100
,
00010000
00000010
00001000
00000100
00010000
00000010
00000100
00000010
,
00000100
00000100
00000100
00000100
,
00000010
00001000
00000001
00000100
00001000
00000000
00100000
00000000
,
01000000
01000000
01000000
01000000
,
00100000
00010000
10000000
01000000
00010000
00000000
00011000
00000000
,
00000100
00000001
00000100
00001000
,
00000100
00000001
00000100
00000010
00000100
00001000
00000100
00000000
,
00001000
00000000
00010000
00000000
00100000
10000000
00010000
00000000
,
00100000
01000000
01100000
10010000
,
00100000
00000000
00000000
10000000
00000000
00000000
01000000
00000000
00010000
00000000
00000000
00000000
00011000
00000000
00000000
00000000
,
00000010
00001000
00000100
00010000
00000010
00001000
00000100
00010000
,
00000010
00001000
00000100
00010000
00000010
00001000
00000100
00010000
,
00001000
00100000
00010000
01000000
00001000
00100000
00010000
01000000
,
00010000
00100000
01000000
10000000
00010000
00000000
10010000
00000000
,
01000000
01000000
00100000
00000000
,
00010000
00001000
00010100
00000000
,
00000010
00000010
00000100
00000000
,
00001000
00010000
00101000
00000000
,
01000000
00100000
00010000
00000000
00001000
01000000
00100000
00000000
,
00100000
00010000
00001000
00000000
00010000
01000000
10000000
00000000
,
01000000
00000000
00010000
00000000
00001000
00010000
00001000
00000000
,
00011000
00001100
00000011
00000100
,
00000010
00000000
00000000
00000001
00000000
00000000
00000100
00000000
00000010
00000000
00001000
00000000
00000100
00000000
00010000
00000000
,
00001000
00000000
00000000
00001000
00010000
00000000
00000000
00010000
01000000
00000000
00000000
01000000
10000000
00000000
00000000
10000000
,
00100000
00000000
00000000
00100000
00010000
00000000
00000000
00010000
00001000
00000000
00000000
00001000
00000100
00000000
00000000
00000100
,
00000001
00000000
00000000
00000001
00000010
00000000
00000000
00000010
00001000
00000000
00000000
00001000
00010000
00000000
00000000
00010000
,
00100000
00000000
00000000
00100000
10000000
00000000
00000000
10000000
01000000
00000000
00000000
01000000
00010000
00000000
00000000
00010000
,
00002000
00000000
00000100
00000000
,
00023000
00000000
00100000
00000000
,
00031000
00000100
00000001
00000010
,
00000100
00000000
00002002
00003003
,
00000001
00000100
00001000
00010000
00001000
00000010
00000001
00000100
,
00001000
00000000
00010000
00000000
00001000
00000000
00000010
00000000
00000001
00000000
00000000
00000100
00000000
00000000
00001000
00000000
,
00000000
00010000
00001000
00010000
00001000
00000000
00100000
00000000
,
00110000
01010000
20020000
30030000
,
10000000
01000000
00010000
00001000
00010000
00100000
10000000
01000000
,
00010000
00000000
00001000
00000000
00010000
00000000
00100000
00000000
10000000
00000000
00000000
01000000
00000000
00000000
00010000
00000000
,
00000000
00001000
00010000
00001000
00010000
00000000
00000100
00000000
,
00000010
00001001
00000100
00000100
,
00000110
00000000
00001000
00010000
01000000
00000000
00010000
00000000
,
00010100
00101000
00010010
00011000
,
00010000
01000000
10000000
00000000
10000000
00100000
00010000
00000000
,
00010000
00001000
00000100
00000000
00000110
00000000
00001001
00000000
,
00000210
00000301
00001020
00000130
,
00001000
00000000
00010000
00000000
01000000
00000000
10000000
00000000
00100000
00000000
00000000
00010000
00000000
00000000
00001000
00000000
,
00000000
00010000
01000000
10000000
01000000
00000000
00100000
00000000
,
01001000
00011000
00010010
00000000
,
00001000
00000100
00010000
00000010
00001000
00000100
00010000
00000010
,
00001000
00000100
00010000
00000010
00001000
00000100
00010000
00001000
,
00100000
00010000
01000000
00001000
00100000
00010000
01000000
00100000
,
20000000
01000000
00000000
31000000
00010000
00000000
00011000
00000000
,
00000000
00000000
00000000
00000000
;
#NOTES:
     dance-double:
     :
     Challenge:
     13:
     :
00000000
00000000
00000000
00000000
,
00000000
00000000
00000000
00000000
,
00000000
00000000
00000000
00000000
,
00000000
00000000
00000000
00000000
,
00000000
00000000
00000000
00000000
,
00000000
00000000
00000000
00000000
,
00000000
00001010
00000000
00001100
00000000
00011000
00000000
00001010
,
00000000
00001100
00000000
00011000
00000000
00001000
00000010
00010000
,
00000000
00110000
00000000
01010000
00000000
00011000
00000000
00110000
,
00000000
01010000
00000000
00011000
00000000
00001000
00010000
00001000
,
00000000
00000000
00001000
00000000
00010000
00000000
01000000
10000000
00000000
00000000
00100000
00000000
00010000
00000000
00001000
00000000
,
00010000
00000000
01000000
00000000
10000000
00000000
01000000
00000000
00010000
00001000
00000000
00001000
00000010
00000000
00000001
00000000
,
00000000
00000000
00000100
00000000
00001000
00000000
00010000
00000000
00001000
00000000
00010000
00000000
00100000
10000000
00000000
10000000
,
01000000
00000000
00010000
00000000
00001000
00000000
00000010
00000000
00000001
00000000
00000000
00001000
00000000
00000000
00000001
00000000
,
00000000
00000001
00000100
00001000
00010000
00001000
00000010
00000100
,
00001000
00000010
00001000
00010000
01000000
00010000
00001000
00010000
,
01000000
00000000
00000000
00100000
00000000
00000000
10000000
00000000
01000000
00000000
00010000
00000000
00001000
00000000
00000010
00000000
,
00000001
00000100
00002000
00000000
00013000
00000000
00100000
00000000
,
01001000
00000000
00000000
00011000
00000000
00000000
00101000
00000000
00010000
00000000
01000000
00000000
10000000
00000000
00100000
00000000
,
00000000
10100000
00000000
11000000
00000000
01010000
00000000
00110000
,
00000000
10100000
00000000
11000000
00000000
01000000
00010000
00001000
,
00000000
00001010
00000000
00000011
00000000
00000101
00000000
00000100
,
00002000
00000000
00013000
00011000
,
00000000
00001000
00010000
00100000
00010000
00001000
00010000
01000000
,
00010000
00000000
00001000
00000000
00000100
00000000
00000001
00000000
00000010
00000100
00000000
00000100
00000010
00000000
00000001
00000000
,
00000100
00000100
00001000
00010000
01000000
01000000
00010000
00001000
,
00000010
00000000
00000010
00000000
00001000
00000000
00010000
00000000
00100000
00000000
00000000
10000000
00000000
00000000
00010000
00000000
,
00000000
00000000
10000000
00000000
00100000
00000000
01000000
00000000
00010000
00000000
00100000
00000000
00001000
00010000
00000000
00001000
,
00000100
00000000
00000001
00000000
00000100
00000000
00001000
00000000
00000100
00000000
00000001
00000010
00000000
00000000
00001000
00000000
,
00010000
00000000
00000000
00100000
00000000
00000000
10000000
00000000
01000000
00000000
00100000
00000000
00010000
00000000
00001000
00000000
,
00011000
00001100
00001001
00000010
,
00010100
00000000
00000000
00011000
00000000
00000000
00010010
00000000
00001000
00000000
00010000
00000000
01000000
00000000
10000000
00000000
,
00020000
00000000
01000000
00000000
10030000
01000000
00100000
00010000
,
00002000
00000000
00000100
00000000
00003001
00000100
00000010
00001000
,
00020000
00000000
00100000
00000000
10030000
00100000
01000000
00010000
,
00002000
00000000
00000010
00000000
00000001
00000000
00003100
00001000
,
00020000
00000000
00100000
00000000
,
10000000
10000000
01000000
00000000
,
00030100
00000001
00000010
00001000
,
00010000
00000000
00000000
00000000
00021000
00000000
00000000
00030000
,
00100000
00000000
00001000
00010000
00000000
00010000
00100000
00000000
00100000
00001000
00000000
00001000
00010000
00000000
00010000
00100000
,
00000000
00100000
00001000
00000000
00001000
00010000
00000000
00010000
00100000
00000000
00000000
00001000
00000000
00000000
00010000
00000000
,
00000000
00000000
00010000
00000000
00001000
00000000
00010000
00000000
01000000
00000000
00000000
01100000
00000000
00000000
10000000
00000000
,
00100000
01000000
00010000
00100000
00002000
00000000
00010000
00003000
,
00000010
00000000
00010000
00001000
00000000
00001000
00000010
00000000
00000010
00010000
00000000
00010000
00001000
00000000
00001000
00000010
,
00000000
00000010
00010000
00000000
00010000
00001000
00000000
00001000
00000010
00000000
00000000
00010000
00000000
00000000
00001000
00000000
,
00000000
00000000
00001000
00000000
00010000
00000000
00001000
00000000
00000100
00000000
00000000
00000110
00000000
00000000
00000001
00000000
,
00000010
00000100
00001000
00000000
00000101
00000000
00001100
00000000
,
00022000
00000000
00000000
00000000
00033000
00000000
00010000
01000000
00020000
00000000
00000000
00000000
00030000
00000000
01000000
10000000
,
01000000
00000000
10000000
00100000
10000000
00000000
00100000
00000000
00010000
00000000
00001000
00000000
00000010
00000000
00000001
00000000
,
00000000
00000000
00001000
00000000
00000001
00000000
00000100
00000000
00000010
00000000
00000000
00001000
00000000
00000000
00000001
00000000
,
00000100
00001000
00010000
00000000
00110000
00000000
10100000
00000000
,
12000000
00000000
00000000
00000000
03010000
00000000
00001000
00010000
00002000
00000000
00000000
00000000
00013000
00000000
00001000
00000000
,
00000100
00000000
00000001
00000000
00000010
00000000
00001000
00000000
00001010
00000000
00000000
00001100
00000000
00000000
00011000
00000000
,
00000000
00000000
00001000
00000000
00010000
00000000
00100000
00000000
01000000
00000000
00000000
00010000
00000000
00000000
10000000
00000000
,
01100000
00011000
00000110
00000000
,
00000000
00000011
00000000
00000101
00000000
00001100
00000000
00011000
,
00000000
00110000
00000000
10100000
00000000
10000000
01000000
00010000
,
00000000
00011000
00000000
00001010
00000000
00000011
00000000
00000101
,
00000100
00001000
00010000
00100000
10000000
00000000
10010000
00000000
,
00000000
00000000
00000000
00000000
;
