
//----- song id: myhr
#TITLE:MY HERO;
#ARTIST:chairmans 【岩手】;
#ARTISTTRANSLIT:chairmans [Iwate];
#BANNER:MY HERO.png;
#BACKGROUND:MY HERO-bg.png;
#CDTITLE:./CDTitles/DDR (2014).png;
#MUSIC:MY HERO.ogg;
#SAMPLESTART:59.143;
#SAMPLELENGTH:15;
#BPMS:0=140;
#NOTES:
     dance-single:
     :
     Beginner:
     2:
     :
0000
0000
0000
0000
,
0000
0000
0000
0000
,
0000
0000
0000
0000
,
0000
0000
0000
0000
,
0000
0000
0000
0000
,
0001
0000
0001
0000
,
1000
0000
1000
0000
,
0001
0000
1000
0000
,
0010
0000
0000
0000
,
0001
0000
1000
0000
,
0001
0000
1000
0000
,
0010
0010
0000
0000
,
0000
0000
0000
0000
,
0001
0000
0001
0000
,
1000
0000
1000
0000
,
0001
0000
1000
0000
,
0200
0000
0300
0000
,
0001
0000
0001
0000
,
1000
0000
1000
0000
,
0010
0000
0100
0000
,
0001
0000
0000
0000
,
1000
0000
1000
0000
,
0001
0000
0001
0000
,
0010
0000
0000
0000
,
1000
0000
0000
0000
,
1001
0000
0000
0000
,
1001
0000
0000
0000
,
0001
0000
0001
0000
,
1000
0000
1000
0000
,
1001
0000
0000
0000
,
1001
0000
0000
0000
,
0020
0000
0030
0000
,
0200
0000
0300
0000
,
0020
0000
0030
0000
,
1001
0000
0000
0000
,
0001
0000
0001
0000
,
1000
0000
1000
0000
,
0010
0000
0100
0000
,
0010
0000
0100
0000
,
1001
0000
0000
0000
,
0001
0000
1000
0000
,
0010
0010
0010
0000
,
1000
0000
0000
0000
,
1001
0000
0000
0000
,
0001
0000
1000
0000
,
0010
0000
0100
0000
,
1000
0000
0000
0000
,
1001
0000
0000
0000
,
0010
0000
0100
0000
,
1000
0000
0001
0000
,
0020
0000
0030
0000
,
0001
0000
1000
0000
,
0200
0000
0000
0300
,
0000
0000
0000
0000
;
#NOTES:
     dance-single:
     :
     Easy:
     4:
     :
0000
0000
0000
0000
,
0000
0000
0000
0000
,
0000
0000
0000
0000
,
0000
0000
0000
0000
,
0000
0000
0000
0000
,
0001
0000
1000
0000
,
0001
0000
1000
0000
,
0001
0000
1000
0000
,
0001
0010
0100
1000
,
0001
0000
0001
0000
,
1000
0000
1000
0000
,
0010
0100
0001
1000
,
2000
0000
0000
3000
,
0001
0000
1000
0000
,
0001
0000
1000
0000
,
0010
0100
0001
1000
,
2000
0000
0000
3000
,
1000
0000
0001
0000
,
1000
0000
0001
0000
,
0010
0100
1000
0001
,
1000
0000
0000
0000
,
1000
0000
0001
0000
,
1000
0000
0001
0000
,
0010
0100
0001
1000
,
1000
0000
0000
0000
,
0110
0000
1000
0000
,
0110
0000
0001
0000
,
0001
0000
1000
0000
,
0001
0010
0100
0000
,
0110
0000
1000
0000
,
0001
0000
1000
0000
,
0010
0000
0010
0000
,
0100
0000
0100
0000
,
0010
0000
0010
0000
,
1001
0100
0000
0000
,
0010
0000
0010
0000
,
0100
0000
0100
0000
,
0010
1000
0100
0010
,
0001
0100
0010
0000
,
1000
0000
0100
0000
,
0001
0000
0100
0000
,
1000
0100
0010
0001
,
1000
0000
0001
0000
,
1001
0000
0100
0000
,
0001
0000
1000
0000
,
0010
1000
0100
0010
,
0001
0100
0010
0000
,
1000
0000
0100
0000
,
0001
0000
0100
0000
,
1000
1000
0001
0001
,
1000
0100
0010
0000
,
0002
0003
2000
3000
,
0020
0000
0000
0030
,
0000
0000
0000
0000
;
#NOTES:
     dance-single:
     :
     Medium:
     6:
     :
0000
0000
0000
0000
,
0000
0000
0000
0000
,
0000
0000
0000
0000
,
0000
0000
0000
0000
,
0000
0000
0000
0000
,
0001
0100
1000
0000
,
0010
1000
0100
0000
,
0001
0000
0010
0000
1000
0000
0000
0100
,
0000
0010
0000
0001
0000
0100
0000
0000
,
0001
0000
1000
0100
,
0001
0000
1000
0010
,
0001
0000
0100
0000
0010
0000
1000
0100
,
0000
0000
0010
0010
,
1000
0000
0001
0100
,
1000
0000
0001
0010
,
1000
0000
0100
0000
0010
0000
0001
0200
,
0000
0000
0000
0300
,
0010
0000
0000
0000
0100
0010
0000
1000
,
0000
0000
0100
0010
,
0001
0000
0100
0000
0001
0000
1000
0200
,
0000
0000
0010
0310
,
0010
0000
0000
0000
0100
0010
0000
0001
,
0000
0000
0100
0010
,
1000
0000
0100
0000
1000
0000
0001
0100
,
0000
0000
0010
0100
,
0110
0000
0000
0010
0100
0000
0000
0000
,
0110
0000
0000
0010
0100
0000
0000
0000
,
1000
0100
0010
0001
,
1000
0001
0100
0000
,
0110
0000
0000
0010
0100
0000
0000
0000
,
0110
0000
0000
0010
0100
0000
0000
0000
,
0001
0000
0000
0001
1000
0000
0000
0000
,
1000
0000
0000
1000
0001
0000
0000
0000
,
0001
0000
0000
0001
1000
0000
0000
0000
,
1001
0100
0000
0000
,
0010
0100
0001
0000
0100
0000
0100
0000
,
0010
1000
0100
0000
0010
0000
0010
0000
,
0001
0010
0100
1000
,
0010
0100
0010
0000
0010
0100
0000
0001
,
0000
1000
0100
0010
,
0001
1000
1000
0000
,
0010
0000
0001
0000
1000
0000
0010
0200
,
0000
0000
0010
0310
,
0010
0100
0001
0000
0100
0000
0100
0000
,
0010
1000
0100
0000
0010
0000
0010
0000
,
0001
0010
0100
1000
,
0100
0000
0010
0000
0001
1000
0000
0000
,
0010
1000
0100
0000
0010
0000
0010
0000
,
0010
0001
0100
0000
0010
0000
0010
0000
,
1000
0000
0001
0000
0100
0000
0001
0020
,
0000
0000
0000
0030
,
1000
0000
0100
0000
0010
0000
0001
2000
,
0000
0000
0000
3000
,
0000
0000
0000
0000
;
#NOTES:
     dance-single:
     :
     Hard:
     9:
     :
0000
0000
0000
0000
,
0000
0000
0000
0000
,
0000
0000
0000
0000
,
0000
0000
0000
0000
,
0000
0000
0000
0000
,
0002
0000
0013
0100
,
2000
0000
3100
0010
,
0001
0100
0000
0010
0000
1000
0000
1100
,
0000
0110
0000
0101
0000
0110
0000
0000
,
0020
0000
0000
0000
0130
0010
0000
2000
,
0000
0000
0000
3100
0010
0000
0001
0000
,
0001
0000
0100
0000
0010
0000
1000
0002
,
0000
0000
0000
1003
0001
0000
0100
0000
,
0020
0000
0000
0000
1030
0100
0000
2000
,
0000
0000
0000
3100
0100
0000
0010
0000
,
0001
0000
1000
0000
0001
0000
1000
0020
,
0000
0000
0030
0100
,
0020
0000
0000
0000
0130
0010
0000
2000
,
0000
0000
0000
0100
3100
0000
0010
0000
,
0001
0000
0100
0000
0010
0000
1000
0002
,
0000
0000
0000
0100
0103
0000
0010
0000
,
2000
0000
0000
0000
3001
0100
0000
0020
,
0000
0000
0000
0130
0010
0000
1000
0000
,
1000
0000
0001
0000
0010
0000
0100
0020
,
0000
0000
0000
0031
0010
0100
0000
0011
,
0000
1000
0010
0001
0100
0000
0001
0010
,
1000
0100
0001
0000
0100
0000
0000
0000
,
1000
0100
0010
0001
,
1000
0000
0010
0000
0100
0010
0000
0101
,
0000
1000
0100
0001
0010
0000
0001
0100
,
1000
0010
0001
0000
0100
0000
0010
1001
,
0000
0000
0000
0100
0010
0000
0100
0000
,
0100
0000
0000
0100
0010
0000
0100
0000
,
0100
0000
0000
0100
0010
0000
0100
0000
,
1001
0000
0110
0000
0001
1000
0000
1010
,
0000
1000
0001
0010
0100
0000
0100
1000
,
0001
0100
0010
0000
0010
0000
1000
0000
,
0010
1000
0100
0000
0010
0001
0100
0000
,
0010
0100
0010
0000
1000
0001
0000
0110
,
0000
1000
0010
0100
0010
0000
1000
0001
,
1000
0001
0100
0000
0100
0000
0000
0001
,
1000
1000
0100
0100
0010
0010
0001
0100
,
0000
0001
0010
0000
0100
0110
0000
1100
,
0000
1000
0001
0100
0010
0000
0010
1000
,
0100
1000
0010
0100
0010
0000
0000
0000
,
0001
0010
0100
1000
,
0001
1000
0001
0000
0010
0100
0000
0110
,
0000
0100
0001
0100
1000
0000
0001
0100
,
1000
0100
0001
0000
1000
0000
0100
0000
,
0010
0001
0100
0000
0010
0000
1000
0200
,
0000
0000
0000
0300
,
0010
0001
1000
0100
1000
0001
0100
0020
,
0000
0000
0000
0030
,
0000
0000
0000
0000
;
#NOTES:
     dance-double:
     :
     Easy:
     4:
     :
00000000
00000000
00000000
00000000
,
00000000
00000000
00000000
00000000
,
00000000
00000000
00000000
00000000
,
00000000
00000000
00000000
00000000
,
00000000
00000000
00000000
00000000
,
00000001
00000000
00001000
00000000
,
00010000
00000000
00100000
00000000
,
10000000
00000000
00010000
00000000
,
00010000
00100000
01000000
10000000
,
01000000
00000000
01000000
00000000
,
00100000
00000000
00100000
00000000
,
00001000
00000010
00000001
00001000
,
00001000
00000000
00000000
00000000
,
00000001
00000000
00001000
00000000
,
00010000
00000000
01000000
00000000
,
10000000
01000000
00100000
00010000
,
10000000
00000000
00000000
00000000
,
10000000
00000000
00010000
00000000
,
00001000
00000000
00000010
00000000
,
00001000
00000001
00000100
00000010
,
00000200
00000000
00000000
00000300
00000000
00000000
00000000
00000000
,
00000001
00000000
00001000
00000000
,
00010000
00000000
00100000
00000000
,
01000000
00100000
00010000
10000000
,
10000000
00000000
00000000
00000000
,
10010000
00000000
00000000
00000000
,
00011000
00000000
00000000
00000000
,
00000001
00000000
00001000
00000000
,
00000100
00000010
00000001
00000000
,
00000110
00000000
00000000
00000000
,
00011000
00000000
00000000
00000000
,
00100000
00000000
00100000
00000000
,
10000000
00000000
10000000
00000000
,
01000000
00000000
01000000
00000000
,
00010000
00010000
00000000
00000000
,
00001000
00000000
00001000
00000000
,
00000010
00000000
00000010
00000000
,
00000001
00000010
00001000
00000100
,
00000010
00000100
00000010
00000000
,
00001001
00000000
00000000
00000000
,
00000001
00000000
00001000
00000000
,
00010000
00001000
00010000
00001000
,
00010000
00000000
00100000
00000000
,
10010000
00000000
00000000
00000000
,
10000000
00000000
00010000
00000000
,
00001000
00010000
00001000
00010000
,
00001000
00000000
00000010
00000000
,
00001001
00000000
00000100
00000000
,
00000010
00000000
00001000
00000000
,
00010000
00000000
01000000
00000000
,
00010000
10000000
01000000
00000000
,
00200000
00300000
00002000
00003000
,
00020000
00000000
00000000
00030000
,
00000000
00000000
00000000
00000000
;
#NOTES:
     dance-double:
     :
     Medium:
     6:
     :
00000000
00000000
00000000
00000000
,
00000000
00000000
00000000
00000000
,
00000000
00000000
00000000
00000000
,
00000000
00000000
00000000
00000000
,
00000000
00000000
00000000
00000000
,
10000000
01000000
00010000
00001000
,
00000100
00000010
00000010
00000000
,
00001000
00000000
00000010
00000000
00000001
00000000
00000100
00001000
,
00000000
00010000
00000000
01000000
00000000
00100000
00000000
00000000
,
10000000
01000000
00010000
00000000
,
01000000
00010000
00001000
00000000
,
00000010
00000000
00000001
00000000
00001000
00000000
00000010
00000200
,
00000000
00000000
00000010
00000310
,
00000001
00000100
00001000
00000000
,
00010000
01000000
00100000
00000000
,
00010000
00000000
10000000
00000000
00010000
00000000
01000000
00200000
,
00000000
00000000
00000000
00300000
,
00100000
00000000
00000000
00000000
10000000
00010000
00000000
01000000
,
00000000
00000000
00001000
00000010
,
00000001
00000000
00000100
00000000
00000010
00000000
00001000
00000020
,
00000000
00000000
00001000
00001030
,
00000100
00000000
00000000
00000000
00000010
00001000
00000000
00000100
,
00000000
00000000
00010000
00100000
,
10000000
00000000
00010000
00000000
01000000
00000000
00100000
02000000
,
00000000
00000000
00010000
03010000
,
00011000
00000000
00000010
00001000
00000010
00000000
00000000
00000000
,
00000110
00000000
00000001
00000100
00000001
00000000
00000000
00000000
,
00000001
00000010
00000100
00010000
,
00001000
00100000
00010000
00000000
,
01100000
00000000
10000000
00010000
10000000
00000000
00000000
00000000
,
01100000
00000000
00010000
10000000
00010000
00000000
00000000
00000000
,
00010000
00000000
00000000
00010000
01000000
00000000
00000000
00000000
,
00001000
00000000
00000000
00001000
00010000
00000000
00000000
00000000
,
00000010
00000000
00000000
00000010
00000100
00000000
00000000
00000000
,
00001001
00000100
00000000
00000000
,
00000010
00001000
00000100
00000000
00010000
00000000
00001000
00000000
,
00100000
00010000
01000000
00000000
00100000
00000000
00000000
00000000
,
00010000
00100000
01000000
10000000
,
00100000
00000000
01000000
00000000
00001000
00010000
00000000
00000000
,
00000100
00000010
00000001
00001000
,
00000100
00000010
00000100
00000100
,
00000001
00000000
00000100
00000000
00001000
00000000
00010000
00200000
,
00000000
00000000
01000000
01300000
,
10000000
01000000
00100000
00000000
01000000
00000000
00000000
00000000
,
00010000
00001000
00010000
00000000
00000100
00000000
00000000
00000000
,
00000010
00001000
00010000
00100000
,
10000000
01000000
00100000
00000000
,
00100000
00010000
01000000
00000000
00100000
00000000
00000000
00000000
,
00010000
00001000
00010000
00000000
00000100
00000000
00000000
00000000
,
00000010
00000001
00000100
00000010
,
00002000
00000000
00000000
00003000
,
00000100
00000000
00010000
00000000
00100000
00000000
01000000
00200000
,
00000000
00000000
00000000
00300000
,
00000000
00000000
00000000
00000000
;
#NOTES:
     dance-double:
     :
     Hard:
     9:
     :
00000000
00000000
00000000
00000000
,
00000000
00000000
00000000
00000000
,
00000000
00000000
00000000
00000000
,
00000000
00000000
00000000
00000000
,
00000000
00000000
00000000
00000000
,
00000002
00000000
00001003
00000100
,
00020000
00000000
00031000
01000000
,
00010000
10000000
00000000
01000000
00000000
00100000
00000000
00011000
,
00000000
01010000
00000000
00011000
00000000
00001010
00000000
00000000
,
00000002
00000000
00000000
00000000
00001003
00000010
00000000
00000200
,
00000000
00000000
00000300
00000100
00000010
00000000
00000100
00000000
,
00000010
00000000
00001000
00000000
00100000
00000000
10000000
01000000
,
00000000
00000000
00000000
01000000
10000000
00000000
00010000
00000000
,
00200000
00000000
00000000
00000000
00310000
01000000
00000000
00010000
,
00000000
00000000
00000000
00010000
01000000
00000000
00100000
00000000
,
10000000
00000000
00010000
00000000
00001000
00000000
00000010
00000200
,
00000000
00000000
00000000
00000300
,
00000002
00000000
00000000
00000000
00001003
00000010
00000000
00002000
,
00000000
00000000
00000000
00003100
00010000
00000000
00001000
00000000
,
00100000
00000000
00010000
00000000
01000000
00000000
00100000
01000000
,
00000000
00000000
00000000
01000000
00100000
00000000
01000000
00000000
,
00002000
00000000
00000000
00000000
00013000
00000100
00000000
00000020
,
00000000
00000000
00000000
00000031
00001000
00000000
00000001
00000000
,
00000010
00000000
00001000
00000000
00100000
00000000
01000000
00100000
,
00000000
00000000
00000000
00010000
10000000
00100000
00000000
01010000
,
00000000
10000000
01000000
00100000
00010000
00000000
00001000
00000000
,
00010000
00001000
00000100
00000010
00000001
00000000
00000000
00000000
,
00000001
00000100
00000010
00001000
,
00010000
00000000
01000000
00000000
00100000
01000000
00000000
00100000
,
00000000
10000000
01000000
00100000
00010000
00000000
00100000
00000000
,
00010000
00001000
00000100
00000000
00000010
00000000
00000001
00000100
,
00000000
00000000
00000000
00000001
00001000
00000000
00001000
00000000
,
00000010
00000000
00000000
00000010
00000100
00000000
00000100
00000000
,
00001000
00000000
00000000
00001000
00000010
00000000
00010000
00000000
,
00011000
00011000
00000000
00000000
,
00100000
10000000
00100000
00010000
00100000
00000000
00010000
00000000
,
00001000
00000100
00000001
00000100
00001000
00000000
00000000
00000000
,
00000010
00001000
00100000
10000000
,
01000000
00100000
01000000
00000000
01000000
00100000
00000000
00000000
,
10000000
00010000
01000000
00001000
00010000
00000000
00001000
00000000
,
00010000
00000010
00001000
00000001
00000100
00000000
00000000
00000000
,
00000010
00000000
00000100
00000000
00000001
00000000
00000010
00000100
,
00000000
00000000
00001000
00000000
00000100
00000100
00000000
00000000
,
00000010
00000001
00000010
00001000
00000010
00000000
00001000
00000000
,
00010000
01000000
10000000
01000000
00010000
00000000
00000000
00000000
,
00100000
00010000
00000010
00000001
,
00000100
00000010
00000100
00000000
00000100
00000010
00000000
00000000
,
00000001
00001000
00000100
00010000
00001000
00000000
00010000
00000000
,
00001000
00100000
00010000
10000000
01000000
00000000
00000000
00000000
,
00100000
00000000
01000000
00000000
00010000
00000000
10000000
02000000
,
00000000
00000000
00000000
03000000
,
00100000
00010000
00001000
00000100
00000010
00000000
00000001
00000200
,
00000000
00000000
00000000
00000300
,
00000000
00000000
00000000
00000000
;
