
//----- song id: miku
#TITLE:MITOれて!いばらきっしゅだ~りん;
#ARTIST:水戸ご当地アイドル(仮) 【茨城】;
#TITLETRANSLIT:MITOrete! Ibarakisshuda~rin;
#ARTISTTRANSLIT:Mito Gotochi Idol (Kari) [Ibaraki];
#BANNER:MITOrete! Ibarakisshuda~rin.png;
#BACKGROUND:MITOrete! Ibarakisshuda~rin-bg.png;
#CDTITLE:./CDTitles/DDR (2014).png;
#MUSIC:MITOrete! Ibarakisshuda~rin.ogg;
#SAMPLESTART:71.3;
#SAMPLELENGTH:15;
#BPMS:0=173;
#NOTES:
     dance-single:
     :
     Beginner:
     2:
     :
0000
0000
0000
0000
,
0000
0000
0000
0000
,
0000
0000
0000
0000
,
0000
0000
0000
0000
,
0000
0000
0000
0000
,
0000
0000
0000
0000
,
0100
0000
0000
0000
,
0010
0000
0000
0000
,
1000
0000
1000
0000
,
1000
1000
1000
0000
,
0001
0000
0001
0000
,
0001
0001
0001
0000
,
0100
0000
0100
0000
,
0100
0100
0100
0000
,
0010
0000
0010
0000
,
0010
0000
0000
0000
,
1000
0000
0000
0000
,
1000
0000
1000
0000
,
1000
0000
1000
0000
,
1000
0000
0000
0000
,
0001
0000
0000
0000
,
0001
0000
0001
0000
,
0001
0000
0001
0000
,
0001
0000
0000
0000
,
1000
0000
0000
0000
,
0100
0000
0100
0000
,
0100
0000
0000
0000
,
0010
0000
0000
0000
,
0001
0000
0000
0000
,
0100
0000
0100
0000
,
0100
0000
0100
0000
,
0000
0000
0000
0000
,
1000
0000
0000
0000
,
1000
0000
0000
0000
,
0001
0000
0000
0000
,
0001
0000
0000
0000
,
1000
0000
0000
0000
,
0001
0000
0000
0000
,
0100
0000
0100
0000
,
0100
0000
0000
0000
,
0001
0000
0000
0000
,
0001
0000
0000
0000
,
1000
0000
0000
0000
,
1000
0000
0000
0000
,
0001
0000
0000
0000
,
1000
0000
0000
0000
,
0010
0000
0010
0000
,
0010
0000
0010
0000
,
0010
0000
0000
0000
,
0100
0000
0000
0000
,
0010
0000
0000
0000
,
0100
0000
0000
0000
,
1000
0000
1000
0000
,
1000
1000
1000
0000
,
0001
0000
0001
0000
,
0001
0001
0001
0000
,
0100
0000
0100
0000
,
0100
0100
0100
0000
,
0010
0000
0010
0000
,
0010
0000
0000
0000
,
0001
0000
0001
0000
,
0100
0100
0100
0000
,
1000
0000
1000
0000
,
1001
0000
0000
0000
,
0100
0000
0000
0000
,
0010
0000
0010
0000
,
0010
0000
0000
0000
,
0100
0100
0100
0000
,
1000
0000
0000
0000
,
0100
0100
0100
0000
,
0001
0000
0000
0000
,
0100
0100
0100
0000
,
0010
0000
0000
0000
,
0100
0100
0100
0000
,
0010
0000
0010
0010
,
0000
0000
0000
0000
;
#NOTES:
     dance-single:
     :
     Easy:
     6:
     :
0000
0000
0000
0000
,
0000
0000
0000
0000
,
0000
0000
0000
0000
,
0000
0000
0000
0000
,
0000
0000
0000
0000
,
0000
0000
0000
0000
,
0020
0000
0000
0030
,
1000
0000
0001
0000
,
1000
1000
1000
0000
,
0001
0001
1000
1000
,
0010
0010
0010
0000
,
0100
0100
1000
1000
,
0001
0001
0001
0000
,
1000
1000
0001
0001
,
0100
0100
0100
0010
,
0100
0000
0000
0000
,
1000
1000
1000
0000
,
1000
0100
1000
0100
,
0010
0010
0010
0000
,
0100
0100
0100
0000
,
0001
0001
0001
0000
,
0001
0100
0001
0100
,
0010
0010
0010
0100
,
0010
0000
0100
0000
,
1000
1000
0001
0000
,
0001
0010
0001
0100
,
0001
0001
0010
0010
,
0100
0100
0100
0000
,
1000
1000
0001
1000
,
0010
0100
0100
0010
,
1000
0001
2000
0000
,
3000
0000
0000
0000
,
0002
0000
0100
0000
,
1000
0000
0103
0000
,
2000
0000
0001
0000
,
0010
0000
3001
0000
,
0100
0010
0010
0000
,
1000
0001
1000
0000
,
0001
0001
0010
0001
,
1000
0000
0001
0000
,
0200
0000
0001
0000
,
0010
0000
0301
0000
,
0020
0000
1000
0000
,
0100
0000
1030
0000
,
0001
0001
0001
0001
,
1000
1000
1000
1000
,
0001
0001
1000
1000
,
0001
1000
0001
1000
,
0001
1001
0000
1001
,
0000
0110
0000
0110
,
0000
1001
0000
1001
,
1001
0000
0000
0000
,
0010
0010
0010
0000
,
0001
0001
0100
0100
,
0010
1000
1000
0001
,
0100
0100
0100
0000
,
0010
0010
0010
0000
,
1000
1000
0100
0100
,
0010
0010
0001
1000
,
0001
0000
0100
0000
,
0010
0010
0010
0000
,
1000
0001
1000
0001
,
0100
0010
0100
0010
,
0200
0000
0300
0000
,
0001
0000
1000
0000
,
0001
0010
0100
1000
,
0010
0100
0100
0100
,
0001
0001
1000
1000
,
0100
0010
0010
0010
,
0001
0001
1000
1000
,
0010
0100
0100
0100
,
0001
1000
0001
1000
,
0100
0010
0010
0010
,
0110
0000
0001
1000
,
1001
0000
0000
1001
0000
0000
2002
0000
,
0000
0000
0000
0000
,
0000
3003
0000
0000
,
0000
0000
0000
0000
;
#NOTES:
     dance-single:
     :
     Medium:
     9:
     :
0000
0000
0000
0000
,
0000
0000
0000
0000
,
0000
0000
0000
0000
,
0000
0000
0000
0000
,
0000
0000
0000
0000
,
0000
0000
0000
0000
,
0001
0000
1000
0000
,
0010
0001
0100
1000
,
0010
0101
1001
0100
,
1000
0000
0100
0000
0001
0100
0001
0000
,
1000
1100
1001
0100
,
1000
0000
0100
0000
0001
0100
1000
0000
,
0100
1010
1001
0010
,
0001
0000
0010
0000
1000
0010
1000
0000
,
0010
0000
0011
0000
1001
0000
0010
0200
,
0000
0000
0000
0300
,
0010
0000
1000
1000
0000
0000
0010
0000
,
0100
0000
0010
0010
0000
0000
1000
0000
,
0001
0000
0010
0010
0000
0000
0001
0000
,
0100
0000
0001
0001
0000
0000
1000
0000
,
0010
0000
0100
0100
0000
0000
0010
0000
,
1000
0100
0001
0100
,
0010
0000
0100
0100
0000
0010
0010
0000
,
0001
0100
1000
0010
,
0001
1010
0001
0100
,
0010
0000
0100
0000
1000
1000
0010
0000
,
0100
0011
1000
0100
,
0001
0000
0010
0000
0100
0100
0001
0000
,
1000
0000
0110
0000
0010
0100
0100
0000
,
0010
1100
0010
0101
,
1001
0000
0100
0010
0100
0010
0100
0000
,
0001
0010
1000
0100
,
0002
0100
1000
0100
,
1000
0010
1000
0010
,
2003
0010
0001
0010
,
0001
0100
0001
3100
,
1100
0000
0001
0000
0100
0001
0010
0000
,
0010
0001
0100
0000
0100
0001
0010
0000
,
0011
0000
1000
0000
0010
1000
0100
1000
,
0020
1000
0100
1030
,
2000
3100
2000
3010
,
0002
0103
0002
0013
,
2000
0000
3100
0000
0002
0000
1003
0100
,
0010
0001
1000
1001
,
0010
0010
0010
0010
,
0100
0100
0100
0100
,
0010
1000
0100
0001
,
0010
0001
0100
1000
,
1001
0000
0010
0000
1000
0100
0000
0010
,
0000
0010
0000
0010
0100
0000
0110
0000
,
0001
0000
0100
0000
0010
0100
0010
0100
,
0000
0110
0000
0000
0000
0000
0000
0000
,
1001
0000
0010
1000
0010
0000
1000
0100
,
1000
0010
0001
1000
,
0100
0000
0001
0000
1000
0100
0010
0100
,
0000
1000
0001
0000
0100
0000
0010
0000
,
1010
0000
0100
0001
0100
0000
0001
0010
,
0001
0100
1000
0010
,
0001
0000
1000
0000
0010
1000
0001
0100
,
0000
0010
0100
0000
0110
0000
0110
0000
,
0101
0000
1000
0010
1000
0000
0001
0010
,
0001
0010
1000
0100
,
0001
0000
1000
0000
0001
0010
0100
2000
,
0000
0000
3001
0000
,
0010
0000
0110
0000
,
1000
0001
0100
0010
1000
0000
0001
0000
,
0011
1001
0101
0100
,
1000
0000
0100
0000
0001
0100
1000
0000
,
1100
1001
1010
0100
,
1000
0000
0010
0000
0001
0010
1000
0000
,
1010
1001
1100
0100
,
0001
0000
0010
0000
1000
0100
0001
0000
,
0101
0000
1001
0000
0011
0000
0010
0200
,
0000
0000
0000
0300
,
1010
0000
0000
0101
0000
0000
2000
0002
,
0000
0000
0000
0000
,
0000
3003
0000
0000
,
0000
0000
0000
0000
;
#NOTES:
     dance-single:
     :
     Hard:
     13:
     :
0000
0000
0000
0000
,
0000
0000
0000
0000
,
0000
0000
0000
0000
,
0000
0000
0000
0000
,
0000
0000
0000
0000
,
0000
0000
0000
0000
,
0220
0000
0000
0000
0330
0000
0000
0000
1001
0000
0000
0000
0000
0000
1000
0001
,
1000
0000
0000
0010
0000
0000
0100
0000
0101
0000
0000
0000
1100
0000
0000
0000
,
1001
0000
1001
0010
1000
0000
1010
0000
,
1010
0100
0001
0000
0101
0000
0101
0000
,
1001
0000
1001
0010
0001
0000
0011
0000
,
0011
0100
1000
0001
0100
0010
1000
0000
,
1010
0000
1001
0100
0001
0000
0101
0000
,
1100
0000
1001
0010
1000
0000
1010
0000
,
1001
0000
1100
0001
1000
0010
0000
1001
,
0000
0000
0001
0000
0100
0000
0001
0000
1000
0001
1000
0000
0001
1000
0001
0000
,
0100
0000
0010
0010
0000
1000
0100
0010
,
0001
0000
0100
0100
0000
0010
1000
0001
,
0100
0000
0010
0010
0000
1000
0001
0010
,
0100
0000
1000
1000
0000
0010
1000
0100
,
0010
0000
0001
0001
0000
0100
0010
1000
,
0100
0000
0001
0001
0000
0001
0100
0010
,
1000
0000
0010
0010
0100
0010
0010
0000
,
1000
1000
0001
1000
1000
0000
0001
0000
,
1000
1000
0010
1000
1000
0010
1000
0010
,
0100
0100
0001
0100
0001
1000
0001
1000
,
0010
0010
1000
0010
0010
0100
0001
0100
,
0001
0001
0010
0001
0001
0010
0001
0000
,
0100
0100
0010
0100
0100
0010
0100
0010
,
1000
0001
0011
0000
0001
1000
1010
0000
,
1000
1000
0010
0001
0001
0010
0100
0010
,
0100
0000
0010
0000
1000
0100
0001
0100
,
2000
0010
0100
0010
,
3200
0000
1000
0000
0001
0000
1300
0010
,
0002
0100
0010
0100
,
0023
0000
1000
0000
0001
0000
1030
0001
,
0100
0000
0010
0000
0001
0100
0010
0000
,
0010
1000
0100
1000
0010
0001
1000
0100
,
0001
0000
1000
0000
0001
0100
0010
1000
,
0100
0000
0000
0000
0010
0000
0000
0000
0001
0000
0100
0000
0001
0100
0001
0000
,
2000
0000
0010
0000
3100
0100
0010
0000
,
0002
0000
0010
0000
0103
0100
0010
0000
,
0200
0000
0001
0000
0310
1000
1000
0200
,
0000
0010
0010
0000
0301
0001
0100
0000
,
2000
3010
0002
0103
,
1100
1010
0011
0101
,
0100
1000
0100
1000
0010
1000
0010
1000
,
0010
0000
0001
0000
0010
0000
0100
0000
0001
0000
0010
0000
0100
1000
0100
0000
,
1000
0000
1001
0000
0010
0100
0000
0101
,
0000
1100
0000
0101
1100
0000
1001
0000
,
0010
0000
0100
0000
0010
0010
0010
1001
,
0000
0010
0000
0000
0000
0000
0000
0000
,
1001
0100
0001
0100
0010
1000
0010
1000
,
0001
0100
0010
0100
0001
0010
0100
0010
,
0001
1000
0100
0001
0100
1000
0001
0010
,
0000
0010
0100
0010
0001
1000
0001
0000
,
1000
0010
1000
0010
0100
0001
0100
0001
,
1000
1000
0100
0100
0010
0010
0001
0001
,
0100
0000
1001
0000
0010
1000
0001
0100
,
0000
0000
0100
0000
0010
0000
0000
0000
1000
0001
1000
0000
0001
1000
0001
0000
,
1001
0100
0010
0100
0001
0100
1000
0001
,
1000
0100
0010
0100
1000
0010
0100
0010
,
1000
0001
0100
1000
0100
0001
1000
0020
,
0000
0000
0100
0000
0000
0000
0130
0010
0100
0000
0000
0000
0000
0000
0000
0000
,
0001
0001
1000
1000
,
0011
0000
0000
0110
0000
0000
1000
0000
0001
0000
0000
0000
0110
0000
0000
0000
,
1001
0000
1001
0100
0001
0000
0101
0000
,
0101
0010
1000
0010
1010
0000
1010
0000
,
1001
0000
1001
0100
1000
0000
1100
0000
,
1100
0010
0001
1000
0010
0100
0001
0000
,
0101
0000
1001
0010
1000
0000
1010
0000
,
0011
0000
1001
0100
0001
0100
0101
0000
,
1001
0000
0011
1000
0001
0100
0000
1001
,
0000
0000
1000
0000
0010
0000
1000
0000
0010
0100
0010
0000
1000
0001
1000
0000
,
0010
0100
0100
1001
0100
0100
0010
2002
,
0000
0000
0000
0000
,
0000
3003
0000
0000
,
0000
0000
0000
0000
;
#NOTES:
     dance-double:
     :
     Easy:
     6:
     :
00000000
00000000
00000000
00000000
,
00000000
00000000
00000000
00000000
,
00000000
00000000
00000000
00000000
,
00000000
00000000
00000000
00000000
,
00000000
00000000
00000000
00000000
,
00000000
00000000
00000000
00000000
,
00010000
00000000
00001000
00000000
,
01000000
00000000
10000000
00000000
,
00010000
00010000
00010000
00000000
,
10000000
10000000
01000000
01000000
,
00010000
00010000
00010000
00000000
,
00001000
00001000
00100000
00100000
,
00001000
00001000
00001000
00000000
,
00000100
00000100
00000001
00000001
,
00001000
00001000
00001000
00000000
,
00011000
00000000
00000000
00000000
,
00010000
00000000
01000000
00000000
,
10000000
01000000
10000000
00100000
,
00010000
00010000
00010000
00000000
,
00001000
00000000
00010000
00000000
,
00001000
00001000
00001000
00000000
,
00000100
00000001
00000100
00001000
,
00000100
00000100
00000100
00000010
,
00000100
00000000
00000001
00000000
,
00000010
00000010
00000100
00000000
,
00010000
00010000
00001000
00001000
,
00100000
00100000
01000000
01000000
,
10000000
10000000
10000000
00000000
,
00100000
00100000
01000000
01000000
,
00010000
10000000
00100000
01000000
,
00010000
00010000
00002000
00000000
,
00003000
00000000
00000000
00000000
,
00000020
00000000
00000001
00000000
,
00001000
00000000
00010030
00000000
,
00200000
00000000
10000000
00000000
,
00010000
00000000
00301000
00000000
,
00000100
00000100
00000100
00000000
,
00000100
00000001
00000010
00000010
,
00001000
00001000
00010000
00001000
,
00010000
00000000
01000000
00000000
,
00200000
00000000
10000000
00000000
,
00010000
00000000
00301000
00000000
,
00000020
00000000
00000001
00000000
,
00001000
00000000
00010030
00000000
,
00001000
00001000
00010000
00010000
,
00001000
00010000
00100000
01000000
,
00010000
00010000
10000000
10000000
,
01000000
00100000
00010000
00001000
,
00010000
00010000
00001000
00001000
,
00010000
00001000
00000100
00000010
,
00000001
00000001
00001000
00001000
,
00001001
00000000
00000000
00000000
,
00000010
00000010
00000010
00000000
,
00001000
00000010
00000001
00000100
,
00001000
00010000
00001000
00000100
,
00000001
00000010
00001000
00000000
,
00100000
00100000
00100000
00000000
,
00010000
00100000
10000000
01000000
,
00010000
00001000
00010000
01000000
,
10000000
00100000
00010000
00000000
,
00001000
00001000
00001000
00000000
,
00010000
00001000
00000100
00001000
,
00010000
01000000
00010000
00001000
,
00022000
00000000
00033000
00000000
,
00000010
00000000
00000100
00000000
,
00000001
00000010
00000100
00001000
,
00010000
00001000
00001000
00001000
,
00100000
00100000
00010000
00010000
,
01000000
00100000
00100000
00100000
,
10000000
10000000
01000000
01000000
,
00010000
00001000
00001000
00001000
,
00010000
00001000
00010000
00001000
,
00000010
00000100
00000100
00000100
,
00000110
00000000
00000001
00000100
,
00001000
00000000
00000000
00010000
00000000
00000000
00022000
00000000
,
00000000
00000000
00000000
00000000
,
00000000
00033000
00000000
00000000
,
00000000
00000000
00000000
00000000
;
#NOTES:
     dance-double:
     :
     Medium:
     10:
     :
00000000
00000000
00000000
00000000
,
00000000
00000000
00000000
00000000
,
00000000
00000000
00000000
00000000
,
00000000
00000000
00000000
00000000
,
00000000
00000000
00000000
00000000
,
00000000
00000000
00000000
00000000
,
00011000
00000000
00011000
00000000
,
00001000
00000010
00000001
00000100
,
00001000
00011000
00101000
00010000
,
01000000
00000000
00100000
00000000
10000000
00100000
10000000
00000000
,
01000000
11000000
10010000
00100000
,
01000000
00000000
10000000
00000000
01000000
00010000
00001000
00000000
,
00010000
00011000
00010100
00001000
,
00000010
00000000
00000100
00000000
00000001
00000100
00000001
00000000
,
00000010
00000000
00000011
00000000
00001001
00000000
00000010
00000200
,
00000000
00000000
00000000
00000300
,
00001000
00000000
00010000
00001000
00000000
00000000
01000000
00000000
,
00100000
00000000
00100000
00000000
10000000
00000000
01000000
00010000
,
00100000
00000000
00010000
01000000
00000000
00000000
00100000
10000000
,
01000000
00100000
00001000
00010000
,
00000010
00000000
00001000
00000001
00000000
00000000
00000100
00000000
,
00010000
00000100
00000010
00000100
,
00001000
00000000
00000001
00000000
00000010
00000100
00000010
00000000
,
00001000
00010000
00001000
00000100
,
00001000
00010100
00001000
01000000
,
00001000
00000000
00110000
00000000
00100000
00010000
10000000
00000000
,
01000000
00010000
00001000
00000100
,
00000010
00000000
00001001
00000000
00000100
00000010
00000100
00000000
,
00000001
00000000
00000110
00000000
00001000
00010000
01000000
00000000
,
10000000
01100000
00010000
01100000
,
10000000
00000000
01000000
00010000
00001000
00000000
00000010
00000000
,
00010000
00100000
00001000
00000100
,
00002000
00000100
00000100
00000100
,
00000001
00000001
00000010
00000010
,
00023000
01000000
01000000
01000000
,
10000000
10000000
00100000
00130000
,
00001000
00000000
00010000
00000000
00001000
00000100
00001000
00000000
,
00000001
00000100
00000010
00001000
,
00001100
00000000
00010000
00000000
00001000
00010000
01000000
20000000
,
00000000
00100000
00010000
31000000
,
00200000
01000000
00320000
00001000
,
02030000
10000000
00100000
03010000
,
00000200
00000010
00002300
00010000
,
00003020
00000001
00000100
00001030
,
00000001
00000001
00000100
00000001
,
00001000
00001000
00000100
00001000
,
00010000
00010000
01000000
00010000
,
10000000
10000000
01000000
10000000
,
10010000
00000000
01000000
00000000
00100000
01000000
00000000
00010000
,
00000000
00001000
00000000
00010000
00001000
00000000
00011000
00000000
,
00000010
00000000
00000100
00000000
00000010
00000100
00000010
00000100
,
00000000
00000010
00000000
00000000
00000000
00000000
00000000
00000000
,
00001001
00000000
00000010
00000100
00001000
00000000
00010000
00000100
,
00001000
00000010
00000001
00000100
,
00001000
00000000
00000100
00000000
00001000
00010000
00001000
00100000
,
00000000
00010000
00100000
00000000
01000000
00000000
10000000
00000000
,
10010000
00000000
00100000
01000000
00010000
00000000
00001000
00100000
,
00010000
01000000
10000000
00100000
,
00010000
00000000
01000000
00000000
00100000
10000000
01000000
00100000
,
00000000
00100000
01000000
00000000
01100000
00000000
01100000
00000000
,
10010000
00000000
10000000
00100000
00010000
00000000
00001000
00010000
,
00000100
00001000
00000010
00000001
,
00000100
00000000
00001000
00000000
00010000
00100000
10000000
02000000
,
00000000
00000000
03100000
00000000
,
00010000
00010000
00011000
00000000
,
00000100
00000000
00001001
00000000
00000100
00000010
00000100
00000000
,
00001100
00001001
00001010
00001000
,
00010000
00000000
01000000
00000000
00100000
10000000
01000000
00000000
,
01010000
10010000
00110000
00010000
,
00001000
00000000
00000100
00000000
00000010
00000001
00000100
00000000
,
00001100
00001001
00001010
00001000
,
00010000
00000000
00100000
00000000
10000000
01000000
00010000
00000000
,
01010000
00000000
10010000
00000000
00110000
00000000
00010000
00002000
,
00000000
00000000
00000000
00003000
,
00010100
00000000
00000000
00001010
00000000
00000000
00000200
00000002
,
00000000
00000000
00000000
00000000
,
00000000
00000303
00000000
00000000
,
00000000
00000000
00000000
00000000
;
#NOTES:
     dance-double:
     :
     Hard:
     13:
     :
00000000
00000000
00000000
00000000
,
00000000
00000000
00000000
00000000
,
00000000
00000000
00000000
00000000
,
00000000
00000000
00000000
00000000
,
00000000
00000000
00000000
00000000
,
00000000
00000000
00000000
00000000
,
00021000
00000000
00000000
00000000
00000000
00000000
00000000
00000000
10030000
00000000
00000000
00000000
00000000
00000000
01000000
10000000
,
01000000
00000000
00000000
00100000
00000000
00000000
00001000
00000000
00010000
00000000
00000000
00000000
00011000
00000000
00000000
00000000
,
00010100
00000000
00010100
00001000
00010000
00001000
00000000
00010010
,
00000000
00010010
00001000
00000100
00000010
00000000
00000110
00000000
,
00000011
00000000
00001001
00000010
00000001
00000010
00000000
00000101
,
00000000
00000101
00000010
00000001
00000100
00000010
00001000
00000000
,
00010100
00000000
00010100
00001000
00010000
00001000
00000000
00101000
,
00000000
00101000
00010000
00001000
00010000
01000000
10000000
00000000
,
11000000
00000000
10010000
01000000
10000000
01000000
00000000
01100000
,
00000000
00000000
00010000
00000000
10000000
00000000
01000000
00000000
00100000
00010000
00100000
00000000
00001000
00010000
00001000
00000000
,
00010000
00000000
00000010
00001000
00000000
00000001
00000010
00000100
,
00001000
00000000
00000001
00000100
00000000
00000010
00001000
00000100
,
00010000
00000000
00001000
01000000
00000000
00100000
10000000
01000000
,
00100000
00000000
00001000
00100000
00000000
00010000
10000000
00100000
,
01000000
00000000
00001000
00100000
00000000
00000100
00010000
00000010
,
00001000
00000000
00000001
00001000
00000000
00000100
00000010
00000001
,
00001000
00000000
00000010
00000100
00000000
00000001
00000010
00000100
,
00001000
00001000
00000001
00000000
00001000
00001000
00010000
00000000
,
00001000
00000100
00000010
00000001
00000000
00000001
00000100
00001000
,
00010000
00001000
00100000
00010000
00000000
00010000
00100000
10000000
,
00010000
01000000
10000000
00010000
10000000
00100000
00010000
00001000
,
00010000
00000100
00001000
00000010
00000100
00000001
00000010
00000000
,
00000001
00000010
00000100
00001000
00000000
00001000
00000010
00000001
,
00001000
00000100
00000001
00000100
00001000
00010000
00100000
01000000
,
00010000
00100000
01000000
10000000
00010000
01000000
00100000
00000000
,
10010000
00000000
00100000
00000000
00010000
00100000
10000000
01000000
,
00020000
00001000
01000000
00001000
,
02030000
00000000
10000000
00000000
03010000
00000000
00001000
00010000
,
00002000
00010000
00000100
00010000
,
00003200
00000000
00000001
00000000
00001300
00010000
00000010
00010000
,
00001000
00000000
00011000
00000000
00010000
00001000
00000100
00000001
,
00000000
00000010
00001000
00000000
00010000
00001000
00000100
00000000
,
00001000
00000000
00100000
00000000
00010000
01000000
00100000
10000000
,
00000000
00000000
10000000
00000000
01000000
00000000
00000000
00000000
00010000
00000000
00001000
00000000
00010000
00001000
00010000
00000000
,
00002000
00000000
00010000
00000000
00003100
00000100
00000001
00000000
,
00000100
00000100
00002000
00000000
00010000
00000000
00003010
00000000
,
00020000
00000000
00001000
00000000
01030000
10000000
10000000
02000000
,
00000000
00010000
03010000
00000000
00001000
00010000
00100000
00000000
,
01100000
00000000
10000000
00000000
01000000
00010000
00001000
00000000
,
00011000
00000000
00000100
00000001
00000010
00000001
00000100
00000000
,
00000010
00001000
00000001
00000010
00001000
00010000
00000100
00001000
,
00000010
00000000
00010000
00000000
00001000
00000000
01000000
00000000
00010000
00000000
00100000
00000000
01000000
10000000
01000000
00000000
,
10000000
00000000
11000000
00000000
00100000
00010000
00000000
01010000
,
00000000
00101000
00000000
00011000
00010100
00000000
00001010
00000000
,
00000100
00000000
00001001
00000000
00000010
00000001
00000100
00001000
,
00000000
00001001
00000000
00000000
00000000
00000000
00000000
00000000
,
00000100
00010000
00000010
00001000
00000100
00010000
00000010
00001000
,
00000100
00010000
00001000
00100000
00010000
01000000
00100000
10000000
,
00010000
01000000
00001000
00100000
00001000
00010000
00000010
00001000
,
00000000
00001000
00000010
00000100
00000001
00000010
00000100
00000000
,
00001000
00000100
00010000
00000010
00001000
00000100
00010000
00001000
,
00100000
00100000
00001000
00010000
01000000
01000000
10000000
00100000
,
01000000
00000000
10010000
00000000
01000000
00100000
00010000
00001000
,
00000000
00000000
00010000
00000000
00001000
00000000
00000000
00000000
00100000
00010000
00100000
00000000
01000000
10000000
01000000
00000000
,
00100000
00001000
01000000
00010000
00100000
00001000
01000000
00010000
,
01000000
00001000
00100000
00010000
01000000
00001000
00010000
00000100
,
00001000
00000001
00000010
00001000
00010000
01000000
10000000
00020000
,
00000000
00000000
00000000
00000000
00000000
00000000
10030000
00100000
10000000
00000000
00000000
00000000
00000000
00000000
00000000
00000000
,
01000000
01000000
00100000
00000000
,
01100000
00000000
00000000
00010000
00000000
00000000
00001000
00000000
00000110
00000000
00000000
00000000
00001001
00000000
00000000
00000000
,
00010010
00000000
00010010
00001000
00010000
00001000
00000000
00010100
,
00000000
00010100
00001000
00000010
00000100
00000000
00000110
00000000
,
00000101
00000000
00001001
00000100
00000001
00000100
00000000
00000011
,
00000000
00000011
00000100
00000001
00000010
00000100
00001000
00000000
,
00010010
00000000
00010010
00001000
00010000
00001000
00000000
01001000
,
00000000
01001000
00010000
00001000
00010000
00100000
10000000
00000000
,
10100000
00000000
10010000
00100000
10000000
01000000
00000000
01100000
,
00000000
00000000
10000000
00000000
00100000
00000000
01000000
00000000
00010000
00100000
00010000
00000000
01000000
00001000
01000000
00000000
,
00010000
00001000
00000010
00001000
00010000
00100000
00010000
00022000
,
00000000
00000000
00000000
00000000
,
00000000
00033000
00000000
00000000
,
00000000
00000000
00000000
00000000
;
