#TITLE:MAX.(period);
#ARTIST:2MB;
#BANNER:MAX.(period).png;
#BACKGROUND:MAX.(period)-bg.png;
#CDTITLE:./CDTitles/DDR 2014.png;
#MUSIC:MAX.(period).ogg;
#SAMPLESTART:1.6;
#SAMPLELENGTH:15;
#BPMS:0=299.5,8=300.120,216=180,260=300,324=600,448=150;
#STOPS:216=1.329;

//---------------dance-single - ----------------
#NOTES:
     dance-single:
     :
     Beginner:
     5:
     :
0000
0000
0000
0000
,
0000
0000
0000
0000
,
0000
0000
0000
0000
,
0000
0000
0000
0000
,
0000
0000
0000
0000
,
0000
0000
0000
0000
,
1001
0000
0000
0000
,
0001
0000
0000
0000
,
0010
0000
0000
0000
,
0100
0000
0000
0000
,
1000
0000
0000
0000
,
0000
0000
0000
0000
,
1000
0000
0000
0000
,
1000
0000
0000
0000
,
0001
0000
0000
0000
,
0001
0000
0000
0000
,
0001
0000
0000
0000
,
0001
0000
0000
0000
,
1001
0000
0000
0000
,
0000
0000
0000
0000
,
1000
0000
0000
0000
,
1000
0000
0000
0000
,
0001
0000
0000
0000
,
0001
0000
0000
0000
,
0001
0000
0000
0000
,
0100
0000
0000
0000
,
0001
0000
0000
0000
,
1000
0000
0000
0000
,
0001
0000
0001
0000
,
0100
0000
0100
0000
,
0100
0000
0000
0000
,
1000
0000
0000
0000
,
0001
0000
0000
0000
,
1000
0000
0000
0000
,
0001
0000
0000
0000
,
1000
0000
0000
0000
,
0001
0000
0000
0000
,
0100
0000
0100
0000
,
0100
0000
0000
0000
,
1000
0000
0000
0000
,
0001
0000
0000
0000
,
1000
0000
0000
0000
,
0001
0000
0001
0000
,
0001
0000
0000
0000
,
0000
0000
0000
0000
,
0010
0000
0010
0000
,
0010
0000
0000
0000
,
0000
0000
0000
0000
,
1000
0000
1000
0000
,
1000
0000
0000
0000
,
0000
0000
0000
0000
,
0100
0000
0100
0000
,
0100
0000
0000
0000
,
0000
0000
0000
0000
,
1001
0000
0000
0000
,
0000
0000
0000
0000
,
0000
0000
0000
0000
,
0000
0000
0000
0000
,
0010
0000
0000
0000
,
0100
0000
0000
0000
,
0000
0000
0000
0000
,
0000
0000
0000
0000
,
0000
0000
0000
0000
,
0000
0000
0000
0000
,
0000
0000
0000
0000
,
1000
0000
0000
0000
,
0010
0000
0000
0000
,
0100
0000
0000
0000
,
0001
0000
0000
0000
,
0001
0000
0000
0000
,
0010
0000
0000
0000
,
0100
0000
0000
0000
,
1000
0000
0000
0000
,
0001
0000
0000
0000
,
1000
0000
0000
0000
,
0001
0000
0000
0000
,
1000
0000
0000
0000
,
1000
0000
0000
0000
,
0001
0000
0000
0000
,
1001
0000
0000
0000
,
0000
0000
0000
0000
,
0001
0000
0000
0000
,
1000
0000
0000
0000
,
0100
0000
0000
0000
,
0000
0000
0000
0000
,
1000
0000
0000
0000
,
0001
0000
0000
0000
,
0100
0000
0000
0000
,
0000
0000
0000
0000
,
0001
0000
0000
0000
,
1000
0000
0000
0000
,
0010
0000
0000
0000
,
1000
0000
0000
0000
,
1000
0000
0000
0000
,
0001
0000
0000
0000
,
0001
0000
0000
0000
,
0000
0000
0000
0000
,
0001
0000
0000
0000
,
0000
0000
0000
0000
,
0100
0000
0000
0000
,
1000
0000
0000
0000
,
0100
0000
0000
0000
,
0000
0000
0000
0000
,
0100
0000
0000
0000
,
1000
0000
0000
0000
,
0001
0000
0000
0000
,
1000
0000
0000
0000
,
0010
0000
0000
0000
,
1000
0000
0000
0000
,
1000
0000
0000
0000
,
0001
0000
0000
0000
,
0001
0000
0000
0000
,
1001
0000
0000
0000
;

//---------------dance-single - ----------------
#NOTES:
     dance-single:
     :
     Easy:
     12:
     :
0000
0000
0000
0000
,
0000
0000
0000
0000
,
0000
0000
0000
0000
,
0000
0000
0000
0000
,
0000
0000
0000
0000
,
0000
0000
0000
0000
,
1010
0100
1000
0100
,
0001
0100
0001
0100
,
0010
1000
0010
1000
,
0100
1000
0100
1000
,
1000
0001
1000
0001
,
1000
0100
0001
0100
,
1000
0100
0001
0100
,
1000
0001
0100
0001
,
0001
1000
0001
1000
,
0001
0100
1000
0100
,
0001
0100
1000
0100
,
0001
1000
0100
1000
,
1001
1001
0100
0100
,
0010
0001
1000
0001
,
1000
0100
0001
0100
,
1000
0100
1000
0001
,
1000
1000
0001
0001
,
0010
1000
0001
1000
,
0001
0100
1000
0100
,
0001
0100
0001
1000
,
0001
0100
0001
0100
,
1000
0100
1000
0100
,
0010
0001
0010
0001
,
0100
0001
0100
0001
,
0100
0001
1000
0010
,
1000
0010
0001
0010
,
0001
0010
0100
1000
,
0100
1000
0010
1000
,
1000
0100
1000
0100
,
0001
0100
0001
0100
,
0010
1000
0010
1000
,
0100
1000
0100
1000
,
0100
1000
0001
0010
,
0001
0010
1000
0010
,
1000
0010
0100
0001
,
0100
0001
0010
0001
,
2100
0000
0001
3000
,
0010
1000
0001
1000
,
0100
1000
0001
0100
,
0102
0000
1000
0003
,
0010
0001
1000
0001
,
0100
0001
1000
0100
,
2000
0001
0000
3010
,
1000
0001
1000
0100
,
0001
0010
0100
1000
,
0002
1000
0000
0013
,
0001
1000
0001
0100
,
0001
1000
0001
1000
,
1001
0000
0000
0000
,
0000
0000
0000
0000
,
0000
0010
0010
0010
,
0000
0001
0000
0001
,
0000
1000
0100
1000
,
0010
0100
0010
0100
,
0000
0001
0100
0001
,
0010
0100
0010
0100
,
0000
0010
0001
0100
,
1000
0001
0100
1001
,
0000
0010
0010
0010
,
1000
0100
0010
0001
,
1000
0100
0001
0100
,
1000
0001
0010
0001
,
1000
0010
0001
0010
,
0001
0100
0001
1000
,
0001
0100
1000
0100
,
0001
1000
0010
1000
,
0001
0010
1000
0010
,
1000
0100
0001
0010
,
1000
0010
0001
0010
,
1000
0001
0100
0001
,
1000
0100
0001
0100
,
0001
0010
0001
1000
,
0001
0010
1000
0010
,
0001
1000
0100
1000
,
0001
0100
1000
0100
,
0001
0000
0001
0000
,
1000
0000
0001
0000
,
0100
0000
0001
0000
,
1000
0000
0100
0000
,
1000
0000
1000
0000
,
0001
0000
1000
0000
,
0100
0000
1000
0000
,
0100
0000
0010
0000
,
0001
0000
0001
0000
,
1000
0000
0001
0000
,
0010
0000
0001
0000
,
1000
0000
0100
0000
,
1000
0000
1000
0000
,
0001
0000
1000
0000
,
0001
0000
1000
0000
,
0010
0000
0100
0000
,
0001
0000
0001
0000
,
1000
0000
0001
0000
,
0100
0000
0001
0000
,
1000
0000
0100
0000
,
1000
0000
1000
0000
,
0001
0000
1000
0000
,
0100
0000
1000
0000
,
0100
0000
0010
0000
,
0001
0000
0001
0000
,
1000
0000
0001
0000
,
0010
0000
0001
0000
,
1000
0000
0100
0000
,
1000
0000
1000
0000
,
0001
0000
1000
0000
,
0001
0000
1000
0000
,
2002
0000
0000
3003
;

//---------------dance-single - ----------------
#NOTES:
     dance-single:
     :
     Medium:
     14:
     :
0000
0000
0000
0000
,
0000
0000
0000
0000
,
0000
0000
0000
0000
,
0000
0000
0000
0000
,
0000
0000
0000
0000
,
0000
0000
0000
0000
,
1010
0000
0001
0000
0000
0010
0000
1000
,
0000
0010
0000
0001
0000
0010
0000
0001
,
0000
0010
0000
0100
0000
1000
0000
0001
,
0100
1000
0010
1000
,
1000
0101
0001
0100
,
1000
0100
0001
0100
,
0001
1100
1000
0100
,
1000
0000
0001
0000
0100
0000
0001
1000
,
0001
1000
0001
1000
,
0001
0100
1000
0100
,
1001
0010
1001
0100
,
0110
0010
0110
0001
,
1000
0001
1000
0100
,
0010
0001
1000
0001
,
1000
0100
0001
0100
,
1000
0000
0100
0000
1000
0000
0001
1000
,
0001
1000
0001
0001
,
0010
1000
0001
1000
,
0001
0010
0100
1000
0001
0010
0100
0000
,
1100
1000
0001
0100
,
0100
0000
1000
0100
1000
0000
0100
0000
,
0010
1000
0010
1000
,
0001
0100
0001
0100
,
1000
0100
1000
0100
,
1000
0000
0100
0000
0000
0001
0000
0010
,
0000
0001
0000
0100
0000
0001
0000
0100
,
0000
0001
0000
1000
0000
0010
0000
0100
,
0001
0010
0001
0010
,
1000
0000
0100
1000
0100
0000
1000
0000
,
0001
0100
0001
0100
,
0010
1000
0010
1000
,
0100
1000
0100
1000
,
0100
0000
1000
0000
0000
0010
0000
0001
,
0000
0010
0000
1000
0000
0010
0000
1000
,
0000
0010
0000
0100
0000
0001
0000
1000
,
0100
1000
0001
0100
0010
1000
0001
0000
,
2100
0000
3001
0001
,
0100
0001
1000
0100
,
1000
0001
1000
0000
0001
0000
0100
0000
,
0010
0000
1000
0000
0001
0000
0001
0100
,
0001
0001
1000
0001
,
0100
0001
1000
0100
,
0102
0000
1003
1000
,
0100
0000
1000
0000
0001
0000
1000
0100
,
1000
0001
1000
0100
,
0010
0001
1000
0001
,
1000
0001
0010
0000
0001
0000
1000
0000
,
0100
1000
0001
0100
,
1001
0010
0010
0010
,
0000
0001
0000
0001
,
1100
0001
0100
1000
,
0010
0100
0010
0100
,
0101
1000
0100
0001
,
0010
0100
0010
0100
,
0000
0010
0001
0100
,
0010
0000
0000
0001
0000
0000
0100
0000
,
0000
0110
0000
1000
0100
0100
0100
0000
,
0010
0000
0000
1000
0000
0000
0100
0000
,
0000
0110
0000
0001
0100
0100
0100
0000
,
1000
0001
0100
0001
1000
0000
0001
0100
,
0001
1000
0000
0000
0001
1000
0100
1000
,
0001
0000
0100
0010
1000
0000
0000
0000
,
1000
0010
0100
0001
0010
0100
1000
0001
,
1000
0100
0001
1000
,
0001
0100
1000
0100
,
0001
1000
0010
1000
,
0001
0010
0100
1000
0010
0100
0001
1000
,
0001
0100
0001
0010
,
1000
0010
0001
0010
,
1000
0001
0100
0001
,
1000
0001
0010
0001
1000
0010
1000
0100
,
0001
0000
0000
0000
,
0101
0000
0000
0000
,
1100
0000
0000
0000
,
1100
1100
0101
0101
,
0001
0000
0001
0000
,
1000
0100
1000
0000
,
0100
0000
0001
0000
,
1000
0000
0100
0000
,
1000
0000
1000
0000
,
0001
0100
0001
0000
,
0100
0000
1000
0000
,
0100
0000
0010
0000
,
0001
0000
0001
0000
,
1000
0100
0010
0000
,
0001
0000
0001
0000
,
0010
0001
1000
0000
,
0010
0000
0010
0000
,
0100
1000
0001
0000
,
0001
0000
1000
0000
,
0010
0000
0100
0000
,
0001
0000
0001
0000
,
1000
0001
1000
0000
,
0100
0000
0001
0000
,
1000
0000
0100
0000
,
0000
0000
0001
0000
,
1000
0100
1000
0100
,
0010
0000
0001
0000
,
0100
0000
0010
0000
,
0000
0000
0100
0000
,
0001
0100
0001
0100
,
0010
0000
1000
0000
,
1000
0000
0100
0000
,
1000
0100
1000
0100
,
0001
0100
0001
0100
,
0001
1000
0001
1000
,
2002
0000
0000
3003
;

//---------------dance-single - ----------------
#NOTES:
     dance-single:
     :
     Hard:
     16:
     :
0000
0000
0000
0000
,
0000
0000
0000
0000
,
0000
0000
0000
0000
,
0011
1001
1100
0110
,
1001
1100
1001
1100
,
0010
0001
1000
0001
0010
0001
0100
0001
,
0010
0000
0001
0000
0000
1010
0000
1001
,
0000
1100
0000
0110
0000
1001
0000
1100
,
0000
1001
0000
1100
0000
1000
0000
1000
,
0010
1000
0001
1000
0010
1000
0100
0000
,
1000
0000
0100
0000
0010
0001
0000
0010
,
0001
0000
0100
0000
0010
1000
0000
0010
,
1000
0000
0001
0000
1000
0100
0000
1000
,
0010
1000
0001
1000
0010
1000
0100
0000
,
1000
0000
0100
0000
0010
0001
0000
0010
,
0001
0000
0100
0000
0010
1000
0000
0010
,
1000
0000
0001
0000
1000
0100
0000
1000
,
0010
1000
0001
1000
0010
1000
0100
0000
,
0100
0000
0001
0010
0001
0010
0001
0010
,
0001
0000
1000
0010
1000
0010
1000
0010
,
0100
0000
0001
0010
0001
0010
0001
0010
,
0001
1000
0010
0100
0001
0100
0010
0100
,
0001
0000
1000
0010
1000
0010
1000
0010
,
1000
0000
0001
0010
0001
0010
0001
0010
,
0100
1000
0100
0010
0001
0010
0001
0000
,
0001
0010
0001
0000
0010
1000
0010
0000
,
0001
0010
0001
0010
,
0011
1001
1100
0110
,
1001
1100
1001
1100
,
0010
0001
1000
0001
0010
0001
0100
0001
,
1000
0000
0100
0000
0000
0011
0000
1001
,
0000
0101
0000
0110
0000
1001
0000
1100
,
0000
1001
0000
0101
0000
0001
0000
0001
,
0010
0001
1000
0001
0010
0001
0100
0001
,
1000
0100
1000
0100
,
1100
1001
0011
0110
,
1001
0011
1001
0011
,
0010
1000
0001
1000
0010
1000
0100
0010
,
0001
1000
0001
1000
0001
1000
0001
1000
,
0100
0010
0001
1000
0001
0010
0100
1000
,
0100
0010
0001
0100
0010
0100
0001
1000
,
0100
1000
0001
0100
0010
1000
0001
0000
,
2100
0000
3001
0001
,
0100
0001
1000
0100
,
1000
0001
1000
0000
0001
0000
0100
0000
,
0010
1000
0001
0100
0001
1000
0001
0100
,
0001
0001
1000
0001
,
0100
0001
1000
0100
,
0102
0000
1003
1000
,
0001
1000
0100
1000
0001
0010
0100
1000
,
0001
1000
0100
1000
0001
0100
0001
0100
,
0001
0000
1000
0100
1000
0001
1000
0000
,
0001
0100
0001
0000
0010
0000
1000
0001
,
1000
0010
1000
0100
1000
0000
0001
0000
,
1100
0000
0001
0000
0100
0001
1000
0000
,
0010
0000
0100
1000
0001
0100
1000
0000
,
0101
0000
1000
0000
0100
1000
0001
0000
,
0010
0000
0100
0001
1000
0100
0001
0000
,
0010
0000
0010
0000
1001
0000
0001
0100
,
0010
1010
0101
0000
,
0010
0001
0001
0001
0010
0001
0001
0000
,
0010
1000
1000
1000
0010
1000
1000
0000
,
0100
1000
0100
1000
1000
1000
1000
0000
,
0100
0001
0100
0001
0001
0001
0001
0000
,
0010
1000
0100
0001
,
1000
0001
0100
0001
1000
0000
0001
0100
,
0001
1000
0000
0000
0001
1000
0100
1000
,
0001
0000
0100
0010
1000
0000
0000
0001
,
1000
0010
0100
0001
0000
0100
0000
0001
,
1000
0100
0000
1000
0000
1000
0001
0100
,
0000
0001
1000
0000
0010
0001
0010
0000
,
1000
0000
1000
0010
0000
0001
0100
0001
,
0100
0000
1000
0100
1000
0000
1000
0100
,
0000
0001
0000
1000
0000
0000
0001
0100
,
0001
0100
0001
0000
0001
1000
0000
1000
,
0010
0100
0001
0000
0001
0100
0001
0000
,
1000
0100
1000
0000
0100
0000
0001
1000
,
0001
0000
0000
1000
0000
0000
0010
1000
,
0000
0001
0100
0001
0000
0000
0010
0000
,
0100
0010
0100
0000
0100
0000
0001
0000
,
0001
0100
0010
1000
0001
0100
0001
0100
,
0001
0100
0001
0100
,
0001
1000
0001
1000
,
0100
1000
0100
1000
,
0001
1000
0001
0100
,
0001
0100
0001
0100
,
0001
1000
0001
1000
,
0010
1000
0001
1000
,
0010
1000
0100
1000
,
0100
0010
0001
0010
,
0001
1000
0001
1000
,
0010
1000
0010
1000
,
0010
0100
0010
0100
,
0010
1000
0010
1000
,
0001
1000
0001
1000
,
0010
1000
0001
1000
,
0010
1000
0010
1000
,
0001
0010
0100
1000
,
0001
1000
0001
0100
,
0001
0010
0100
1000
,
0100
0010
0001
0100
,
0001
1000
0001
1000
,
0001
0100
0001
0100
,
0010
1000
0001
1000
,
0010
1000
0100
1000
,
0100
1000
0010
0100
,
0001
0100
0010
0100
,
0010
1000
0001
0010
,
0001
1000
0100
1000
,
0001
0100
0001
1000
,
0001
0100
0010
0100
,
0001
0100
0001
1000
,
1002
1000
1000
0000
,
1000
0000
1000
0000
,
1003
0000
0000
0000
;

//---------------dance-single - ----------------
#NOTES:
     dance-single:
     :
     Challenge:
     18:
     :
0000
0000
0000
0000
,
0000
0000
0000
0000
,
0000
0000
0000
0000
,
1010
1001
0011
1001
,
0110
1001
0110
1001
,
0010
1000
0100
0010
0001
0100
0010
1000
,
0020
0000
1030
0000
0000
0001
2000
0010
,
3000
0010
0200
0001
0300
0001
2000
0100
,
3000
0100
0020
0001
0030
0001
1000
0010
,
0100
0001
1000
0100
0010
0001
1000
0001
,
0100
0000
0001
0000
1000
0010
0100
0001
,
1000
0000
0100
0000
1000
0010
0100
0001
,
1000
0000
0001
0000
1000
0100
0010
0001
,
1000
0001
0100
0001
0010
0100
1000
0010
,
0100
0000
0010
0000
1000
0100
0010
0001
,
1000
0000
0001
0000
1000
0100
0010
0001
,
0100
0000
0001
0000
1000
0010
0100
0001
,
0010
0001
1000
0001
0100
0010
1000
0001
,
1001
1000
1010
1000
,
1001
0000
1000
0000
1100
0000
1000
0001
,
1001
0001
0011
0001
,
1000
0001
0010
0100
1000
0010
0100
0001
,
0101
0001
1001
0001
,
0011
0001
1001
0001
,
0100
0001
0010
0100
1000
0010
1000
0000
,
0010
1000
1010
0000
0001
0010
0011
0000
,
1000
0000
0010
0000
1000
0010
0000
0010
,
1010
1001
0011
1001
,
0110
1001
0110
1001
,
0010
1000
0100
0010
0001
0100
0010
1000
,
0001
0000
1000
0000
0000
0001
0100
0020
,
0000
1000
0100
0000
0000
0001
0100
0000
,
0000
1000
0100
0000
0000
0001
0100
0030
,
1000
0001
0100
1000
0100
0001
1000
0100
,
0001
0000
0100
0000
1000
0100
0000
0100
,
0101
0011
1010
1100
,
1001
0110
1001
0110
,
0010
0001
1000
0001
0100
0001
1000
0010
,
1000
0000
0001
0000
0000
1000
0100
0020
,
0000
0001
0100
0000
0000
1000
0100
0000
,
0000
0001
0100
0000
0000
1000
0100
0030
,
0100
0001
0100
0010
0100
1000
0100
0010
,
0011
0001
1000
0010
,
0100
1000
0001
0100
,
0001
0100
1000
0000
0100
0001
0000
0001
,
1000
0010
0100
0001
0100
0010
1000
0100
,
1000
1000
0001
1000
,
0100
0000
1000
0000
0001
0010
0000
0010
,
0100
1000
0100
0000
0010
0000
0001
0000
,
1000
0100
0010
0001
0010
0100
1000
0001
,
1000
0001
0100
0001
1000
0100
0010
0100
,
1000
0000
0001
0100
0001
1000
0001
0000
,
0010
0100
1000
0010
0100
0001
0010
0100
,
1000
0010
0100
0010
1000
0001
1000
0001
,
2200
3000
0000
0000
0000
0000
0000
0000
0000
0000
0000
0000
0000
0000
0000
0000
0000
0000
0000
0000
0000
0000
0000
0000
0302
0000
0000
0000
0000
0000
0000
0000
0000
0000
0000
0000
0000
0000
0000
0000
0000
0000
0000
0000
0000
0000
0000
0000
0203
0000
0000
0000
0000
0000
0000
0000
0000
0000
0000
0000
0000
0000
0000
0000
,
0000
1300
0000
0010
0100
0100
0100
0000
,
1020
0000
0000
0032
0000
0000
0023
0000
,
0000
1030
0000
0100
0010
0010
0010
0000
,
1001
0100
0000
1001
0010
0000
0110
0001
,
0000
0110
1000
0001
1000
1000
1000
0000
,
0110
1000
0000
0110
0001
0000
1001
0100
,
0000
1001
0010
0100
0010
0010
0020
0000
,
0130
0000
0001
0001
,
0000
1000
1000
1000
,
1000
0010
0101
0000
0010
0100
0001
0000
,
0001
0010
1000
0100
0001
0000
1000
0010
,
0001
0100
1000
0000
1000
0100
0001
0010
,
1000
0000
0001
0100
1000
0010
0001
0000
,
0010
1000
0100
0010
0001
0100
0010
0001
,
1000
0100
0001
0010
1000
0000
0001
0100
,
1000
0010
0001
0000
0001
0010
1000
0100
,
0001
0000
1000
0010
0001
0100
1000
0000
,
0100
0010
1000
0100
0010
0001
0100
0010
,
1000
0010
0010
1000
0010
0000
1000
0100
,
0100
1000
0100
0000
0010
0001
0001
0010
,
0001
0100
0010
0000
1000
0100
0010
0000
,
0001
0100
0010
1000
0100
0010
0001
1000
,
0001
0000
0000
0011
0000
0000
0100
1000
,
0000
0001
0100
1000
0000
0000
0100
0000
,
0001
1000
0100
0000
0010
0000
0001
0000
,
1000
0100
0010
0001
0100
0010
0100
0010
,
1000
0100
0010
0001
,
0100
0010
1000
0100
,
0010
0100
0010
0001
,
0010
0000
0100
0000
0010
0000
0100
0000
1000
0000
0100
0000
,
1000
0001
0100
0010
,
1000
0001
1000
0100
,
0010
0001
0100
0010
,
1000
0000
0010
0000
1000
0000
0001
0000
0100
0000
0001
0000
,
1000
0010
1000
0100
,
0010
0001
1000
0010
,
0100
0001
1000
0001
,
0010
0000
0100
0000
0010
0000
0001
0000
0100
0000
0010
0000
,
1000
0010
0100
0001
,
0100
0010
1000
0100
,
0010
0001
0100
0010
,
1000
0000
0001
0000
0010
0000
0001
0000
1000
0000
0100
0000
,
1000
0010
0100
0001
,
1000
0100
0010
0001
,
1000
0010
0100
0010
,
1000
0000
0001
0000
0100
0000
0001
0000
1000
0000
0100
0000
,
1000
0001
0010
0100
,
1000
0001
1000
0010
,
0100
0001
1000
0001
,
0100
0000
0010
0000
1000
0000
0100
0000
0010
0000
0001
0000
,
1000
0000
0001
0000
1000
0000
0001
0000
1000
0000
0001
0000
,
0100
0000
0010
0000
0100
0000
0010
0000
0100
0000
0010
0000
,
1000
0000
0010
0000
1000
0000
0010
0000
1000
0000
0010
0000
,
0100
0000
0001
0000
0100
0000
0001
0000
0100
0000
0001
0000
,
1000
0000
0100
0000
0010
0000
0001
0000
0100
0000
0010
0000
,
1000
0000
0100
0000
0010
0000
0001
0000
0100
0000
0010
0000
,
1000
0000
0100
0000
0010
0000
0001
0000
0100
0000
0010
0000
,
2000
0000
0000
0000
,
0000
0000
0000
0000
,
3000
0000
0000
0000
;

//---------------dance-double - ----------------
#NOTES:
     dance-double:
     :
     Easy:
     11:
     :
00000000
00000000
00000000
00000000
,
00000000
00000000
00000000
00000000
,
00000000
00000000
00000000
00000000
,
00000000
00000000
00000000
00000000
,
00000000
00000000
00000000
00000000
,
00000000
00000000
00000000
00000000
,
00101000
00000000
00001000
00000000
,
00010000
00000000
01000000
00000000
,
10000000
00000000
00100000
00000000
,
01000000
00000000
00000000
00000000
,
01000000
00000000
00001000
00000000
,
00000100
00000000
00000001
00000000
,
00000010
00000000
00000001
00000000
,
00001000
00000010
00000100
00000000
,
00010000
00000000
10000000
00000000
,
01000000
00000000
00100000
00000000
,
00010000
00000000
10000000
00000000
,
01000000
00000000
00000000
00000000
,
00010000
00000000
00001000
00000000
,
00010000
00000000
00000100
00000000
,
00000010
00000000
00000001
00000000
,
00000100
00000001
00000010
00000000
,
00000100
00000000
00010000
00000000
,
00100000
00000000
10000000
00000000
,
01000000
00000000
00010000
00000000
,
00001000
00000000
00000000
00000000
,
00100000
00010000
00001000
00000100
,
00000001
00000100
00000001
00000100
,
00001000
00000100
00001000
00000100
,
00000001
00000000
00000100
00000000
,
00010000
00100000
01000000
10000000
,
00100000
10000000
00100000
10000000
,
00010000
01000000
00010000
01000000
,
00010000
00000000
00001000
00000000
,
00000010
00000100
00000001
00001000
,
00000010
00001000
00000010
00001000
,
00000010
00000100
00000001
00000100
,
00000001
00000000
00000100
00000000
,
00010000
01000000
00100000
10000000
,
01000000
10000000
01000000
00010000
,
00000100
00010000
00000100
00010000
,
00001000
00000000
00010000
00000000
,
00012000
00000000
00010000
00003000
,
01000000
00010000
01000000
00000000
,
00000000
00001000
00010000
00000000
,
00021000
00000000
00001000
00030000
,
00000100
00001000
00000100
00000000
,
00000000
00010000
00001000
00000000
,
00011000
00000000
00100000
00000000
,
10000000
01000000
10000000
01000000
,
00010000
00001000
00000000
00000000
,
00011000
00000000
00000010
00000000
,
00000001
00000100
00000001
00000100
,
00001000
00010000
00000000
00000000
,
00011000
00000000
01000000
00000100
,
00011000
00100000
00010000
00100000
,
00010000
00100000
00010000
00100000
,
00010000
00000010
00001000
00000010
,
00001000
00000010
00001000
00000010
,
00011000
01100000
10000000
01000000
,
10000000
01000000
10000000
01000000
,
00010000
01000000
00010000
01000000
,
00010000
01000000
00010000
01000000
,
11000000
00010000
00001000
00000101
,
00000010
00000100
00000010
00000100
,
00001000
00000010
00001000
00000000
,
00000010
00001000
00000100
00010000
,
00000100
00001000
00000100
00000000
,
00010000
00001000
01000000
00100000
,
10000000
01000000
10000000
00000000
,
00100000
01000000
00001000
00010000
,
00000010
00000100
00000001
00000000
,
00000001
00001000
00000100
00000000
,
00010000
00001000
01000000
00000000
,
00010000
00100000
01000000
10000000
,
00100000
01000000
00001000
00000000
,
00010000
00001000
00010000
00000100
,
00000010
00000001
00000100
00000000
,
00000010
00010000
00001000
00000000
,
00100000
01000000
10000000
00010000
,
00100000
00000000
10000000
00000000
,
10000000
00000000
00000000
00000000
,
00100000
00000000
00000000
00000000
,
00010000
00000000
00000000
00000000
,
00001000
00000000
00000000
00000000
,
00000100
00000000
00000000
00000000
,
00000001
00000000
00000000
00000000
,
00001000
00000000
00000000
00000000
,
00000001
00000000
00000000
00000000
,
00000100
00000000
00000000
00000000
,
00000001
00000000
00000000
00000000
,
00000010
00000000
00000000
00000000
,
00001000
00000000
00000000
00000000
,
00010000
00000000
00000000
00000000
,
01000000
00000000
00000000
00000000
,
10000000
00000000
00000000
00000000
,
01000000
00000000
00000000
00000000
,
10000000
00000000
00000000
00000000
,
01000000
00000000
00000000
00000000
,
00010000
00000000
00000000
00000000
,
00001000
00000000
00000000
00000000
,
00000100
00000000
00000000
00000000
,
00000001
00000000
00000000
00000000
,
00000100
00000000
00000000
00000000
,
00000001
00000000
00000000
00000000
,
00001000
00000000
00000000
00000000
,
00000100
00000000
00000000
00000000
,
00001000
00000000
00000000
00000000
,
00000001
00000000
00000000
00000000
,
00000010
00000000
00000001
00000000
,
00000100
00000000
00001000
00000000
,
00010000
00000000
01000000
00000000
,
20000000
00000000
00000000
30000000
;

//---------------dance-double - ----------------
#NOTES:
     dance-double:
     :
     Medium:
     13:
     :
00000000
00000000
00000000
00000000
,
00000000
00000000
00000000
00000000
,
00000000
00000000
00000000
00000000
,
00000000
00000000
00000000
00000000
,
00000000
00000000
00000000
00000000
,
00000000
00000000
00000000
00000000
,
10100000
00010000
01000000
00010000
,
00100000
00001000
00010000
00001000
,
00010000
00000010
00001000
00000010
,
00000100
00000000
00000000
00000000
,
00000000
00001000
00000010
00001000
,
00000100
00010000
00001000
01000000
,
00010000
00100000
01000000
10000000
,
00100000
00000000
00100000
00000000
,
01000000
00010000
00100000
01000000
,
00010000
00001000
00000100
00000010
,
00001010
00000000
00011000
00000000
,
00010000
01000000
10000000
00010000
,
00100000
01000000
10000000
01000000
,
00010000
00001000
00000100
00000010
,
00001000
00000100
00000010
00000001
,
00000100
00000000
00001000
00000000
,
00010000
01000000
10000000
00100000
,
10000000
01000000
00100000
00010000
,
01000000
00001000
00010000
00001000
,
00011000
00000000
00000010
00000000
,
00000001
00000000
00000010
00000001
00000100
00000000
00001000
00000000
,
00010000
00000000
01000000
00000000
,
10000000
00010000
00100000
01000000
,
10000000
00100000
01000000
00001000
,
00010000
00000010
00000100
00000001
,
00001000
00000001
00000010
00000100
,
00001000
00010000
00100000
01000000
,
10000000
00000000
00010000
00000000
,
10000000
00000000
00100000
10000000
01000000
00000000
00010000
00000000
,
00001000
00000000
00000100
00000000
,
00000001
00001000
00000010
00000100
,
00000001
00000010
00000100
00001000
,
00010000
00100000
01000000
10000000
,
00010000
10000000
00100000
01000000
,
00001000
00010000
00001000
00000100
,
00000001
00000000
00001000
00000000
,
00021000
00000000
00031000
00010000
,
00001000
01000000
00100000
10000000
,
01000000
00010000
01000000
00000000
00010000
00000000
00001000
00000000
,
00000100
00000000
00000001
00000000
00001000
00000000
00000100
00001000
,
00000100
00010000
01000000
10000000
,
00100000
01000000
00001000
00000000
,
00012000
00000000
00013000
00001000
,
00000010
00000000
00000001
00000000
00000100
00000000
00001000
00000100
,
00001000
00000100
00000001
00000010
,
00000100
00001000
00010000
00100000
,
00010000
10000000
01000000
00000000
10000000
00000000
00100000
00000000
,
10000000
01000000
00010000
00000000
,
00011000
00000000
01000000
00000000
,
10010000
00000000
00000000
00000000
01000000
01000000
01000000
00000000
,
00011000
00000000
00100000
00000000
00010000
00010000
00010000
00000000
,
00010000
00000000
01000000
00000000
00010000
00010000
00010000
00000000
,
00010000
00000000
00001000
00000000
00000100
00000100
00000100
00000000
,
00000100
00000000
00001000
00000000
00001000
00001000
00001000
00000000
,
00011000
00000000
10010000
00000000
00100000
00100000
00100000
00000000
,
10010000
00000000
00000000
00100000
00100000
00000000
11000000
00000000
,
00000000
10000000
10000000
00000000
01100000
00000000
10010000
00000000
,
00011000
00000000
00000000
00000100
00000100
00000000
00000010
00000000
,
00000000
00000001
00000001
00000000
00001000
00001000
00001000
00000000
,
00000001
00000100
00000001
00000100
,
00001000
00000000
00010000
00000000
00001000
00010000
00001000
00010000
,
00001000
00010000
01000000
10000000
,
00100000
10000000
01000000
10000000
,
00010000
00100000
01000000
00010000
,
00001000
00010000
00000010
00001000
,
00000100
00000010
00000001
00000100
,
00000010
00001000
00000100
00001000
,
00000010
00010000
00001000
00000100
,
00000001
00000010
00000100
00001000
,
00000010
00010000
00001000
01000000
,
00010000
00100000
01000000
10000000
,
01000000
00000000
00000000
00000000
,
01001000
00000000
00000000
00000000
,
00011000
00000000
00000000
00000000
,
00000100
00000010
00000100
00001000
,
00010000
00000000
00001000
00000000
,
00000100
00000000
00000001
00000000
,
00000010
00000000
00000001
00000000
,
00000100
00000000
00001000
00000000
,
00010000
00000000
00001000
00000000
,
00010000
00000000
01000000
00000000
,
10000000
00000000
00010000
00000000
,
01000000
00000000
00100000
00000000
,
10000000
00000000
01000000
00000000
,
00010000
00000000
00001000
00000000
,
00000100
00000000
00000001
00000000
,
00000010
00000000
00000100
00000000
,
00001000
00000000
00000001
00000000
,
00000100
00000000
00000010
00000000
,
00010000
00000000
00001000
00000000
,
00010000
00000000
00001000
00000000
,
00010000
00000000
00100000
00000000
,
10000000
00000000
01000000
00000000
,
00010000
00000000
00001000
00000000
,
00000100
00000000
00000001
00000000
,
00001000
00000000
00000001
00000000
,
00000100
00000000
00000010
00000000
,
00010000
00000000
00001000
00000000
,
00010000
00000000
00001000
00000000
,
00000000
00000000
00010000
00000000
,
01000000
00000000
10000000
00000000
,
00010000
00000000
10000000
00000000
,
00100000
00000000
01000000
00000000
,
00010000
01000000
00010000
01000000
,
00001000
00010000
00001000
00010000
,
00000100
00010000
00000100
00010000
,
00022000
00000000
00000000
00033000
;

//---------------dance-double - ----------------
#NOTES:
     dance-double:
     :
     Hard:
     16:
     :
00000000
00000000
00000000
00000000
,
00000000
00000000
00000000
00000000
,
00000000
00000000
00000000
00000000
,
00110000
10000000
00010000
01000000
,
00100000
10000000
01000000
00010000
,
00001000
00010000
00000100
00001000
00000010
00000100
00000001
00001000
,
00000000
00000000
00000000
00000000
00000000
00000100
00000000
00000010
,
00000000
00000001
00000000
00000100
00000000
00000001
00000000
00000100
,
00000000
00001000
00000000
00010000
00000000
01000000
00000000
10000000
,
00010000
00100000
01000000
10000000
00010000
01000000
00010000
10000000
,
00000000
00000000
00000000
00000000
,
10000000
01000000
00010000
00000000
,
00000010
00000100
00000001
00000000
,
00001000
00000010
00000100
00000001
00000010
00000100
00001000
00000001
,
00000100
00000010
00001000
00000000
,
00000100
00010000
00001000
00000000
,
00001100
00000000
00011000
00000000
,
01100000
00000000
10010000
00000000
,
00100000
00000000
01000000
00010000
10000000
00100000
01000000
00010000
,
10000000
00000000
00001000
00010000
00001000
00010000
00001000
00010000
,
00001000
00000000
00000100
00000001
00000010
00000001
00001000
00000010
,
00001000
00000010
00000100
00001000
,
00010000
00000000
00001000
00010000
00001000
00010000
00001000
00010000
,
00001000
00000000
01000000
00010000
00100000
01000000
10000000
00100000
,
01000000
00100000
10000000
01000000
,
00100000
00010000
00100000
00000000
00001000
00010000
00001000
00000000
,
00000100
00000001
00000010
00000100
,
00001000
00010000
00100000
01000000
,
10000000
00100000
01000000
00000000
,
00010000
10000000
00010000
01000000
00100000
01000000
00010000
00100000
,
01000000
00000000
00000000
00000000
00000000
00100000
00000000
01000000
,
00000000
10000000
00000000
00100000
00000000
10000000
00000000
01000000
,
00000000
00010000
00000000
00001000
00000000
00000100
00000000
00000001
,
00000100
00000001
00001000
00000100
00001000
00000010
00000100
00000001
,
00001000
00000010
00000100
00000001
,
00000010
00000100
00010000
00001000
,
00010000
00001000
00010000
00000100
,
00000010
00000100
00000010
00000001
00000100
00000010
00001000
00000100
,
00000010
00000001
00000100
00001000
00010000
00001000
01000000
00100000
,
00000000
10000000
00000000
00010000
00000000
10000000
00000000
01000000
,
00000000
00010000
00000000
00001000
00000000
00000100
00000000
00000001
,
00001000
00000010
00000100
00000001
00000010
00000100
00001000
00000000
,
00002100
00000000
00003000
00000010
,
00000001
00000100
00001000
00010000
,
00001000
00010000
00001000
00000000
00010000
00000000
01000000
00000000
,
10000000
00000000
00010000
00000000
00100000
00000000
01000000
10000000
,
01000000
00100000
00010000
10000000
,
01000000
10000000
00010000
01000000
,
01020000
00000000
10030000
00100000
,
01000000
00000000
00001000
00000000
00010000
00000000
00001000
00010000
,
00001000
00010000
00001000
00000100
,
00000001
00000010
00000001
00000010
,
00000100
00000010
00000100
00000000
00001000
00000000
00000100
00000000
,
00010000
00001000
00010000
00000000
,
00011000
00000000
00000000
00000000
,
00000000
00000000
00000000
00000000
00010000
00100000
01000000
10000000
,
00100000
01000000
00010000
01000000
00001000
00010000
00001000
00000000
,
00010000
00000100
00000010
00000001
00000100
00000010
00001000
00000000
,
00000100
00010000
00001000
00100000
00010000
10000000
01000000
00000000
,
00100000
00001000
01000000
00010000
10000000
01000000
00100000
00010000
,
01000000
00001000
00010000
00000100
00000010
00000001
00000100
00000000
,
00000000
01000000
00100000
00001000
00010000
00000100
00000010
00000001
,
00000100
00000010
00010000
00001000
00000000
00001000
00000000
00000000
,
00000000
00100000
01000000
10000000
00010000
01000000
00001000
00010000
,
00000100
00000010
00000001
00000000
00000000
00001100
00000000
00000000
,
00000001
00001000
00000100
00001000
00000001
00000000
00000100
00000000
,
00000010
00000000
00000000
00000000
00001000
00000100
00001000
00000010
,
00000100
00000000
00001000
00000000
01000000
00000000
00000000
00100000
,
10000000
01000000
10000000
00010000
00000000
00100000
00000000
01000000
,
10000000
00010000
00000000
00000000
00000000
10000000
00010000
01000000
,
00000000
00001000
00010000
00000000
00000010
00000000
00000100
00000000
,
00000001
00000000
00000100
00000000
00000000
00000001
00000010
00000001
,
00000100
00000000
00000010
00001000
00000001
00000000
00001000
00000100
,
00000000
00000010
00000000
00000001
00000000
00000000
00000100
00000010
,
00001000
00000100
00010000
00000000
00001000
00010000
00000000
00001000
,
00010000
00001000
00010000
00000000
01000000
10000000
01000000
00000000
,
10000000
00100000
01000000
00000000
00010000
00000000
10000000
00000000
,
00100000
00000000
00000000
01000000
00000000
00000000
00010000
10000000
,
00000000
01000000
00100000
01000000
00000000
00000000
00010000
00000000
,
00001000
00010000
00001000
00000000
00000100
00000000
00000001
00000000
,
00001000
00000001
00000010
00000100
00001000
00000001
00000100
00000010
,
00001000
00000100
00001000
00000100
,
00000010
00000001
00000010
00000001
,
00000100
00000010
00000100
00000010
,
00010000
00001000
00010000
00001000
,
00100000
00010000
00100000
00010000
,
10000000
01000000
10000000
01000000
,
10000000
00010000
10000000
00010000
,
01000000
00010000
01000000
00010000
,
00100000
00001000
00100000
00001000
,
00010000
00001000
00010000
00001000
,
00010000
00000010
00010000
00000010
,
00001000
00000001
00001000
00000001
,
00000100
00000010
00000100
00000010
,
00010000
00001000
00010000
00001000
,
01000000
00001000
01000000
00001000
,
00100000
01000000
00100000
01000000
,
10000000
01000000
10000000
01000000
,
00100000
00010000
00100000
00010000
,
01000000
00001000
01000000
00001000
,
00010000
00001000
00010000
00001000
,
00010000
00000010
00010000
00000010
,
00000100
00000010
00000100
00000010
,
00000100
00000001
00000100
00000001
,
00000010
00000100
00000010
00000100
,
00001000
00000100
00001000
00000100
,
00010000
00001000
00010000
00001000
,
00100000
00001000
00100000
00001000
,
01000000
00010000
01000000
00010000
,
10000000
00010000
10000000
00010000
,
00100000
00010000
10000000
01000000
,
00010000
00001000
00000000
00000000
,
00001200
00000000
00001000
00000000
,
00001000
00000000
00001000
00000000
,
00001300
00000000
00000000
00000000
;

//---------------dance-double - ----------------
#NOTES:
     dance-double:
     :
     Challenge:
     18:
     :
00000000
00000000
00000000
00000000
,
00000000
00000000
00000000
00000000
,
00000000
00000000
00000000
00000000
,
00000011
00001001
00001100
00011000
,
00110000
10010000
01010000
00011000
,
00010000
00001000
01000000
00010000
00100000
01000000
10000000
00010000
,
01000000
00000000
00010000
00000000
00000000
01000000
00100000
10000000
,
00000000
01000000
00100000
00010000
00000000
00001000
00000100
00000010
,
00000000
00000001
00001000
00000100
00000000
00000010
00000001
00001000
,
00000001
00000100
00001000
00010000
01000000
10000000
00010000
10000000
,
00100000
00000000
10000000
00000000
01000000
00100000
00000000
01000000
,
00100000
00000000
00001000
00000000
00010000
00001000
00000000
00010000
,
00001000
00000000
00000100
00000000
00000010
00000100
00000000
00000010
,
00000100
00000001
00000010
00001000
00010000
01000000
10000000
00010000
,
01000000
00000000
00100000
00000000
10000000
01000000
00000000
10000000
,
01000000
00000000
00010000
00000000
00001000
00010000
00000000
00001000
,
00010000
00000000
00000100
00000000
00001000
00000100
00000000
00001000
,
00000100
00000010
00000001
00000100
00001000
00010000
00100000
10000000
,
10010000
01000000
00011000
00000100
,
00001001
00000100
00011000
01000000
,
10010000
01000000
00011000
00000100
,
00000010
00000001
00000100
00001000
00000001
00000010
00001000
00010000
,
01010000
00010000
10010000
00010000
,
00110000
00010000
00011000
00001000
,
00000100
00000010
00000001
00000100
00000010
00001000
00000100
00000000
,
00010000
00001000
00100000
00000000
00010000
01000000
00100000
00000000
,
10000000
00000000
00100000
00000000
01000000
00100000
00000000
00100000
,
10100000
10010000
01010000
00011000
,
00001100
00000110
00000011
00000110
,
00000001
00000100
00001000
00010000
00100000
10000000
00010000
01000000
,
00100000
00000000
01000000
00000000
00000000
10000000
01000000
00010000
,
00000000
00001000
00010000
00100000
00000000
00010000
00001000
00000100
,
00000000
00000010
00001000
00000100
00000000
00000010
00000001
00000100
,
00000001
00000010
00001000
00010000
01000000
10000000
00010000
01000000
,
00100000
00000000
00100000
00000000
01000000
00100000
00000000
10000000
,
11000000
01010000
00011000
00001010
,
00000110
00000101
00001100
00001001
,
00000010
00000001
00000100
00001000
00010000
00100000
10000000
01000000
,
00100000
00000000
01000000
00010000
00001000
00010000
00000100
00000010
,
00000000
00000001
00000100
00001000
00000000
00000001
00000010
00000100
,
00000000
00001000
00010000
00100000
00000000
10000000
00010000
01000000
,
00010000
00100000
01000000
10000000
00100000
01000000
00010000
00001000
,
00020000
00000000
00031000
00000100
,
00000001
00000010
00000100
00001000
,
00010000
00001000
00010000
00000000
00001000
00000000
00000100
00000000
,
00000010
00000000
00000001
00000000
00000100
00000000
00001000
00010000
,
00100000
01000000
00100000
10000000
,
01000000
00100000
00010000
00001000
,
00002100
00000000
00003001
00000010
,
00000100
00000000
00010000
00000000
00001000
00000000
00100000
00010000
,
10000000
00100000
01000000
00010000
,
10000000
00100000
10000000
01000000
,
00010000
00001000
00000010
00000000
00000001
00000000
00000100
00000000
,
00000010
00010000
00001000
00010000
,
00011000
00000000
00000000
00000000
,
10000000
00000000
00000000
00001000
00000000
00000000
01000000
00000000
,
00000000
00000010
00000000
00010000
00000100
00000100
00000100
00000000
,
00000001
00000000
00000000
00010000
00000000
00000000
00000100
00000000
,
00011000
00000000
00000000
00110000
00000000
00010010
00000000
00000000
,
00000001
00001000
00000100
00010000
00001000
00100000
00010000
20000000
,
00000000
00000000
30000000
10010000
00000000
00011000
00000000
00001001
,
00000001
00001000
01000000
00100000
00001000
00000100
00010000
00100000
,
00001000
00000100
00000010
00010000
00001000
01000000
00011000
00000000
,
00011000
00000000
00110000
11000000
,
00000000
00000000
01000000
01000000
01000000
01000000
01000000
01000000
,
10000000
00010000
01000000
00100000
10000000
00000000
01000000
00010000
,
00001000
00000010
00000000
00000000
00000001
00000100
00000010
00001000
,
00000001
00000000
00000010
00001000
00010000
00000000
00000000
01000000
,
10000000
00010000
01000000
00100000
00000000
10000000
00000000
01000000
,
00010000
00001000
00000000
00000010
00000000
00000001
00001000
00000100
,
00000000
00010000
00001000
00000000
00100000
01000000
10000000
00000000
,
00010000
00000000
10000000
00100000
00000000
00010000
00001000
00000010
,
00000001
00000000
00001000
00000100
00000010
00000000
00000100
00001000
,
00000000
00010000
00000000
00100000
00000000
00000000
01000000
00100000
,
00010000
01000000
00001000
00000000
00010000
00100000
00000000
00010000
,
00001000
00000100
00000001
00000000
00001000
00000100
00000010
00000000
,
00000001
00000010
00000100
00000000
00001000
00000000
00000001
00000100
,
00001000
00000000
00000000
00010000
00000000
00000000
00100000
10000000
,
00000000
01000000
00100000
01000000
00000000
00000000
00100000
00000000
,
00010000
00001000
00000100
00000000
00000010
00000000
00000100
00000000
,
00000010
00000001
00000100
00001000
00010000
01000000
10000000
00100000
,
01000000
10000000
01000000
00010000
,
00100000
10000000
00100000
01000000
,
10000000
01000000
00010000
00001000
,
00000010
00000001
00000010
00000100
,
00000001
00000100
00001000
00000010
,
00000100
00000010
00000001
00000010
,
00000100
00001000
00010000
00100000
,
10000000
00010000
01000000
00010000
,
10000000
01000000
00010000
01000000
,
10000000
01000000
00100000
01000000
,
00100000
00010000
00001000
00000100
,
00000010
00000001
00000100
00000010
,
00001000
00000001
00000100
00000010
,
00000100
00000001
00000010
00000100
,
00001000
00010000
00100000
01000000
,
00100000
00010000
01000000
00100000
,
10000000
00100000
00010000
00100000
,
10000000
01000000
00010000
00001000
,
00100000
00010000
00001000
00000100
,
00000010
00000001
00000100
00000010
,
00010000
00000010
00000100
00001000
,
00010000
00100000
10000000
00010000
,
00100000
01000000
10000000
00100000
,
00010000
00001000
00000100
00000010
,
00001000
00000100
00000010
00000001
,
00000100
00001000
00010000
00100000
,
10000000
01000000
00100000
00010000
,
01000000
00100000
00010000
00001000
,
00010000
00000000
00001000
00000000
00010000
00000000
00001000
00000000
00000000
00010000
00000000
00000000
,
00000010
00000000
00001000
00000000
00000010
00000000
00001000
00000000
00000000
00000010
00000000
00000000
,
00000100
00000000
00000001
00000000
00000100
00000000
00000001
00000000
00000000
00000100
00000000
00000000
,
00002002
00000000
00000000
00000000
,
00000000
00000000
00000000
00000000
,
00003003
00000000
00000000
00000000
;
