
//----- song id: mayu
#TITLE:M.A.Y.U.;
#ARTIST:Ryu☆ feat.MAYU;
#BANNER:M.A.Y.U.png;
#BACKGROUND:M.A.Y.U-bg.png;
#CDTITLE:./CDTitles/DDR (2014).png;
#MUSIC:M.A.Y.U.ogg;
#SAMPLESTART:60.938;
#SAMPLELENGTH:15;
#BPMS:0=128;
#NOTES:
     dance-single:
     :
     Beginner:
     2:
     :
0000
0000
0000
0000
,
0000
0000
0000
0000
,
0000
0000
0000
0000
,
0000
0000
0000
0000
,
0000
0000
0000
0000
,
0000
0001
0000
1000
,
0000
0001
0000
1000
,
0000
0100
0000
0010
,
0000
0100
0000
0010
,
0010
0000
0100
0000
,
1000
0000
0001
0000
,
0010
0000
0001
0000
,
0100
0000
0001
0001
,
0010
0000
0100
0000
,
0001
0000
1000
0000
,
0010
0010
0010
0000
,
0100
0100
0100
0100
,
0100
0000
0000
0010
,
0010
0000
0000
0100
,
0100
0000
0000
0000
,
0000
0000
0000
0000
,
0010
0000
0000
0100
,
0100
0000
0000
0000
,
1001
0000
0000
0000
,
0000
0000
0000
0000
,
0100
0000
0000
0010
,
0010
0000
0000
0100
,
0100
0000
0010
0000
,
0100
0000
0010
0010
,
0010
0010
0000
0100
,
0100
0100
0000
0010
,
0010
0010
0010
0000
,
0100
0100
0100
0000
,
1000
0000
0001
0000
,
0100
0100
0100
0000
,
0001
0000
1000
0000
,
0000
0001
0000
1000
,
1000
0000
0001
0000
,
0100
0100
0100
0000
,
0001
0000
1000
0000
,
0001
0001
0001
0001
,
0001
0000
1000
0000
,
0100
0100
0100
0000
,
1000
0000
0001
0000
,
0000
1000
0000
0001
,
0001
0000
1000
0000
,
0100
0100
0100
0000
,
1000
0000
0001
0000
,
1000
1000
0000
0001
,
0001
0000
0010
0000
,
1000
0000
0100
0000
,
0001
0000
0010
0000
,
0100
0100
0100
0000
,
1000
0000
0010
0000
,
0001
0000
0100
0000
,
1000
0000
0010
0000
,
0100
0100
0100
0000
,
1001
0000
0000
0000
,
0000
0000
0000
0000
;
#NOTES:
     dance-single:
     :
     Easy:
     6:
     :
0000
0000
0000
0000
,
0000
0000
0000
0000
,
0000
0000
0000
0000
,
0000
0000
0000
0000
,
0000
0000
0000
0000
,
1000
0010
1000
0001
,
1000
0010
1000
1000
,
1000
0100
0010
1000
,
1000
0100
1000
1000
,
1000
0010
0100
1000
,
0001
0100
0001
0010
,
0001
0100
0001
0100
,
1000
0100
1000
1000
,
0001
0010
0100
0001
,
1000
0100
1000
0010
,
1001
0110
1001
0110
,
0001
1000
0001
1000
,
0010
0100
0010
0000
,
1001
0110
1001
0000
,
2000
0000
0100
0000
0010
0000
0001
3000
,
0200
0010
0310
0000
,
0010
0100
0010
0000
,
1001
1001
1001
0000
,
0002
0000
0100
0000
0010
0000
1000
0003
,
0200
0010
0310
0000
,
0010
0100
0010
0100
,
1001
0110
1001
0110
,
2000
0000
0100
0000
0010
0000
0001
3000
,
0200
0010
0310
0100
,
0010
0100
0010
0100
,
1001
1001
1001
0100
,
2000
0000
0100
0000
0010
0000
0001
3000
,
0010
0001
0100
0000
,
0010
1001
1000
0100
,
0001
0001
1000
0000
,
0100
1001
1000
0001
,
1000
0010
1001
0110
,
0010
1000
0001
1000
,
2000
3100
0010
1000
,
0001
0100
1000
1000
,
0001
1000
0001
0100
,
0010
1001
0001
0100
,
1000
1000
0001
0000
,
0100
1001
0001
1000
,
0001
0010
1001
0110
,
0010
1000
0001
1000
,
2000
3100
0010
1000
,
0001
0100
1000
1000
,
0001
1000
0001
0100
,
0010
0000
0010
0000
,
0001
0000
0100
0000
,
1000
0000
0001
0100
,
0010
0010
0010
0000
,
0010
0000
0010
0000
,
1000
0000
0100
0000
,
0001
0000
1000
0100
,
0010
0100
0100
0100
,
2002
0000
0000
3003
,
0000
0000
0000
0000
;
#NOTES:
     dance-single:
     :
     Medium:
     8:
     :
0000
0000
0000
0000
,
0000
0000
0000
0000
,
0000
0000
0000
0000
,
0000
0000
0000
0000
,
0000
0000
0000
0000
,
0010
1000
0010
0001
,
0010
0000
1000
0000
0010
0001
0010
0000
,
0010
0001
0010
1000
,
0010
0000
0001
0000
0010
0100
0010
0000
,
0001
0000
1000
0000
0001
0010
0001
0000
,
1100
0000
1000
0000
1000
0100
1000
0000
,
0100
0001
0010
0001
,
1000
0100
1000
0000
0101
0000
1100
0000
,
1000
0000
0001
0000
1000
0010
1000
0000
,
0101
0000
0001
0000
0100
0001
0100
0000
,
1001
0110
1001
0110
,
0001
0010
0001
0010
0001
1000
0100
0000
,
0001
0100
0001
0000
1000
0000
0101
0000
,
1000
0001
1000
0000
0001
1000
0100
0000
,
0020
1000
0000
0001
,
0000
1000
0000
0031
,
1000
0100
1000
0000
0001
0000
1100
0000
,
0001
1000
0001
0000
1000
0001
0100
0000
,
0020
0001
0000
1000
,
0000
0001
0000
1030
,
1000
0000
0001
0000
0100
0000
1000
0100
,
0001
0000
0100
0000
0001
0100
1000
0000
,
0100
0001
0100
1000
,
0100
0000
0001
1000
0100
0000
0100
0000
,
0001
0100
0001
0000
1000
0000
0101
0000
,
1000
0001
1000
0000
0001
1000
0100
0000
,
1000
0100
1000
0100
1000
0100
1000
0000
,
0001
0100
0001
0100
0001
0000
0000
0000
,
0001
1000
0100
0000
0101
0000
1000
0000
,
0010
0000
0001
1000
0100
0000
1000
0000
,
0001
0000
0100
0000
0001
0100
0100
0000
,
0011
0011
1100
1100
,
0001
0010
0001
0000
0100
0000
1100
0000
,
0001
0000
1000
0100
1000
0000
0100
0000
,
0001
0000
0001
0100
0001
0000
0100
0000
,
1100
0101
1100
0101
,
0001
1000
0100
0000
0101
0000
1000
0000
,
0010
0000
1000
0001
0100
0000
0001
0000
,
1000
0000
0100
0000
1000
0100
1000
0000
,
1010
1010
0101
0101
,
1000
0010
1000
0000
0100
0000
0100
0000
,
1000
0000
0001
0100
0001
0000
0100
0000
,
1000
0000
1000
0100
1000
0000
0100
0000
,
0101
1100
0101
1100
,
1001
0000
0010
0001
,
0010
1000
0001
0000
0010
0000
0001
0000
,
0010
1000
0010
0001
,
0100
0000
0000
0100
0000
0000
0100
0000
1001
0000
0000
0000
0000
0000
0000
0000
,
0110
0000
0010
1000
,
0010
0001
1000
0000
0010
0000
1000
0000
,
0010
0000
0000
0000
0001
0000
0001
0000
0100
0000
0000
0100
0000
0000
0100
0000
,
0001
0000
0000
0100
0000
0000
0001
0000
0100
0000
1000
0000
0100
0000
0001
0000
,
0202
0000
0000
0303
,
0000
0000
0000
0000
;
#NOTES:
     dance-single:
     :
     Hard:
     13:
     :
0000
0000
0000
0000
,
0000
0000
0000
0000
,
0000
0000
0000
0000
,
0000
0000
0000
0000
,
0000
0000
0000
0000
,
1000
0100
0010
0100
1000
0001
0010
0001
,
1000
0100
0010
0100
1000
0001
1000
0100
,
1000
0010
0100
0001
0010
0001
1000
0100
,
1000
0010
0100
0001
1000
0010
1000
0001
,
1000
0000
0001
0000
0010
0000
1000
0000
0100
0000
1000
0100
1000
0100
1000
0000
,
0001
0010
0100
1000
0001
1000
0001
0100
,
0001
0000
1000
0000
0100
0000
1000
0000
0001
0000
0010
0000
0100
0001
0000
0001
,
1000
0000
0010
0000
0100
0000
0001
0000
1000
0000
0000
0100
1000
0000
0100
0000
,
1000
0000
0001
0000
0010
0000
0001
0000
0010
0000
0100
0010
1000
0010
0100
0000
,
0010
0100
1000
0001
0100
0001
0100
0010
,
1100
0110
0011
1001
,
1000
0000
0100
0000
0010
0000
0001
0000
0010
0100
1000
0100
1000
0000
0000
0000
,
1100
0000
0000
0011
0000
0000
0110
0000
0000
0000
0000
0000
1000
0100
1000
0000
,
1100
0000
0000
0110
0000
0000
0011
0000
0001
0010
0100
1000
0001
0010
0100
0010
,
2000
0000
0100
0000
0010
0000
0001
3000
,
0200
0000
1000
0000
0301
0000
1000
0001
,
0101
0000
0000
1010
0000
0000
0110
0000
0000
0000
0000
0000
0001
0100
0001
0000
,
0101
0000
0000
0110
0000
0000
1010
0000
1000
0010
0100
0001
1000
0010
0100
0010
,
0002
0000
0100
0000
0010
0000
1000
0003
,
0200
0000
0001
0000
1300
0000
1000
0001
,
1000
0000
0000
0100
0000
0000
1000
0000
0000
0001
0000
0000
1000
0100
1000
0000
,
0001
0000
0000
0010
0000
0000
0001
0000
0000
1000
0100
1000
0001
0010
0001
0000
,
1000
0000
0000
0100
0000
0000
0001
0000
0000
0100
0000
0000
0001
0000
1000
0000
,
0001
0000
0000
0100
0000
0000
0001
0000
0000
1000
0100
0000
0100
0000
1000
0001
,
0010
0000
0000
0100
0000
0000
1000
0000
0000
0001
0010
0000
0001
0010
0001
0000
,
1000
0000
0000
0100
0000
0000
1000
0000
0000
0001
0010
0000
0001
0010
0100
0000
,
1000
0100
0010
0100
0001
1000
0100
1000
,
0001
0010
0100
1000
0010
0100
0002
0000
0003
0000
0000
0000
1001
0000
0000
0000
,
1000
0000
0100
0000
0101
0000
0000
0000
1000
0000
0001
0000
0100
0001
1000
0000
,
0001
0000
0000
0000
0001
0000
1000
0001
1000
0100
1000
0000
0100
0010
0001
1000
,
0100
0000
0110
0000
1000
0001
0000
1001
,
1000
0000
0001
0000
0010
0100
0010
0100
1000
0000
1100
0000
0011
0000
0011
0000
,
0010
0000
0000
0000
0001
0100
0001
0100
0010
0000
0100
0010
1000
0000
0100
0000
,
2000
0000
0000
0000
0100
0000
3100
0000
0010
0000
0001
0000
1000
0010
1000
0000
,
0011
0000
0000
0000
0100
0010
0100
0010
1000
0000
0100
0000
1000
0000
0100
0000
,
1000
0000
0001
0000
1000
0010
1000
0000
0001
0010
0001
0000
0100
0000
0001
0000
,
0001
0000
0100
0000
1100
0000
0001
0000
0001
0000
1000
0000
0100
1000
0001
0000
,
1000
0000
0000
0000
1100
0000
0001
1000
0001
0100
0001
0000
0100
0010
1000
0001
,
0100
0000
0110
0000
0001
1000
0000
1001
,
0001
0000
1000
0000
0010
0100
0010
0100
0001
0000
0101
0000
1010
0000
1010
0000
,
0010
0000
0000
0000
1000
0100
0010
0100
1000
0000
0100
0010
0001
0000
0110
0000
,
0002
0000
0000
0000
0103
0000
0100
0001
0010
0000
0001
0000
0100
0010
1000
0000
,
1010
0000
0000
0000
0100
0010
0100
0010
1000
0000
0001
0000
0000
0000
0100
0000
,
0001
0000
1000
0000
0001
0010
0001
0000
1000
0010
1000
0000
0100
0000
1000
0000
,
0110
0000
0000
0100
0001
0000
1000
0000
0100
0000
1000
0000
0001
0000
0010
0000
,
1100
0000
0000
0001
0010
0000
0001
0000
0010
0000
0001
0000
1000
0000
0100
0000
,
0001
0100
1000
0100
0001
0010
0100
1000
,
1100
0000
0000
0110
0000
0000
0011
0000
0101
0000
0000
0000
1000
0000
0001
0000
,
1000
0000
0000
0001
0010
0000
0001
0000
0010
0000
0100
0000
1000
0000
0100
0000
,
1000
0000
0000
0001
0010
0000
0001
0000
1000
0000
0100
0000
1000
0000
0100
0000
,
1001
0000
0000
0000
0001
0010
0001
0000
0100
0000
0000
0100
0000
0000
0100
0000
,
1001
0000
0000
0110
0000
0000
1000
0100
0000
0100
1000
0010
0100
0001
1000
0100
,
2000
0000
0000
3000
,
0000
0000
0000
0000
;
#NOTES:
     dance-double:
     :
     Easy:
     6:
     :
00000000
00000000
00000000
00000000
,
00000000
00000000
00000000
00000000
,
00000000
00000000
00000000
00000000
,
00000000
00000000
00000000
00000000
,
00000000
00000000
00000000
00000000
,
00000001
00000010
00001000
00010000
,
00100000
10000000
00010000
10000000
,
01000000
00010000
00001000
00000100
,
00000001
00000001
00000010
00000001
,
00000001
00000010
00001000
00010000
,
00010000
01000000
10000000
00100000
,
10000000
01000000
00010000
00001000
,
00010000
00001000
00000100
00000001
,
00000001
00000010
00001000
00010000
,
00010000
01000000
10000000
00100000
,
10000000
01000000
00010000
00001000
,
00010000
00001000
00010000
00011000
,
00001000
00000100
00000001
00000000
,
00000011
00000110
00010100
00000000
,
00001000
00010000
00001000
00010000
,
02000000
00100000
03100000
00000000
,
10000000
01000000
00010000
00000000
,
00011000
00011000
00011000
00000000
,
00020000
00000100
00000100
00030100
,
00000001
00000100
00010000
00000000
,
00010000
01000000
10000000
00000000
,
10100000
01100000
01001000
00000000
,
00010000
00001000
00010000
00001000
,
00000200
00000010
00000310
00000000
,
00000001
00000100
00001000
00000000
,
00011000
00011000
00011000
00000000
,
00002000
01000000
01000000
01003000
,
00100000
00010000
00001000
00000000
,
00000010
00001001
00001000
00000100
,
00000001
00000001
00000100
00000000
,
00001000
00011000
00010000
01000000
,
10000000
00100000
10010000
01100000
,
00100000
10010000
00010000
00100000
,
10000000
01000000
00010000
00000000
,
00001000
00011000
00001000
00000100
,
00000001
00000010
00001001
00000110
,
00000010
00001001
00001000
00000100
,
00000001
00000001
00000100
00000000
,
00001000
00011000
00010000
01000000
,
10000000
00100000
10010000
01100000
,
00100000
10010000
00010000
00100000
,
10000000
01000000
00010000
00000000
,
00001000
00011000
00001000
00000100
,
00000001
00000010
00001001
00000110
,
00001000
00000000
00010000
00000000
,
00001000
00000000
01000000
00000000
,
00010000
00000000
10000000
01000000
,
00010000
00001000
00000100
00000000
,
00000001
00000000
00000010
00000000
,
00001000
00000000
00010000
00000000
,
01000000
00000000
10000000
01000000
,
00010000
00001000
00000100
00000001
,
00000220
00000000
00000000
00000330
,
00000000
00000000
00000000
00000000
;
#NOTES:
     dance-double:
     :
     Medium:
     8:
     :
00000000
00000000
00000000
00000000
,
00000000
00000000
00000000
00000000
,
00000000
00000000
00000000
00000000
,
00000000
00000000
00000000
00000000
,
00000000
00000000
00000000
00000000
,
00100000
10000000
00100000
00010000
,
00100000
00000000
10000000
00000000
00100000
00010000
00001000
00000000
,
00000010
00000001
00000010
00001000
,
00000010
00000000
00000001
00000000
00000010
00001000
00010000
00000000
,
00100000
00000000
10000000
00000000
00010000
00100000
00010000
00000000
,
10000000
00000000
00100000
00000000
10000000
01000000
00010000
00000000
,
00001000
00000100
00000001
00000001
,
00001000
00000100
00001000
00000000
00000101
00000000
00001100
00000000
,
00010000
00000000
00001000
00000000
00010000
00100000
10000000
00000000
,
01010000
00000000
00010000
00000000
01000000
00001000
00010000
00000000
,
00011000
00001100
00000110
00000011
,
00000001
00000010
00000001
00000010
00000001
00000100
00001000
00000000
,
00010000
01000000
10000000
00000000
10000000
00000000
01010000
00000000
,
10000000
00010000
10000000
00000000
00010000
10000000
01000000
00000000
,
00020000
00001000
00000000
00100000
,
00000000
00001000
00000000
00030100
,
00010000
00001000
00010000
00000000
00001000
00000000
00011000
00000000
,
00010000
00000100
00010000
00000000
00010000
00001000
00000100
00000000
,
00000020
00000001
00000000
00001000
,
00000000
00000001
00000000
00001030
,
00000100
00000000
00010000
00000000
00001000
00000000
00010000
01000000
,
10000000
00000000
01000000
00000000
00010000
01000000
10000000
00000000
,
01000000
00010000
00001000
00001000
,
00000100
00000000
00000001
00001000
00000100
00000000
00000000
00000000
,
00010000
00001000
00010000
00000000
00010000
00000000
01000000
00000000
,
10000000
00010000
10000000
00000000
00010000
10000000
01000000
00000000
,
00010000
00001000
00000100
00000001
00001000
00000100
00001000
00000000
,
00000001
00000100
00000001
00000100
00001000
00000000
00000000
00000000
,
00010000
01000000
10000000
00000000
01010000
00000000
10000000
00000000
,
00100000
00000000
00010000
10000000
01000000
00000000
00010000
00000000
,
00001000
00000000
00000100
00000000
00000001
00000100
00000100
00000000
,
00000011
00000011
00000100
00001000
,
00010000
01000000
10000000
00000000
01010000
00000000
10000000
00000000
,
00100000
00000000
00010000
10000000
01000000
00000000
00010000
00000000
,
00001000
00000000
00000100
00000000
00000001
00000100
00000100
00000000
,
00000011
00000011
00001100
00010000
,
00001000
00000100
00000001
00000000
00001100
00000000
00000001
00000000
,
00000010
00000000
00001000
00000001
00000100
00000000
00001000
00000000
,
00010000
00000000
01000000
00000000
10000000
01000000
01000000
00000000
,
10100000
10100000
01000000
00010000
,
00001000
00000100
00000001
00000000
00001100
00000000
00000001
00000000
,
00000010
00000000
00001000
00000001
00000100
00000000
00001000
00000000
,
00010000
00000000
01000000
00000000
10000000
01000000
01000000
00000000
,
10100000
10100000
01010000
01010000
,
00011000
00000000
00001000
00010000
,
00001000
00010000
00001000
00000000
00000100
00000000
00000001
00000000
,
00000010
00000001
00000100
00001000
,
00010000
00000000
00000000
01000000
00000000
00000000
01000000
00000000
10010000
00000000
00000000
00000000
00000000
00000000
00000000
00000000
,
01100000
00000000
10000000
00100000
,
00010000
00001000
00000100
00000000
00000001
00000000
00000010
00000000
,
00000001
00000000
00000000
00000000
00000010
00000000
00001000
00000000
00010000
00000000
00000000
01000000
00000000
00000000
10000000
00000000
,
00010000
00000000
00000000
01000000
00000000
00000000
00001000
00000000
01000000
00000000
00001000
00000000
00010000
00000000
00001000
00000000
,
00000220
00000000
00000000
00000330
,
00000000
00000000
00000000
00000000
;
#NOTES:
     dance-double:
     :
     Hard:
     13:
     :
00000000
00000000
00000000
00000000
,
00000000
00000000
00000000
00000000
,
00000000
00000000
00000000
00000000
,
00000000
00000000
00000000
00000000
,
00000000
00000000
00000000
00000000
,
00100000
00010000
00100000
01000000
10000000
00010000
00100000
00010000
,
10000000
01000000
00100000
01000000
10000000
00010000
10000000
01000000
,
00010000
00001000
00000100
00000001
00000010
00000001
00001000
00000100
,
00001000
00000010
00000100
00000001
00001000
00000010
00010000
00001000
,
00010000
00000000
00100000
00000000
10000000
00000000
00010000
00000000
01000000
00000000
00010000
01000000
00010000
01000000
00010000
00000000
,
10000000
00100000
01000000
00010000
10000000
01000000
00010000
00001000
,
00000100
00000000
00000001
00000000
00001000
00000000
00000001
00000000
00001000
00000000
00000010
00000000
00000100
00000001
00000000
00000001
,
00001000
00000000
00000010
00000000
00000100
00000000
00000001
00000000
00000010
00000000
00000000
00001000
00010000
00000000
01000000
00000000
,
10000000
00000000
00010000
00000000
00100000
00000000
00010000
00000000
00100000
00000000
01000000
00100000
10000000
00100000
01000000
00000000
,
00100000
01000000
10000000
00010000
01000000
00001000
00010000
00001000
,
00001100
00000110
00000011
00001001
,
00001000
00000000
00000100
00000000
00000010
00000000
00000001
00000000
00000010
00000100
00010000
00000100
00010000
00000000
00000000
00000000
,
00011000
00000000
00000000
00110000
00000000
00000000
01100000
00000000
00000000
00000000
00000000
00000000
10000000
01000000
10000000
00000000
,
11000000
00000000
00000000
01100000
00000000
00000000
00110000
00000000
00010000
00100000
01000000
10000000
00010000
10000000
01000000
00100000
,
00002000
00000000
00010000
00000000
00000010
00000000
00010000
00003000
,
00000200
00000000
00001000
00000000
00000301
00000000
00000001
00000100
,
00001100
00000000
00000000
00011000
00000000
00000000
01100000
00000000
00000000
00000000
00000000
00000000
00010000
01000000
00010000
00000000
,
01010000
00000000
00000000
01100000
00000000
00000000
10100000
00000000
10000000
00100000
01000000
00010000
10000000
00100000
01000000
00100000
,
00020000
00000000
00000100
00000000
00000010
00000000
00001000
00030000
,
00000200
00000000
00000001
00000000
00001300
00000000
00000001
00000100
,
00001000
00000000
00000000
00010000
00000000
00000000
01000000
00000000
00000000
10000000
00000000
00000000
10000000
01000000
10000000
00000000
,
00010000
00000000
00000000
00100000
00000000
00000000
00010000
00000000
00000000
10000000
01000000
10000000
00010000
00100000
00010000
00000000
,
10000000
00000000
00000000
01000000
00000000
00000000
00010000
00000000
00000000
00001000
00000000
00000000
00000100
00000000
00000001
00000000
,
00001000
00000000
00000000
00000100
00000000
00000000
00000010
00000000
00000000
00000001
00000100
00000000
00000001
00000000
00000100
00001000
,
00010000
00000000
00000000
01000000
00000000
00000000
10000000
00000000
00000000
00010000
00100000
00000000
00010000
00100000
00010000
00000000
,
10000000
00000000
00000000
01000000
00000000
00000000
10000000
00000000
00000000
00010000
00100000
00000000
00010000
00100000
01000000
00000000
,
10000000
01000000
00010000
00001000
00000100
00000001
00000100
00000001
,
00001000
00000010
00000100
00000001
00000010
00000100
00002000
00000000
00003000
00000000
00000000
00000000
00011000
00000000
00000000
00000000
,
00010000
00000000
01000000
00000000
01010000
00000000
00000000
00000000
10000000
00000000
00010000
00000000
01000000
00010000
10000000
00000000
,
00010000
00000000
00000000
00000000
00010000
00000000
10000000
00010000
10000000
01000000
10000000
00000000
01000000
00100000
00010000
10000000
,
01000000
00000000
00110000
00000000
00011000
00000100
00000000
00001001
,
00001000
00000000
00000001
00000000
00000010
00000100
00000010
00000100
00001000
00000000
00001000
00000000
00010000
00000000
00001000
00000000
,
00001000
00000000
00000100
00000000
00001100
00000000
00000000
00000000
00000001
00000000
00001000
00000000
00000100
00001000
00000001
00000000
,
00001000
00000000
00000000
00000000
00001000
00000000
00000001
00001000
00000001
00000100
00000001
00000000
00000100
00000010
00001000
00000001
,
00000100
00000000
00001010
00000000
00011000
01000000
00000000
10010000
,
00010000
00000000
10000000
00000000
00100000
01000000
00100000
01000000
00010000
00000000
01010000
00000000
00001000
00000000
00010000
00000000
,
00010000
00000000
01000000
00000000
01010000
00000000
00000000
00000000
10000000
00000000
00010000
00000000
01000000
00010000
10000000
00000000
,
00010000
00000000
00000000
00000000
00010000
00000000
10000000
00010000
10000000
01000000
10000000
00000000
01000000
00100000
00010000
10000000
,
01000000
00000000
00110000
00000000
00011000
00000100
00000000
00001001
,
00001000
00000000
00000001
00000000
00000010
00000100
00000010
00000100
00001000
00000000
00001000
00000000
00010000
00000000
00001000
00000000
,
00001000
00000000
00000100
00000000
00001100
00000000
00000000
00000000
00000001
00000000
00001000
00000000
00000100
00001000
00000001
00000000
,
00001000
00000000
00000000
00000000
00001000
00000000
00000001
00001000
00000001
00000100
00000001
00000000
00000100
00000010
00001000
00000001
,
00000100
00000000
00001010
00000000
00011000
01000000
00000000
10010000
,
00010000
00000000
10000000
00000000
00100000
01000000
00100000
01000000
00010000
00000000
01010000
00000000
00001000
00000000
00010000
00000000
,
00011000
00000000
00000000
00001000
00010000
00000000
00001000
00000000
00000100
00000000
00000001
00000000
00001000
00000000
00000010
00000000
,
00000101
00000000
00000000
00001000
00000010
00000000
00001000
00000000
00000010
00000000
00001000
00000000
00000001
00000000
00000100
00000000
,
00001000
00010000
01000000
10000000
00010000
00100000
01000000
10000000
,
01010000
00000000
00000000
01100000
00000000
00000000
10100000
00000000
11000000
00000000
00000000
00000000
00100000
00000000
00001000
00000000
,
00010000
00000000
00000000
00001000
00010000
00000000
00001000
00000000
00000010
00000000
00000100
00000000
00001000
00000000
00000100
00000000
,
00001000
00000000
00000000
00000001
00000010
00000000
00000001
00000000
00001000
00000000
00000001
00000000
00000100
00000000
00001000
00000000
,
00011000
00000000
00000000
00000000
00010000
00001000
00010000
00000000
01000000
00000000
00000000
10000000
00000000
00000000
01000000
00000000
,
10010000
00000000
00000000
01100000
00000000
00000000
00010000
01000000
00000000
00001000
00010000
00001000
00010000
00001000
00010000
00000100
,
00000002
00000000
00000000
00000003
,
00000000
00000000
00000000
00000000
;
