
//----- song id: raku
#TITLE:ラクガキスト;
#ARTIST:cosMo@暴走P feat.GUMI;
#TITLETRANSLIT:Luckgakist;
#ARTISTTRANSLIT:cosMo@BousouP feat.GUMI;
#BANNER:Luckgakist.png;
#BACKGROUND:Luckgakist-bg.png;
#CDTITLE:./CDTitles/DDR (2014).png;
#MUSIC:Luckgakist.ogg;
#SAMPLESTART:10.833;
#SAMPLELENGTH:15;
#BPMS:0=199;
#NOTES:
     dance-single:
     :
     Beginner:
     4:
     :
0000
0000
0000
0000
,
0000
0000
0000
0000
,
0000
0000
0000
0000
,
0000
0000
0000
0000
,
0000
0000
0000
0000
,
1000
1000
0000
0100
,
0100
0100
0000
0001
,
0001
0001
0000
0001
,
0001
0001
0001
0000
,
0001
0001
0000
0000
,
1000
1000
0000
0000
,
0010
0010
0000
0000
,
0100
0100
0100
0000
,
1000
1000
0000
0000
,
0001
0001
0000
0000
,
0010
0010
0000
0000
,
0100
0100
0100
0000
,
1000
1000
0000
0000
,
0001
0001
0000
0000
,
0010
0010
0000
0000
,
0100
0100
0100
0000
,
0001
0001
0000
0000
,
1000
1000
0000
0000
,
0010
0010
0000
0000
,
0100
0100
0100
0000
,
1000
1000
0000
0000
,
0001
0001
0001
0000
,
1000
1000
0000
0000
,
0001
0000
1000
0000
,
1000
1000
0000
0000
,
0100
0100
0000
0000
,
0001
0001
0000
0000
,
0001
0001
0001
0000
,
0100
0100
0100
0000
,
1000
1000
1000
0000
,
0001
0001
0001
0000
,
0100
0100
0100
0000
,
0001
0000
0010
0000
,
0100
0100
0100
0000
,
1000
1000
1000
1000
,
1000
1000
1000
0000
,
0000
0100
0100
0000
,
0001
0001
0001
0000
,
1000
1000
1000
0000
,
0100
0100
0100
0000
,
1000
0000
0010
0000
,
0100
0100
0100
0000
,
0001
0001
0001
0001
,
0001
0001
0001
0000
,
0000
0100
0100
0000
,
1000
1000
1000
0000
,
0001
0001
0001
0000
,
0100
0100
0100
0000
,
0001
0000
0010
0000
,
0100
0100
0100
0000
,
1000
1000
1000
1000
,
1000
1000
1000
0000
,
1000
1000
1000
0000
,
0001
0001
0001
0000
,
0100
0100
0100
0000
,
0010
0010
0010
0000
,
0001
0000
0000
0000
,
1000
0000
0000
0000
,
1000
0000
1000
0000
,
0100
0000
0000
0000
,
1000
0000
1000
0000
,
1000
1000
1000
0000
,
1001
0000
0000
0000
,
1001
0000
0000
0000
,
0001
0000
0001
0000
,
0001
0001
0001
0000
,
1001
0000
0000
0000
,
1001
0000
0000
0000
,
0001
0000
0000
0000
,
0010
0000
0000
0000
,
1000
0000
0000
0000
,
0100
0000
0000
0000
,
0010
0000
0010
0000
,
0100
0000
0100
0000
,
0010
0000
0000
0000
,
1000
0000
0000
0000
,
0001
0001
0000
0000
,
1000
1000
0000
0000
,
0010
0010
0000
0000
,
0100
0100
0100
0000
,
1000
1000
0000
0000
,
0001
0001
0000
0000
,
0010
0010
0000
0000
,
0100
0100
0100
0000
,
1000
0000
1000
0000
,
0001
0000
0001
0000
,
0010
0000
0010
0000
,
0100
0100
0100
0000
,
0001
0000
0001
0000
,
1000
0000
1000
0000
,
0010
0000
0010
0000
,
0100
0100
0100
0000
,
0000
0000
0000
0000
;
#NOTES:
     dance-single:
     :
     Easy:
     7:
     :
0000
0000
0000
0000
,
0000
0000
0000
0000
,
0000
0000
0000
0000
,
0000
0000
0000
0000
,
0000
0000
0000
0000
,
1000
0100
0000
0100
,
1000
0100
0000
0001
,
1000
0001
0000
0001
,
0100
1000
0001
1000
,
0001
0001
1000
0100
,
1000
1000
0100
0001
,
0010
0010
1000
0100
,
0100
0100
0001
0000
,
1000
1000
0001
0100
,
0001
0001
0100
1000
,
0010
0010
0001
0100
,
0100
0100
1000
0000
,
1000
1000
0001
0100
,
0001
0001
0100
1000
,
0010
0010
0001
0100
,
0100
0100
0001
0000
,
0001
0001
1000
0100
,
1000
1000
0100
0001
,
0010
0010
1000
0100
,
0100
0100
0001
0000
,
0001
1000
0000
0001
,
1000
0100
1000
0000
,
0001
0100
0000
1000
,
0001
0000
1000
0100
,
0001
0100
0000
0100
,
0001
0100
0000
1000
,
0001
1000
0000
1000
,
0100
0001
1000
0001
,
1000
0100
0200
0300
,
0001
1000
1000
1000
,
0001
0100
0001
0010
,
0100
0001
1000
0010
,
0001
0000
0010
0000
,
0100
1000
0001
1000
,
0100
0001
1000
0010
,
1000
0100
0001
0100
,
0001
0100
1000
0100
,
1000
1000
0001
0001
,
1000
0010
1000
0010
,
0100
1000
0001
0010
,
1000
1000
1000
1000
,
0100
0001
1000
0001
,
0100
1000
1000
1000
,
0100
0001
0100
0100
,
0001
0100
0020
0030
,
1000
1000
0001
0001
,
1000
0010
1000
0100
,
0100
1000
0001
0100
,
1000
0000
0100
0000
,
0100
0001
1000
0001
,
0100
1000
0001
1000
,
0001
0001
1000
0010
,
1000
0100
0001
0000
,
0001
0001
1000
0000
,
0100
1000
0100
0001
,
0010
0001
1000
0100
,
0001
0010
1000
0100
,
0001
0010
0100
1000
,
1000
0000
1000
0001
,
0100
0010
1000
0001
,
1000
0100
1000
0100
,
1000
1000
1000
0100
,
1001
0000
0000
0000
,
0110
0000
0000
0000
,
0001
0100
0001
0100
,
0001
0001
0001
0100
,
1001
0000
0000
0000
,
0110
0000
0000
0000
,
0001
0000
1000
0100
,
0010
0000
0010
0100
,
0001
0000
1000
0100
,
0100
0000
0000
0000
,
0010
1000
0100
0010
,
0100
1000
0100
0100
,
0010
0100
0010
0100
,
1000
0001
1000
0001
,
0001
0001
0001
1000
,
0100
1000
1000
0100
,
0001
0010
0010
1000
,
0100
0100
0100
0000
,
0100
1000
1000
0001
,
0100
0001
0001
0100
,
1000
0010
0010
0001
,
0100
0100
0100
0000
,
0100
1000
1000
0001
,
0100
0001
0001
0100
,
1000
0010
0010
0001
,
0100
0100
0100
0000
,
0100
0001
0001
1000
,
0100
1000
1000
0100
,
0001
0010
0010
1000
,
0100
0100
0100
0000
,
0100
0000
0000
0000
,
0000
0000
0000
0000
;
#NOTES:
     dance-single:
     :
     Medium:
     10:
     :
0000
0000
0000
0000
,
0000
0000
0000
0000
,
0000
0000
0000
0000
,
0000
0000
0000
0000
,
0000
0000
0000
0000
,
1000
0100
0000
0100
,
1001
0100
0000
0101
,
1001
0001
0000
0001
,
0100
1100
0001
1001
,
0001
0001
0001
0000
1000
0000
0100
0000
,
1000
1000
1000
0000
0100
0000
0001
0000
,
0010
0010
0010
0000
1000
0000
0100
0000
,
0100
0100
0100
0000
1001
0000
0100
0000
,
1000
0100
1000
0000
0001
0000
0100
0000
,
0001
0100
0001
0000
0100
0000
1000
0000
,
0010
0100
0010
0000
0001
0000
0100
0000
,
0100
0010
0100
0000
1001
0000
0100
0000
,
1000
1000
1000
0000
0001
0000
0100
0000
,
0001
0001
0001
0000
0100
0000
1000
0000
,
0010
0010
0010
0000
0001
0000
0100
0000
,
0100
0100
0100
0000
1001
0000
0100
0000
,
0001
0100
0001
0000
1000
0000
0100
0000
,
1000
0100
1000
0000
0100
0000
0001
0000
,
0010
0100
0010
0000
1000
0000
0100
0000
,
0100
0010
0100
0000
1001
0000
0100
0000
,
0001
1100
0000
0011
,
1001
0100
1000
0000
,
0001
0110
0000
1000
,
0101
0000
0000
1100
0000
0000
0100
0000
,
0001
0100
0000
0100
,
1001
0100
0000
1100
,
1001
1000
0000
1000
,
0100
0101
1000
1001
,
1000
0100
0201
0301
,
0001
1000
1000
1100
,
1001
0100
1001
0010
,
0100
0001
1100
0010
,
0101
0000
0110
0000
,
0100
1100
0001
1000
,
0100
0101
1001
0010
,
1000
0100
0001
0100
,
0001
0100
1100
0100
,
1000
1001
0001
0001
,
1100
0010
1100
0010
,
0100
1000
0101
0010
,
1000
0001
1000
0000
1000
0001
1000
0000
,
0100
0101
1100
0001
,
0100
0000
1000
0000
1000
0001
1000
0000
,
0100
1001
0100
0100
,
0001
0100
1020
1030
,
1000
1001
0101
0001
,
1001
0010
1001
0100
,
0100
1100
0001
0100
,
1000
0000
0100
0000
,
0100
0001
1000
0001
,
0100
1000
1001
1100
,
0101
0001
1000
0010
,
1000
0100
0001
0000
,
0001
1001
1100
0000
,
0100
1000
0100
0001
,
0010
0101
1000
0100
,
0101
0010
1000
0100
,
0101
0010
0100
1000
,
1100
0000
0000
1100
0000
0000
0101
0000
,
0100
0010
1000
0001
,
1000
0100
1001
0100
,
1001
1001
1001
0100
,
1001
0010
1100
1100
,
1001
0001
0101
0100
,
0001
0100
1001
0100
,
1001
1001
1001
0100
,
1001
0010
0101
0101
,
1001
1000
1100
0100
,
0101
0000
1000
0100
,
0010
0000
0010
0100
,
0001
0000
1000
0100
,
0100
0000
0000
0000
0001
1000
0000
0000
,
0010
1100
0100
0010
,
0100
1001
0100
0100
,
0010
0100
0010
0100
,
1000
0001
1000
0101
,
0001
0001
0001
0000
1000
0000
0100
0000
,
1000
1000
1000
0000
0100
0000
0001
0000
,
0010
0010
0010
0000
1000
0000
0100
0000
,
0100
0100
0100
0000
1001
0000
0100
0000
,
1000
0100
1000
0000
0001
0000
0100
0000
,
0001
0100
0001
0000
0100
0000
1000
0000
,
0010
0100
0010
0000
0001
0000
0100
0000
,
0100
0010
0100
0000
1001
0000
0100
0000
,
1000
1000
1000
0000
0001
0000
0100
0000
,
0001
0001
0001
0000
0100
0000
1000
0000
,
0010
0010
0010
0000
0001
0000
0100
0000
,
0100
0100
0100
0000
1001
0000
0100
0000
,
0001
0100
0001
0000
1000
0000
0100
0000
,
1000
0100
1000
0000
0100
0000
0001
0000
,
0010
0100
0010
0000
1000
0000
0100
0000
,
0100
0010
0100
0000
1001
0000
0100
0000
,
1000
0000
0000
0000
,
0000
0000
0000
0000
;
#NOTES:
     dance-single:
     :
     Hard:
     13:
     :
0000
0000
0000
0000
,
0000
0000
0000
0000
,
0000
0000
0000
0000
,
0000
0000
0000
0000
,
0000
0000
0000
0000
,
0001
0100
0010
0000
0000
0100
0010
1000
,
0001
0010
0000
0000
0000
1000
0010
1000
,
0001
1000
0000
0000
0000
0100
1000
0100
,
0010
0001
0100
1001
,
1000
0100
0010
0001
0100
0010
0100
0000
,
0100
0010
1000
0100
0010
0100
0010
0001
,
1000
0001
0100
0001
1000
0001
0100
0001
,
1000
0100
0010
0001
0100
0010
1000
0000
,
0001
0100
0001
0000
1000
0010
0100
0001
,
0010
0000
0100
0001
0100
1000
0100
0000
,
0100
0010
0001
0100
0001
0010
0100
1000
,
0001
0100
0001
0010
0001
1000
0001
0000
,
0100
0001
1000
0100
0010
0100
0010
0100
,
1000
0010
0100
0001
1000
0001
1000
0001
,
1000
0100
0010
0001
0100
0010
0100
0010
,
1000
0001
1000
0001
0010
0100
1000
0000
,
0001
0100
1000
0100
0001
0100
0001
0100
,
0010
1000
0100
1000
0001
1000
0001
1000
,
0001
0010
1000
0010
0001
1000
0001
1000
,
0010
1000
0100
0010
0001
0100
0010
0000
,
1000
0001
0010
0000
0000
1000
0100
1000
,
0001
0000
0010
0001
0000
0000
0000
0000
,
1000
0100
0010
0000
0000
0100
0001
0100
,
1000
0000
0000
0001
0000
0000
0110
0000
,
1000
0100
0010
0000
0000
0100
0010
0001
,
1000
0010
0000
0000
0000
0001
0010
0001
,
1000
0001
0000
0000
0000
0100
0001
0100
,
0010
1000
0010
0100
0001
0000
1001
0000
,
0001
0010
0100
1000
0020
0000
0030
1000
,
0000
0001
1000
0001
0100
0000
0001
1000
,
0001
0000
0000
1000
0001
0000
0000
0100
,
0010
1000
0100
0010
0001
0000
0100
0010
,
1000
0000
0000
0100
0010
0000
0000
0100
,
0010
0001
0010
0100
0000
0000
0001
0100
,
0010
1000
0010
1000
0001
0000
1100
0000
,
0101
0011
1010
0010
,
1000
0010
0100
0001
0010
0010
0000
0001
,
0000
1000
0001
1000
0100
0000
1000
0001
,
1000
0000
0000
0001
1000
0000
0000
0100
,
0010
0001
0100
0010
1000
0000
0100
0010
,
0001
0000
1000
0010
0000
1000
0010
0100
,
0010
0000
1000
0100
0000
0100
1000
0100
,
0010
0001
0010
0001
1000
0000
1001
0000
,
0110
1001
0110
0010
,
1000
0100
0010
0001
0200
0000
0300
0001
,
0000
1000
0001
1000
0010
0000
1000
0001
,
1000
0000
0000
0001
1000
0000
0000
0010
,
0100
0001
0010
0100
1000
0000
0010
0100
,
0001
0000
0000
0010
0100
0000
0000
0010
,
0100
1000
0100
1000
0000
0000
1000
0010
,
0100
0001
0100
0001
1000
0000
0011
0000
,
1010
1100
0101
0100
,
0001
0100
0010
1000
0100
0000
0000
1000
,
0000
0001
1000
0001
0010
0000
0001
0000
,
0010
0011
0010
1010
,
0100
1000
0010
0100
0001
0010
0100
0010
,
1000
0000
0001
0010
0000
0010
0100
0010
,
1000
0000
0100
0010
0000
0100
1000
0010
,
1000
0000
0001
0010
0000
1000
0010
0000
,
0100
0010
0000
0000
0001
0000
1000
0000
,
0001
0010
0100
1000
0001
0010
0100
1000
,
0001
1000
0001
1000
0001
0100
0010
1000
,
0001
0000
0100
0010
0001
0010
0001
1000
,
0001
0000
1000
0010
1000
0000
0110
0000
,
1000
0010
0100
0001
1000
0010
0100
0001
,
1000
0001
1000
0001
1000
0100
0010
0001
,
1000
0000
0100
0010
1000
0010
1000
0001
,
1000
0000
0001
0010
0001
0000
0010
0000
,
1010
0000
0000
0000
0001
0100
0010
0000
,
0100
0000
0000
0000
0100
1000
0010
0000
,
1000
0000
0000
0000
0001
0010
0100
0000
,
0010
0000
0000
0000
0001
1000
0000
0000
,
0100
1000
0010
0100
,
0010
0001
0010
0010
,
0100
0010
0100
0010
,
0001
0000
1000
0000
,
1000
0001
1000
0001
1000
0100
0010
0001
,
0100
0010
0100
0010
0100
0001
1000
0100
,
0010
0100
0010
0100
1000
0100
0010
0001
,
1000
0001
1000
0001
0010
0001
1000
0000
,
0010
1000
0010
1000
0010
0100
0001
0100
,
0001
0010
0001
0010
0100
1000
0100
0010
,
0001
0100
0010
0100
0001
0100
0010
0100
,
0010
1000
0001
0100
0010
0100
0001
0000
,
0001
0010
0100
1000
0010
0100
0001
0010
,
1000
0010
0001
0010
1000
0010
0001
0010
,
0100
1000
0010
1000
0100
0010
0001
0100
,
1000
0100
0001
0100
1000
0100
0001
0000
,
0100
0001
0010
0010
0100
1000
0010
0010
,
0100
0010
1000
1000
0100
0010
0001
0001
,
1000
0100
0010
0001
1000
0010
0100
0001
,
0010
0001
1000
0000
,
1001
0000
0000
0000
,
0000
0000
0000
0000
;
#NOTES:
     dance-single:
     :
     Challenge:
     16:
     :
0000
0000
0000
0000
,
0000
0000
0000
0000
,
0000
0000
0000
0000
,
0000
0000
0000
0000
,
0000
0000
0000
0000
,
1000
0010
0100
0000
0000
0010
0100
0001
,
1000
0100
0000
0000
0000
0001
0100
0001
,
1000
0001
0000
0000
0000
0010
0001
0010
,
0100
1000
0100
0010
0001
0000
1001
0000
,
0001
0000
1000
0000
0001
1000
0000
0001
1000
0001
1000
0001
1000
0000
0000
0000
,
0010
0000
0100
0010
0100
0000
0001
0100
0001
0100
0001
0100
0001
0000
1000
0000
,
0100
1000
0100
1000
0100
0000
1000
0000
0001
0100
0001
0100
0001
0000
0100
0000
,
0001
0010
0001
0010
0001
0010
0001
0010
0100
1000
0100
1000
0100
0000
0000
0000
,
1000
0001
1000
0001
1000
0000
0000
0000
0001
1000
0001
1000
0001
0000
0001
0000
,
0100
0000
0000
0000
0010
0100
0010
0100
0001
0100
0001
0100
0001
0000
0000
0000
,
0010
0100
0010
0100
0010
0000
0100
0000
1000
0100
1000
0100
1000
0000
0001
0000
,
0010
0001
0010
0001
0010
0001
0010
0001
1000
0000
0001
0000
1000
0000
0000
0000
,
0010
0000
1000
0010
1000
0000
0010
1000
0010
1000
0010
1000
0010
0000
1000
0000
,
0001
0000
0100
0001
0100
0000
0001
0100
0001
0100
0001
0100
0001
0000
1000
0000
,
0001
0010
0001
0010
0001
0000
0010
0000
0100
0010
0100
0010
0100
0000
0010
0000
,
0001
1000
0001
1000
0001
1000
0001
1000
0100
1000
0100
1000
0100
0000
0000
0000
,
1000
0000
0010
1000
0010
0000
1000
0001
1000
0001
1000
0001
1000
0000
0001
0000
,
0010
0000
0100
0010
0100
0000
0010
0100
0010
0100
0010
0100
0010
0000
0100
0000
,
1000
0001
1000
0001
1000
0000
0001
0000
0100
0001
0100
0001
0100
0000
0001
0000
,
0100
0010
0100
0010
0100
0010
0100
0010
1000
0010
1000
0010
1000
0000
0000
0000
,
0001
1000
0100
0000
0000
0001
0010
0001
,
1000
0000
0100
1000
0000
0000
0000
0000
,
0001
0010
0100
0000
0000
0010
1000
0010
,
0001
0000
0000
1000
0000
0000
0110
0000
,
0001
0010
0100
0000
0000
0010
0100
1000
,
0001
0100
0000
0000
0000
1000
0100
1000
,
0001
1000
0000
0000
0000
0010
1000
0010
,
0100
0001
0100
0010
1000
0000
1001
0000
,
1000
0100
0010
0001
0200
0000
0300
0001
,
0000
1000
0001
1000
0010
0100
1000
0001
,
1000
0000
0000
0001
1000
0000
0000
0010
,
0100
0001
0010
0100
1000
0000
0010
0100
,
0001
0000
0000
0010
0100
0000
0000
0010
,
0100
1000
0100
0001
0000
0000
1000
0010
,
0100
0001
0100
0001
1000
0000
0011
0000
,
1010
1100
0101
0100
,
0001
0100
0010
1000
0100
0100
0000
1000
,
0000
0001
1000
0001
0010
0000
0001
1000
,
0001
0000
0000
1000
0001
0000
0000
0010
,
0100
1000
0010
0100
0001
0000
0010
0100
,
1000
0001
0100
0000
1000
0001
0100
0000
,
0100
0001
0100
1000
0100
0010
0001
0010
,
0100
1000
0100
1000
0001
0000
1001
0000
,
0110
1001
0110
0100
,
0001
0010
0100
1000
0020
0000
0030
1000
,
0000
0001
1000
0001
0100
0010
0001
1000
,
0001
0000
0000
1000
0001
0000
0000
0100
,
0010
1000
0100
0010
0001
0000
0100
0010
,
1000
0000
0000
0100
0010
0000
0000
0100
,
0010
0001
0010
1000
0000
0000
0001
0100
,
0010
1000
0010
1000
0001
0000
1100
0000
,
0101
0011
1010
0010
,
1000
0010
0100
0001
0010
0010
0000
0001
,
0000
1000
0001
1000
0100
0000
1000
0000
,
0100
1100
0100
0101
,
0010
0001
0100
0010
1000
0100
0010
0100
,
0001
0000
0010
1000
0000
0100
0010
0100
,
0001
0000
0010
0100
0000
0010
1000
0100
,
1000
0000
0100
1000
0000
0100
0001
0000
,
0110
0110
0000
0000
1000
0000
0001
0000
,
1000
0100
0010
0001
1000
0100
0010
0001
,
1000
0001
1000
0001
1000
0010
0100
0001
,
1000
0000
0010
0100
1000
0100
1000
0001
,
1000
0000
0001
0100
0001
0000
0110
0000
,
0001
0100
0010
1000
0001
0100
0010
1000
,
0001
1000
0001
1000
0001
0010
0100
1000
,
0001
0000
0010
0100
0001
0100
0001
1000
,
0001
0000
1000
0100
1000
0000
0110
0000
,
0101
0000
0000
0000
1000
0010
0100
0000
,
0110
0000
0000
0000
0010
0001
0100
0000
,
0101
0000
0000
0000
1000
0100
0010
0000
,
0110
0000
0000
0000
1000
0001
0000
0000
,
0010
0000
0000
1100
0000
1000
0100
0000
0000
0010
0000
0000
,
0100
0000
0000
1001
0000
0001
0100
0000
0000
0100
0000
0000
,
0010
0100
0010
0100
,
1000
0000
0000
0000
,
0001
0000
1000
0001
1000
0000
0001
1000
0001
1000
0001
1000
0001
0000
1000
0000
,
0010
0000
0100
0010
0100
0000
0010
0100
0010
0100
0010
0100
0010
0000
0100
0000
,
0001
0000
0010
0001
0010
0001
0010
0000
0001
0000
1000
0001
1000
0001
1000
0000
,
0100
0000
1000
0100
1000
0000
0100
1000
0100
1000
0100
1000
0100
0000
0000
0000
,
0001
0000
1000
0001
1000
0000
0001
1000
0001
1000
0001
1000
0001
0000
0100
0000
,
0010
0000
0100
0010
0100
0000
0010
0100
0010
0100
0010
0100
0010
0000
0100
0000
,
0001
0000
0010
0001
0010
0000
0001
0010
0001
0010
0001
0010
0001
0000
0010
0000
,
0100
0000
0000
0000
0000
0000
1000
0000
0000
0100
0000
0000
1000
0000
0000
0000
0000
0000
0100
0000
0000
1000
0000
0000
0100
0000
0000
0000
0010
0000
0000
0000
0001
0000
0000
0000
1000
0000
0000
0000
0000
0000
0000
0000
0000
0000
0000
0000
,
0010
0000
1000
0010
1000
0010
1000
0000
0001
0010
0001
0010
0001
0000
0100
0000
,
0010
0000
0100
0001
0100
0001
0100
0000
0010
1000
0010
1000
0010
0000
1000
0000
,
0001
1000
0001
1000
0001
1000
0001
1000
0010
0100
0010
0100
0010
0100
0010
0100
,
0001
1000
0001
1000
0001
1000
0001
1000
0010
0100
0010
0100
0010
0000
0000
0000
,
0010
0000
1000
0100
1000
0100
1000
0000
0001
0100
0001
0100
0001
0000
0100
0000
,
0001
0000
0100
0001
0100
0001
0100
0000
0010
1000
0010
1000
0010
0000
1000
0000
,
0001
1000
0001
1000
0001
1000
0001
1000
0010
0100
0010
0100
0010
0100
0010
0000
,
1000
0100
0001
0010
0100
0010
0000
0000
,
1001
0000
0000
0000
,
0000
0000
0000
0000
;
#NOTES:
     dance-double:
     :
     Easy:
     7:
     :
00000000
00000000
00000000
00000000
,
00000000
00000000
00000000
00000000
,
00000000
00000000
00000000
00000000
,
00000000
00000000
00000000
00000000
,
00000000
00000000
00000000
00000000
,
10000000
01000000
00000000
01000000
,
10000000
01000000
00000000
00010000
,
00001000
00010000
00000000
00010000
,
00010000
00001000
00000100
00000001
,
00000001
00000001
00000001
00000100
,
00001000
00010000
01000000
10000000
,
00100000
00100000
10000000
01000000
,
01000000
01000000
00010000
00000000
,
00001000
00000100
00000001
00000100
,
00000001
00000001
00000100
00001000
,
00010000
00100000
10000000
01000000
,
01000000
01000000
10000000
00000000
,
10000000
10000000
10000000
01000000
,
00010000
00001000
00000100
00000001
,
00000010
00000010
00000001
00000100
,
00000100
00000100
00001000
00000000
,
00010000
01000000
10000000
01000000
,
10000000
10000000
01000000
00010000
,
00001000
00000010
00000001
00000100
,
00000100
00000100
00000001
00000000
,
00000100
00001000
00000000
00010000
,
01000000
10000000
10000000
00000000
,
10000000
01000000
00000000
00000000
,
00010000
00000000
00001000
00000100
,
00000001
00000100
00000000
00000100
,
00000001
00000100
00000000
00001000
,
00010000
00001000
00000000
00001000
,
00001000
00010000
01000000
10000000
,
10000000
01000000
02000000
03000000
,
00010000
00001000
00001000
00001000
,
00001000
00000000
00001000
00000000
,
00000100
00000001
00001000
00000010
,
00000001
00000000
00000010
00000000
,
00001000
00010000
01000000
10000000
,
01000000
00010000
10000000
00100000
,
10000000
01000000
00010000
00001000
,
00010000
00001000
00000100
00000001
,
00001000
00001000
00000001
00000001
,
00000001
00000000
00000001
00000000
,
00000100
00001000
00010000
00100000
,
10000000
10000000
10000000
10000000
,
01000000
00010000
10000000
00010000
,
01000000
10000000
10000000
10000000
,
01000000
00010000
00001000
00000100
,
00000001
00000100
00000200
00000300
,
00001000
00010000
00010000
00010000
,
00010000
00000000
00010000
00000000
,
00010000
01000000
10000000
00100000
,
10000000
00000000
00100000
00000000
,
00010000
00001000
00000100
00000001
,
00000100
00001000
00000001
00000010
,
00000001
00000100
00001000
00010000
,
01000000
10000000
00010000
00000000
,
00010000
00010000
10000000
00000000
,
01000000
10000000
01000000
00010000
,
00001000
00000010
00000001
00000100
,
00001000
00000000
00000000
00000000
,
00010000
00000000
00000000
00000000
,
01000000
00000000
10000000
00010000
,
01000000
00000000
10000000
00010000
,
10000000
01000000
10000000
01000000
,
10000000
10000000
10000000
01000000
,
00011000
00000000
00000000
00000000
,
00000110
00000000
00000000
00000000
,
00000001
00000100
00000001
00000100
,
00000001
00000001
00000001
00000100
,
00011000
00000000
00000000
00000000
,
01100000
00000000
00000000
00000000
,
10000000
00000000
10000000
01000000
,
00010000
00000000
00001000
00000100
,
00000001
00000000
00000001
00000100
,
00000100
00000000
00000000
00000000
,
00001000
00010000
00001000
00010000
,
00001000
00010000
01000000
10000000
,
00100000
01000000
00100000
01000000
,
10000000
00010000
10000000
00010000
,
10000000
10000000
10000000
01000000
,
00010000
00001000
00000100
00000001
,
00000010
00000010
00000001
00000100
,
00000100
00000100
00001000
00000000
,
00010000
01000000
10000000
01000000
,
10000000
10000000
01000000
00010000
,
00001000
00000010
00000001
00000100
,
00000100
00000100
00000001
00000000
,
00000001
00000001
00000001
00000100
,
00001000
00010000
01000000
10000000
,
00100000
00100000
10000000
01000000
,
01000000
01000000
00010000
00000000
,
00001000
00000100
00000001
00000100
,
00000001
00000001
00000100
00001000
,
00010000
00100000
10000000
01000000
,
01000000
01000000
10000000
00000000
,
00000000
00000000
00000000
00000000
;
#NOTES:
     dance-double:
     :
     Medium:
     10:
     :
00000000
00000000
00000000
00000000
,
00000000
00000000
00000000
00000000
,
00000000
00000000
00000000
00000000
,
00000000
00000000
00000000
00000000
,
00000000
00000000
00000000
00000000
,
00001000
00000100
00000000
00000000
00000000
00000000
00000100
00000000
,
00001000
00000100
00000000
00001000
,
00010000
01000000
00000000
00010000
,
01000000
10000000
00010000
10000000
,
10000000
01000000
00010000
00000000
00001000
00000000
00000100
00000000
,
00000001
00001000
00000001
00000000
00000100
00000000
00001000
00000000
,
00010000
00100000
10000000
00000000
10000000
00000000
01000000
00000000
,
01000000
00100000
01000000
00000000
00010000
00000000
01000000
00000000
,
10000000
01000000
10000000
00000000
01000000
00000000
00010000
00000000
,
00001000
00000100
00000001
00000000
00000100
00000000
00001000
00000000
,
00000010
00000100
00000010
00000000
00000100
00000000
00001000
00000000
,
00010000
00100000
01000000
00000000
00010000
00000000
01000000
00000000
,
10000000
00010000
10000000
00000000
01000000
00000000
00010000
00000000
,
00001000
00000100
00000001
00000000
00000010
00000000
00000001
00000000
,
00000100
00000010
00000100
00000000
00001000
00000000
00010000
00000000
,
00010000
01000000
10000000
00000000
00010000
00000000
01000000
00000000
,
00010000
01000000
10000000
00000000
01000000
00000000
00010000
00000000
,
00001000
00010000
00001000
00000000
00000100
00000000
00000001
00000000
,
00000010
00000100
00000010
00000000
00001000
00000000
00010000
00000000
,
01000000
00100000
01000000
00000000
10000000
00000000
00100000
00000000
,
00010000
11000000
00000000
00100000
,
10000000
01000000
00010000
00000000
,
00001000
00000110
00000000
00001000
,
00000001
00000000
00000100
00001000
,
00010000
01000000
00000000
01000000
,
10010000
01000000
00000000
00010000
,
00001000
00010000
00000000
00001000
,
00010000
00001000
00011000
00011000
,
00010000
01000000
02000000
03000000
,
00010000
10000000
10000000
01000000
,
00010000
00000000
00001000
00000010
,
00000100
00000001
00000100
00000000
,
00001000
00000000
00100000
00000000
,
01000000
11000000
01000000
00010000
,
00001000
00000010
00000001
00000010
,
00001000
00000001
00000100
00001000
,
00010000
01000000
10000000
01000000
,
10000000
10000000
01000000
00010000
,
00011000
00000000
00001100
00000000
,
00000100
00001000
00000001
00000010
,
00000001
00000100
00001000
00000000
00010000
01000000
10000000
00000000
,
01000000
00010000
10000000
01000000
,
00010000
00001000
00000100
00000001
,
00000100
00001001
00000100
00001000
,
00010000
01000000
00200000
00300000
,
10000000
01000000
00010000
00001000
,
00000010
00000001
00001001
00000100
,
00000100
00000001
00000100
00001000
,
00010000
00000000
01000000
00000000
,
10000000
00010000
10000000
01000000
,
00010000
00001000
00000100
00001100
,
00000101
00000001
00000100
00001000
,
00010000
01000000
10000000
00000000
,
00010000
10010000
11000000
00000000
,
00010000
00001000
00000100
00000001
,
00000010
00000001
00000100
00001000
,
00010000
00100000
10000000
01000000
,
00010000
10000000
01000000
00010000
,
00011000
00000000
00001100
00000001
,
00000100
00000000
00000001
00000100
,
00001000
00010000
01000000
01000000
,
10010000
10000000
01000000
00010000
,
00001000
00000000
00000010
00000001
00000010
00000000
00000001
00000000
,
00001000
00000000
00000001
00001000
00000001
00000000
00000100
00000000
,
00001000
00010000
01000000
01000000
,
10010000
10000000
01000000
00010000
,
00001000
00000000
00000010
00000001
00000010
00000000
00000001
00000000
,
00001000
00000000
00000001
00001000
00000001
00000000
00000100
00000000
,
00001000
00000000
00010000
01000000
,
10000000
00000000
10000000
01000000
,
00010000
00000000
00001000
00010000
,
00000100
00000000
00000000
00000000
00010000
00001000
00000000
00000000
,
00200000
00301000
00020000
00030010
,
00020000
00031000
00200000
00301000
,
00010000
00001000
00010000
01000000
,
10000000
00000000
10000000
00000000
,
10000000
01000000
00010000
00000000
00001000
00000000
00000100
00000000
,
00000001
00001000
00000001
00000000
00000100
00000000
00001000
00000000
,
00010000
00100000
10000000
00000000
10000000
00000000
01000000
00000000
,
01000000
00100000
01000000
00000000
00010000
00000000
01000000
00000000
,
10000000
01000000
10000000
00000000
01000000
00000000
00010000
00000000
,
00001000
00000100
00000001
00000000
00000100
00000000
00001000
00000000
,
00000010
00000100
00000010
00000000
00000100
00000000
00001000
00000000
,
00010000
00100000
01000000
00000000
00010000
00000000
01000000
00000000
,
10000000
00010000
10000000
00000000
01000000
00000000
00010000
00000000
,
00001000
00000100
00000001
00000000
00000010
00000000
00000001
00000000
,
00000100
00000010
00000100
00000000
00001000
00000000
00010000
00000000
,
00010000
01000000
10000000
00000000
00010000
00000000
01000000
00000000
,
00010000
01000000
10000000
00000000
01000000
00000000
00010000
00000000
,
00001000
00010000
00001000
00000000
00000100
00000000
00000001
00000000
,
00000010
00000100
00000010
00000000
00001000
00000000
00010000
00000000
,
01000000
00100000
01000000
00000000
10000000
00000000
00100000
00000000
,
10000000
00000000
00000000
00000000
,
00000000
00000000
00000000
00000000
;
#NOTES:
     dance-double:
     :
     Hard:
     13:
     :
00000000
00000000
00000000
00000000
,
00000000
00000000
00000000
00000000
,
00000000
00000000
00000000
00000000
,
00000000
00000000
00000000
00000000
,
00000000
00000000
00000000
00000000
,
10000000
01000000
00100000
00000000
00000000
01000000
00100000
00010000
,
00001000
00000100
00000000
00000000
00000000
00000010
00000001
00001000
,
00000001
00000100
00000000
00000000
00000000
00000001
00000010
00000100
,
00010000
00001000
00010000
00011000
,
00100000
10000000
00100000
01000000
00010000
10000000
01000000
00000000
,
00100000
00001000
00010000
00000010
00000100
00000010
00000100
00000010
,
00001000
00000001
00000010
00000001
00001000
00000001
00000100
00000001
,
00001000
00000100
00010000
00001000
00100000
00010000
10000000
00000000
,
00100000
01000000
00100000
00000000
10000000
01000000
00010000
01000000
,
00100000
00000000
00001000
00010000
00001000
00000100
00000001
00000000
,
00000010
00000001
00000010
00000001
00001000
00000010
00001000
00000010
,
00010000
00001000
00010000
00001000
00100000
00010000
01000000
00000000
,
10000000
01000000
00010000
01000000
00100000
01000000
00100000
01000000
,
00100000
00010000
00001000
00000100
00000010
00001000
00000010
00001000
,
00000001
00000010
00000100
00001000
00000001
00001000
00000001
00001000
,
00000100
00001000
00010000
00100000
01000000
00100000
00010000
00000000
,
10000000
01000000
00100000
01000000
10000000
00010000
10000000
00010000
,
10000000
00100000
00010000
00001000
00000100
00000001
00000100
00000001
,
00000010
00000001
00000100
00000010
00001000
00000100
00000010
00001000
,
00010000
00000010
00001000
00010000
01000000
00100000
01000000
00000000
,
00100000
10000000
00010000
00000000
00000000
00010000
00100000
01000000
,
10000000
00000000
10000000
00100000
00000000
00000000
00000000
00000000
,
00010000
00001000
00000010
00000000
00000000
00000100
00010000
00000100
,
00010000
00000000
00000000
00011000
00000000
00000000
01100000
00000000
,
01000000
00100000
00010000
00000000
00000000
00001000
00000010
00000100
,
00000001
00001000
00000000
00000000
00000000
00000001
00000010
00001000
,
00010000
00100000
00000000
00000000
00000000
01000000
00010000
01000000
,
00100000
10000000
01000000
00010000
00001000
00000000
00000010
00000000
,
00000001
00000010
00000100
00001000
00000020
00000000
00000030
00000001
,
00000000
00001000
00000001
00001000
00000100
00000000
00010000
00001000
,
00100000
00000000
00000000
00010000
00100000
00000000
00000000
01000000
,
00100000
00010000
01000000
00100000
10000000
00000000
10000000
01000000
,
00010000
00000000
00000000
00001000
00000010
00000000
00000000
00000100
,
00000010
00000001
00000010
00001000
00000000
00000000
00010000
00100000
,
10000000
00010000
10000000
00000000
10000000
00000000
01000000
00000000
,
00010000
00001000
00000010
00001001
,
00001000
00000010
00000100
00000001
00000010
00000010
00000000
00000001
,
00000000
00001000
00000001
00001000
00000001
00000000
00000100
00001000
,
00010000
00000000
00000000
00010000
00100000
00000000
00000000
01000000
,
00100000
10000000
01000000
00100000
00010000
00000000
00100000
00010000
,
00001000
00000100
00000010
00000000
00000001
00001000
00000010
00000000
,
00001000
00000100
00001000
00000100
00010000
00001000
00010000
00001000
,
00100000
00010000
10000000
00010000
00100000
00000000
01000000
00000000
,
00010000
00001000
00000010
00000001
,
00001000
00000100
00000010
00000001
00000200
00000000
00000300
00000001
,
00000000
00001000
00000001
00001000
00000010
00000001
00000010
00001000
,
00010000
00000000
00000000
00010000
01000000
00000000
00000000
00100000
,
01000000
00010000
00100000
01000000
10000000
00000000
00100000
00010000
,
00001000
00000000
00000000
00000100
00000001
00000000
00000000
00000010
,
00000100
00000001
00000010
00001000
00000000
00000000
00001000
00010000
,
00001000
00010000
00001000
00010000
00100000
00000000
10000000
00000000
,
01000000
10000000
00100000
00010000
,
00001000
00000100
00000010
00001000
00000100
00000000
00000000
00001000
,
00000000
00000001
00001000
00000001
00000010
00000000
00000002
00000000
,
00000023
00002030
00023000
00230000
,
10300000
00010000
00100000
01000000
10000000
00000000
00100000
00010000
,
00001000
00000000
00000100
00000001
00000000
00000010
00000100
00000010
,
00001000
00000000
00000010
00000100
00000000
00001000
00000001
00000100
,
00001000
00000000
00000000
00010000
00000000
00000000
01000000
00000000
,
10000000
01000000
00000000
00000000
00010000
00000000
00001000
00000000
,
00000010
00000000
00000001
00000000
00001000
00000000
00000100
00001000
,
00000001
00001000
00000001
00001000
00000100
00000010
00001000
00010000
,
00001000
00000000
01000000
00100000
10000000
00100000
10000000
00010000
,
10000000
00000000
00010000
00100000
00001000
00000000
00011000
00000000
,
00001000
00000010
00000001
00000000
00000001
00001000
00000100
00000000
,
00001000
00000001
00001000
00000001
00001000
00000001
00000010
00001000
,
00010000
00000000
01000000
00100000
00010000
00100000
00010000
10000000
,
00010000
00000000
00100000
00001000
00010000
00000000
00001000
00000000
,
00000010
00000000
00000000
00000000
00001000
00000100
00000010
00000000
,
00000100
00000000
00000000
00000000
00000100
00001000
00000010
00000000
,
00010000
00000000
00000000
00000000
00010000
00100000
01000000
00000000
,
00100000
00000000
00000000
00000000
00010000
00001000
00000000
00000000
,
00000100
00000001
00001000
00000010
,
00000001
00001000
00000010
00001000
,
00010000
00000000
00001000
00010000
,
00011000
00000000
00000000
00000000
,
00000010
00000001
00000010
00000100
00001000
00000001
00000100
00000000
,
00000010
00010000
00001000
00100000
01000000
00100000
01000000
00100000
,
00010000
10000000
00100000
10000000
00010000
10000000
01000000
10000000
,
00010000
01000000
00001000
00010000
00000010
00001000
00000001
00000000
,
00000010
00000100
00000010
00000100
00000001
00000100
00001000
00000100
,
00000010
00001000
00010000
00001000
00010000
01000000
10000000
00000000
,
00100000
10000000
00100000
10000000
00010000
00100000
00010000
00100000
,
00001000
00010000
00001000
00010000
00000010
00001000
00000100
00000000
,
00000001
00000100
00001000
00000001
00000100
00001000
00010000
00100000
,
10000000
01000000
00010000
01000000
10000000
01000000
00010000
01000000
,
10000000
00100000
01000000
00010000
10000000
01000000
00100000
00010000
,
00001000
00010000
00001000
00010000
00001000
00000100
00000010
00000000
,
00000100
00010000
00000010
00001000
00000010
00010000
00000100
00001000
,
00000001
00000010
00001000
00010000
01000000
10000000
00100000
00010000
,
00001000
00100000
01000000
00100000
00001000
01000000
00100000
01000000
,
00001000
00100000
00010000
00001000
00000100
00000010
00000100
00000000
,
00001000
00000000
00000000
00000000
,
00000000
00000000
00000000
00000000
;
#NOTES:
     dance-double:
     :
     Challenge:
     16:
     :
00000000
00000000
00000000
00000000
,
00000000
00000000
00000000
00000000
,
00000000
00000000
00000000
00000000
,
00000000
00000000
00000000
00000000
,
00000000
00000000
00000000
00000000
,
00001000
00000010
00000100
00000000
00000000
00000010
00000100
00001000
,
00010000
01000000
00000000
00000000
00000000
10000000
01000000
10000000
,
00010000
10000000
00000000
00000000
00000000
10000000
01000000
10000000
,
01000000
00100000
00001000
00000000
00010000
00000000
00011000
00000000
,
00001000
00000000
00010000
00000000
00001000
00010000
00000000
00001000
00010000
00001000
00010000
00001000
00010000
00000000
00000000
00000000
,
00000010
00000000
00001000
00000010
00001000
00000000
00000001
00000100
00000001
00000100
00000001
00000100
00000001
00000000
00001000
00000000
,
00000100
00000000
00010000
00001000
00010000
00000000
00001000
00000000
01000000
00000000
00010000
01000000
00010000
00000000
01000000
00000000
,
00100000
01000000
00100000
01000000
00100000
01000000
00100000
01000000
00100000
01000000
00100000
01000000
00100000
00000000
00000000
00000000
,
10000000
01000000
10000000
01000000
10000000
00000000
00000000
00000000
00010000
00100000
00010000
00100000
00010000
00000000
00100000
00000000
,
00001000
00000000
00000000
00000000
00010000
00001000
00010000
00001000
00010000
00001000
00010000
00001000
00010000
00000000
00000000
00000000
,
00000010
00001000
00000010
00001000
00000010
00000000
00000100
00000000
00000001
00000100
00000001
00000100
00000001
00000000
00000100
00000000
,
00000001
00001000
00000001
00001000
00000001
00001000
00000001
00001000
00000001
00000000
00001000
00000000
00000100
00000000
00000000
00000000
,
00010000
00000000
00001000
00010000
00001000
00000000
00010000
00000000
00001000
00010000
00001000
00010000
00001000
00000000
00100000
00000000
,
00010000
00000000
00100000
00010000
00100000
00000000
01000000
00000000
10000000
01000000
10000000
01000000
10000000
00000000
01000000
00000000
,
00100000
01000000
00100000
01000000
00100000
00000000
00010000
00000000
01000000
00100000
01000000
00100000
01000000
00000000
00001000
00000000
,
00010000
00001000
00010000
00001000
00010000
00001000
00010000
00001000
00010000
00001000
00010000
00001000
00010000
00000000
00000000
00000000
,
00000100
00000000
00001000
00000100
00001000
00000000
00000100
00000000
00000010
00000100
00000010
00000100
00000010
00000000
00000100
00000000
,
00000010
00000000
00000001
00000010
00000001
00000000
00001000
00000000
00000001
00001000
00000001
00001000
00000001
00000000
00000100
00000000
,
00000010
00000000
00001000
00000010
00001000
00000000
00000010
00000000
00010000
00000000
00001000
00010000
00001000
00000000
00100000
00000000
,
01000000
00100000
01000000
00100000
01000000
00100000
01000000
00100000
01000000
00100000
01000000
00100000
01000000
00000000
00000000
00000000
,
00100000
00001000
00010000
00000000
00000000
00001000
00000100
00000001
,
00000010
00000000
00000001
00000100
00000000
00000000
00000000
00000000
,
00001000
00010000
01000000
00000000
00000000
00100000
00001000
00100000
,
00001000
00000000
00000000
00011000
00000000
00000000
00000110
00000000
,
00000010
00000100
00001000
00000000
00000000
00010000
01000000
10000000
,
00100000
01000000
00000000
00000000
00000000
10000000
01000000
00010000
,
00001000
00000100
00000000
00000000
00000000
00000010
00001000
00000010
,
00000100
00000001
00000100
00000010
00001000
00000000
00011000
00000000
,
00001000
01000000
00100000
10000000
02000000
00000000
03000000
00010000
,
00000000
10000000
00010000
10000000
00100000
01000000
00001000
00010000
,
00000100
00000000
00000000
00001000
00000100
00000000
00000000
00000010
,
00000100
00000001
00000010
00000100
00001000
00000000
00000001
00000100
,
00001000
00000000
00000000
00100000
01000000
00000000
00000000
00100000
,
01000000
10000000
01000000
00010000
00000000
00000000
00001000
00000010
,
00000100
00001000
00000100
00001000
00000001
00000000
00000011
00000000
,
00001010
00011000
01010000
10010000
,
00010000
01000000
00100000
10000000
01000000
01000000
00000000
10000000
,
00000000
00010000
10000000
00010000
10000000
00000000
01000000
00010000
,
00001000
00000000
00000000
00001000
00000100
00000000
00000000
00000010
,
00000100
00001000
00000010
00000100
00000001
00000000
00000100
00001000
,
00010000
01000000
10000000
00000000
00010000
10000000
01000000
00000000
,
00100000
00010000
00100000
00010000
00001000
00010000
00001000
00010000
,
00001000
00000100
00001000
00000100
00000010
00000000
00001001
00000000
,
00001100
00011000
01010000
10000000
,
00010000
00100000
01000000
10000000
00200000
00000000
00300000
10000000
,
00000000
00010000
10000000
00010000
01000000
10000000
01000000
00001000
,
00010000
00000000
00000000
00000010
00001000
00000000
00000000
00000100
,
00000010
00001000
00000100
00000010
00000001
00000000
00000100
00001000
,
00010000
00000000
00000000
01000000
10000000
00000000
00000000
01000000
,
00100000
00010000
00100000
10000000
00000000
00000000
00010000
01000000
,
00010000
00001000
00010000
00001000
00010000
00000000
00001100
00000000
,
00000101
00000011
00001010
00001000
,
00010000
00100000
01000000
00010000
00100000
00000000
00000000
00010000
,
00000000
10000000
00010000
10000000
01000000
00000000
10000000
00000000
,
01000000
01010000
00011000
00000110
,
00000010
00000001
00000100
00000010
00001000
00000001
00000100
00001000
,
00010000
00000000
00100000
10000000
00000000
01000000
00100000
01000000
,
00010000
00000000
00100000
01000000
00000000
00100000
00010000
01000000
,
00001000
00000000
00000000
00001100
00000000
00000000
00000101
00000000
,
00000110
00000110
00000000
00000000
00001000
00000000
00010000
00000000
,
00010000
01000000
00100000
00010000
10000000
01000000
00100000
00010000
,
10000000
00010000
10000000
00010000
00100000
01000000
00010000
00001000
,
00010000
00000000
00000010
00000100
00000001
00000100
00000001
00001000
,
00000001
00000000
00001000
00000100
00001000
00000000
00011000
00000000
,
00010000
01000000
00100000
10000000
00010000
01000000
00100000
10000000
,
00010000
10000000
00010000
10000000
00010000
10000000
01000000
00010000
,
00001000
00000000
00000010
00000100
00001000
00000100
00001000
00000001
,
00001000
00000000
00000100
00010000
00001000
00000000
00011000
00000000
,
00110000
00000000
00000000
00000000
00010000
00100000
01000000
00000000
,
01100000
00000000
00000000
00000000
00100000
00010000
01000000
00000000
,
00011000
00000000
00000000
00000000
00001000
00000100
00000010
00000000
,
00000110
00000000
00000000
00000000
00011000
00011000
00000000
00000000
,
00100000
00000000
00000000
00010000
00000000
10000000
01000000
00000000
00000000
00100000
00000000
00000000
,
01000000
00000000
00000000
10000000
00000000
00010000
01000000
00000000
00000000
00001000
00000000
00000000
,
00010000
00000000
00001000
00010000
,
00011000
00000000
00000000
00000000
,
00000010
00000000
00001000
00000010
00001000
00000000
00000010
00000000
00000100
00000010
00000100
00000010
00000100
00000000
00000010
00000000
,
00001000
00000000
00000001
00001000
00000001
00000000
00001000
00000000
00000001
00001000
00000001
00001000
00000001
00000000
00000010
00000000
,
00000100
00000000
00010000
00001000
00010000
00000000
00001000
00000000
00100000
00000000
00010000
00100000
00010000
00000000
00100000
00000000
,
01000000
10000000
01000000
10000000
01000000
10000000
01000000
10000000
01000000
10000000
01000000
10000000
01000000
00000000
00000000
00000000
,
00100000
00000000
01000000
00100000
01000000
00000000
00100000
00000000
00001000
00010000
00001000
00010000
00001000
00000000
00010000
00000000
,
00000100
00000000
00001000
00000100
00001000
00000000
00000100
00000000
00000010
00000100
00000010
00000100
00000010
00000000
00000100
00000000
,
00000010
00000001
00000010
00000001
00000010
00000000
00000001
00000000
00001000
00000001
00001000
00000001
00001000
00000000
00000001
00000000
,
00000100
00000000
00000000
00000010
00000000
00000000
00000100
00000000
00000000
00000010
00000000
00000000
00000100
00000000
00000000
00000010
00000000
00000000
00000100
00000000
00000000
00000010
00000000
00000000
00000100
00000000
00000000
00000000
00000010
00000000
00000000
00000000
00001000
00000000
00000000
00000000
00000010
00000000
00000000
00000000
00000000
00000000
00000000
00000000
00000000
00000000
00000000
00000000
,
00010000
00000000
00001000
00010000
00001000
00000000
00010000
00000000
00001000
00010000
00001000
00010000
00001000
00000000
00100000
00000000
,
00010000
00000000
01000000
00010000
01000000
00000000
00010000
00000000
01000000
00010000
01000000
00010000
01000000
00000000
00100000
00000000
,
10000000
01000000
10000000
01000000
10000000
00000000
01000000
00000000
00100000
00010000
00100000
00010000
00100000
00000000
00010000
00000000
,
10000000
00010000
10000000
00010000
10000000
00010000
10000000
00010000
10000000
00010000
10000000
00010000
10000000
00000000
00000000
00000000
,
00100000
00000000
01000000
00100000
01000000
00000000
00001000
00000000
00010000
00001000
00010000
00001000
00010000
00000000
00001000
00000000
,
00010000
00000000
00000010
00001000
00000010
00000000
00001000
00000000
00000010
00001000
00000010
00001000
00000010
00000000
00000100
00000000
,
00000001
00001000
00000001
00001000
00000001
00001000
00000001
00001000
00000100
00001000
00000100
00001000
00000100
00000000
00000010
00000000
,
00000001
00000100
00001000
00010000
00100000
10000000
00010000
00000000
,
10010000
00000000
00000000
00000000
,
00000000
00000000
00000000
00000000
;
