
//----- song id: miso
#TITLE:LoveLove DokiDoki;
#ARTIST:水戸ご当地アイドル(仮) 【茨城】;
#ARTISTTRANSLIT:Mito Gotochi Idol (Kari) [Ibaraki];
#BANNER:LoveLove DokiDoki.png;
#BACKGROUND:LoveLove DokiDoki-bg.png;
#CDTITLE:./CDTitles/DDR (2014).png;
#MUSIC:LoveLove DokiDoki.ogg;
#SAMPLESTART:61.295;
#SAMPLELENGTH:15;
#BPMS:0=160;
#NOTES:
     dance-single:
     :
     Beginner:
     2:
     :
0000
0000
0000
0000
,
0000
0000
0000
0000
,
0000
0000
0000
0000
,
0000
0000
0000
0000
,
0000
0000
0000
0000
,
0001
0000
0000
0000
,
1000
0000
0000
0000
,
0001
0000
0000
0000
,
1001
0000
0000
0000
,
0010
0000
0000
0000
,
0100
0000
0000
0000
,
0010
0000
0000
0000
,
1000
0000
0000
0000
,
0001
0000
0001
0000
,
0001
0000
0000
0000
,
1000
0000
1000
0000
,
1000
0000
0000
0000
,
0010
0000
0000
0000
,
0010
0000
0000
0000
,
0100
0000
0000
0000
,
0100
0000
0000
0000
,
0010
0000
0000
0000
,
1000
0000
0000
0000
,
0001
0000
1000
0000
,
0001
0000
0000
0000
,
0100
0000
0000
0000
,
0010
0000
0000
0000
,
1000
0000
0000
0000
,
0001
0000
0000
0000
,
0010
0000
0010
0000
,
0010
0000
0000
0000
,
0100
0000
0100
0000
,
0100
0000
0000
0000
,
1000
0000
0000
0000
,
0001
0000
0000
0000
,
0100
0000
0000
0000
,
0010
0000
0000
0000
,
1000
0000
0000
0000
,
0010
0000
0000
0000
,
1000
0000
0001
0000
,
1000
0000
0000
0000
,
1001
0000
0000
0000
,
0010
0000
0000
0000
,
1001
0000
0000
0000
,
0100
0000
0000
0000
,
1001
0000
0000
0000
,
0010
0000
0000
0000
,
1001
0000
0000
0000
,
0100
0000
0000
0000
,
0010
0000
0010
0000
,
0010
0000
0000
0000
,
0100
0000
0100
0000
,
0100
0000
0000
0000
,
0001
0000
0001
0000
,
0001
0000
0000
0000
,
1000
0000
1000
0000
,
1000
0000
0000
0000
,
0010
0000
0000
0000
,
0010
0000
0000
0000
,
0100
0000
0000
0000
,
0100
0000
0000
0000
,
0001
0000
0000
0000
,
1000
0000
0000
0000
,
0001
0000
0000
0000
,
1001
0000
0000
0000
,
0000
0000
0000
0000
,
0010
0000
0010
0000
,
0010
0000
0000
0000
,
0100
0000
0100
0000
,
0100
0000
0000
0000
,
0001
0000
0001
0000
,
0001
0000
0000
0000
,
1000
0000
1000
0000
,
1001
0000
0000
0000
,
0001
0000
1000
0000
,
0001
0000
0000
0000
,
1000
0000
0001
0000
,
1000
0000
0000
0000
,
0010
0000
0100
0000
,
0010
0000
0000
0000
,
0100
0000
0010
0000
,
0100
0000
0000
0000
,
0000
0000
0000
0000
;
#NOTES:
     dance-single:
     :
     Easy:
     6:
     :
0000
0000
0000
0000
,
0000
0000
0000
0000
,
0000
0000
0000
0000
,
0000
0000
0000
0000
,
0000
0000
0000
0000
,
1001
0010
0100
0001
,
1000
0100
0001
0100
,
1000
0010
1000
0001
,
0100
0100
0101
0000
,
0010
0010
1000
0010
,
0100
0001
0011
0000
,
1000
0001
0100
0010
,
1000
0001
1000
0000
,
0010
0010
0100
0010
,
1000
0010
0001
0010
,
1000
0100
1000
0001
,
0100
0010
0110
0000
,
0001
0100
0010
0100
,
1000
0100
0001
0010
,
0100
1000
0100
0001
,
0100
1000
1100
0000
,
0001
0001
0100
0001
,
0010
0100
1000
0100
,
0001
0100
1000
0010
,
1000
0001
1000
1001
,
0001
0100
0010
0000
,
1000
0010
0110
0000
,
0010
1000
0100
0010
,
0001
1000
0001
0000
,
0010
0010
1000
1000
,
0010
0100
0001
0010
,
0100
1000
0010
0100
,
0010
0010
0110
0000
,
0010
0100
0010
1000
,
0001
0010
1000
0010
,
0001
0100
0010
1000
,
0100
0010
0001
0001
,
0100
1000
0100
0100
,
0010
0010
1000
1001
,
0010
0100
0001
0010
,
0100
1000
1100
0000
,
0001
0010
0011
0000
,
1000
0100
1000
0001
,
0010
0100
0110
0000
,
0001
1000
0001
0100
,
0010
1000
1100
0000
,
0100
1000
0100
0010
,
0001
0010
0011
0000
,
0001
1000
0002
0003
,
0100
0000
0100
0000
,
0010
0000
0010
0000
,
1000
0000
1000
0000
,
0001
0001
0001
0000
,
0010
0000
0010
0000
,
0100
0000
0100
0000
,
1000
0000
0001
0000
,
2002
0000
3003
0000
,
0010
1000
0100
0010
,
0001
0100
0010
0000
,
1000
0001
0100
1000
,
0100
0001
0010
0000
,
0100
1000
0010
0100
,
0001
0010
0100
0000
,
1000
0001
0010
1000
,
0010
0001
0100
0200
,
0000
0000
0300
0000
,
0001
1000
1001
0000
,
0100
0010
0100
0001
,
1000
0001
1001
0000
,
0010
0100
0010
1000
,
0001
0010
0100
0000
,
1000
0010
0100
0000
,
0001
0100
1000
0100
,
0001
0010
0100
0000
,
1000
0010
0100
1000
,
0100
0001
0010
0000
,
0010
0001
1000
0100
,
0001
0100
1000
0000
,
0010
0100
1000
0100
,
0001
0010
0100
1000
,
0010
0100
0001
0010
,
0100
0010
0001
1001
,
0000
0000
0000
0000
;
#NOTES:
     dance-single:
     :
     Medium:
     10:
     :
0000
0000
0000
0000
,
0000
0000
0000
0000
,
0000
0000
0000
0000
,
0000
0000
0000
0000
,
0000
0000
0000
0000
,
0001
0000
0101
0000
0001
1000
0010
0000
,
0100
0110
1000
0001
,
0010
0100
1000
0001
0010
0100
1000
0010
,
0000
0100
0000
0202
0000
0000
0303
0000
,
0100
0000
0010
0000
1000
0010
1000
0100
,
0010
0000
0001
0100
0000
0010
1000
0000
,
1000
0000
0100
0000
0010
0001
0010
0000
,
0001
0000
1000
0000
0010
0100
0010
0000
,
1000
0001
0100
0000
0010
0000
0110
0000
,
0100
0000
0001
0010
0000
0100
1000
0000
,
0010
0100
0010
1000
0001
0000
0011
0000
,
0010
0000
0100
1000
0000
0001
0100
0000
,
0010
1000
0010
0000
0100
0000
0110
0000
,
0100
0001
0000
1001
0000
1000
0010
0000
,
0100
0000
1010
0000
1000
0001
0010
0100
,
0010
0000
0100
1000
0000
1000
0001
0000
,
0100
0000
0010
1000
0100
0010
0100
1000
,
0001
0000
0001
0100
0000
0100
0010
0000
,
1000
0010
0000
0100
0001
0100
1000
0100
,
0000
0010
0000
1001
0000
0000
0100
0000
,
0010
0000
0110
0000
1000
0010
0100
0000
,
0001
0000
0001
0010
0000
0100
0010
0000
,
0001
0000
0101
0000
0100
0010
1000
0100
,
0001
0000
0100
1000
0000
0010
0100
0000
,
0010
0100
0010
1000
,
0001
0000
0001
0100
0000
1000
0100
0000
,
0010
0010
0000
1000
0010
0000
0100
0001
,
0010
0000
0100
1000
0000
0010
0100
0000
,
0100
0010
1000
0000
0001
0010
0100
1000
,
0000
1001
0000
1010
0000
0100
0001
0000
,
0010
0100
0000
1000
0010
0001
0010
0000
,
0100
0000
0100
0010
0000
1000
0010
0000
,
0100
0001
0010
0000
0100
0000
1000
0000
,
0010
0000
0100
0001
0000
0100
1000
0000
,
0100
0001
0000
0010
0100
0000
1000
0000
,
0001
1000
0000
2001
0000
0000
3000
0001
,
0000
0001
0100
0000
0110
0000
0000
0010
,
0000
1000
0001
0010
0000
0000
0100
1000
,
0000
0010
0100
0000
0110
0000
0000
1001
,
0000
0100
0001
0010
0000
0000
0100
1000
,
0000
0001
1000
0000
1010
0000
0000
1000
,
0001
0000
0100
0010
0000
0000
0010
1000
,
0000
1000
0001
0000
0011
0000
0000
1001
,
0000
0001
0100
0020
0000
0000
0030
0000
,
0100
1000
0100
0000
0001
0000
0010
0100
,
0000
1000
0000
0010
0000
0100
0001
0000
,
0010
0001
0010
0000
0100
0000
1000
0010
,
0000
0100
0000
1000
0000
0100
0001
0000
,
0001
1000
0001
0000
0010
0000
1000
0010
,
0000
0001
0000
0100
0000
0010
1000
0000
,
0010
0100
0010
0000
1000
0100
0010
0001
,
0000
0011
0000
0101
0000
0000
0100
0000
,
0010
0000
1000
0000
0001
0000
0100
0010
,
0000
0010
0100
1000
0000
0000
0100
0001
,
0000
1000
0100
0000
0110
0000
0010
0001
,
0000
0101
0000
1010
0000
0000
1000
0010
,
0000
1000
0100
0000
0110
0000
0001
1000
,
0000
0010
0100
0001
0000
0000
1000
0010
,
0000
1000
0100
0010
0001
0000
0100
0010
,
0000
1010
0000
1001
0000
0001
0100
0000
,
0020
0000
0000
0000
0000
0000
0000
0130
,
0000
0100
0010
0000
1010
0000
1000
0001
,
0000
0010
0100
1000
0000
0000
0001
0100
,
0000
0010
1000
0000
1001
0000
1000
0010
,
0000
0100
0001
0010
0000
0000
0100
1000
,
0000
0001
1000
0000
0011
0000
0010
0100
,
0000
1000
0001
0010
0000
1000
0010
0001
,
0000
0100
0010
0000
0110
0000
0000
0002
,
0000
0013
0100
2000
0000
0000
3010
0000
,
0100
0000
0101
0000
0010
0000
1000
0001
,
0000
0010
0000
1000
0000
0010
0001
0000
,
0100
0000
0110
0000
0010
0000
1000
0100
,
0000
0001
0000
0100
0000
1000
0010
0000
,
0100
0000
0001
0000
0010
0000
0100
1000
,
0000
0010
0000
0001
0000
0010
0100
0000
,
0001
0000
1001
0000
0010
0100
0001
0010
,
0000
1100
0000
0101
0000
0010
0100
0000
,
0000
0000
0000
0000
;
#NOTES:
     dance-single:
     :
     Hard:
     12:
     :
0000
0000
0000
0000
,
0000
0000
0000
0000
,
0000
0000
0000
0000
,
0000
0000
0000
0000
,
0000
0000
0000
0000
,
0010
0000
0000
0000
1010
0000
0000
1000
0100
0000
0001
0000
0100
0000
0020
0000
,
0000
0130
1000
0001
0000
0001
1000
0010
,
0010
1000
0100
0001
1000
0010
0001
0101
,
0000
0101
0000
1010
0000
1000
0002
0000
,
0103
0010
1000
0001
0010
0100
1000
0100
,
0001
0000
0100
1000
0000
0010
0100
0000
,
1000
0100
0001
0010
0100
1000
0010
1000
,
0100
0000
0000
0000
0001
0000
0100
0000
0000
0000
1000
0000
0010
0000
0000
0010
,
0100
0001
0001
1000
0010
0100
1000
0100
,
0001
0010
0010
0100
0000
1000
0001
0000
,
0100
0010
1000
0001
1000
0100
0010
0001
,
0010
0000
1000
0000
0010
0000
0100
0000
0000
0000
1000
0000
0001
0000
0000
0001
,
0100
1000
0100
0010
1000
0001
0010
0100
,
0010
0011
0000
0101
0000
0001
0100
0010
,
1000
0100
0010
0100
1000
0001
0100
1000
,
0100
0000
0010
1000
0000
0100
0010
0001
,
1000
0001
0100
1000
0100
0010
0100
0001
,
0010
0000
0010
0100
0000
0100
1000
0000
,
0001
0100
0100
0001
0010
0100
1000
0100
,
0100
0010
0100
1001
0000
0010
0100
0000
,
1000
0100
0001
0010
0100
1000
0010
0100
,
0101
0000
0100
0110
0000
1000
0001
0000
,
0100
0001
1000
0010
1000
0001
0000
0010
,
0100
1000
0100
0001
0000
0010
0100
1000
,
0001
0100
0001
1000
0010
0100
0100
0010
,
1000
0000
0010
0100
0000
0100
0001
0000
,
0010
0100
0010
0001
1000
0010
0100
0100
,
0001
0000
1000
0000
0010
0000
0001
0000
0000
0000
0010
0000
0100
0000
0000
0100
,
0001
1000
0001
0100
1000
0100
0010
1000
,
0100
0101
0000
0110
0000
0100
1000
0001
,
0100
2000
0000
3100
0001
0010
0100
1000
,
0100
0000
0011
0001
0000
1000
0010
0100
,
0001
0100
0010
0100
0010
1000
0010
0100
,
0001
0000
0001
1000
0000
0100
0010
0000
,
0001
0000
0010
0000
0000
0000
0100
1000
0100
0000
0001
0000
0100
0000
1000
0000
,
0010
0010
0000
0220
0000
0330
0000
0101
,
0000
0001
0010
0000
0200
1000
1300
0010
,
0000
0100
0001
0010
0000
1000
0010
0001
,
0000
0001
0100
0000
0020
0100
0130
0001
,
0000
0010
0100
1000
0000
1000
0001
0011
,
0000
0010
0100
0000
2000
0001
3001
0100
,
0010
0100
0001
0010
0000
0100
1000
0010
,
0000
0001
0010
1000
0100
0000
0000
1001
,
0000
0000
0001
0000
0010
0000
0100
0000
0000
1000
0001
0000
0100
0000
0000
0000
,
0010
1000
0100
0001
0000
0100
0000
1100
,
0000
0010
0000
0101
0000
0001
0010
0100
,
1000
0001
0010
1000
0010
0001
0100
0110
,
0000
0001
0000
0011
0000
0010
0000
0100
,
1000
0100
0010
0001
0100
0010
0000
1010
,
0000
0100
0000
0011
0000
1000
0010
0100
,
0001
0000
0010
0000
1000
0000
0010
0000
0001
0100
0001
0000
0010
0000
0100
0000
,
0000
1010
0000
0102
0000
0010
0010
0000
,
1003
0010
1000
0100
0002
0000
0103
1000
,
0000
0001
0100
0020
0000
0000
0130
2000
,
0000
3100
0001
0100
0020
0000
1030
0001
,
0000
0011
0000
2010
0000
3010
0100
0002
,
0000
0103
0010
1000
0200
0000
0310
0100
,
0000
0010
0001
2000
0000
0000
3100
0020
,
0000
0031
0100
1000
0200
0000
0310
0001
,
0000
0000
0011
0000
0000
0000
1010
0000
0000
0000
0010
0100
0001
0000
0000
0000
,
2000
0000
0000
0000
0000
0000
0000
3002
,
0000
0013
0100
0000
0020
0001
0031
1000
,
0000
1000
0001
0200
0000
0310
1000
0002
,
0000
0013
0001
0000
0020
0100
0130
1000
,
0000
0001
0100
2000
0000
3100
0001
0020
,
0000
0130
1000
0000
2000
0001
3001
0100
,
0000
0100
0001
0010
0000
1000
0010
0001
,
0000
1000
0010
0100
0110
0000
0000
1001
,
0000
0000
0001
0000
0100
0000
0010
0000
0000
0010
0100
0000
0010
0000
0000
0000
,
1000
0100
0001
0100
0010
0001
1000
0010
,
0000
0110
0000
0101
0000
0001
0010
0100
,
1000
0001
0010
1000
0010
0001
0100
0110
,
0000
0001
0000
0011
0001
0100
0010
0000
,
0010
0001
0010
0100
0001
1000
0100
0001
,
0000
0010
0000
1001
0000
1000
0001
0100
,
1000
0000
0100
0000
0010
0000
1000
0000
0001
0010
0001
0000
0100
0000
0010
0000
,
0000
1001
0000
0012
0000
0100
0103
0000
,
0000
0000
0000
0000
;
#NOTES:
     dance-double:
     :
     Easy:
     6:
     :
00000000
00000000
00000000
00000000
,
00000000
00000000
00000000
00000000
,
00000000
00000000
00000000
00000000
,
00000000
00000000
00000000
00000000
,
00000000
00000000
00000000
00000000
,
00001000
00010000
00100000
01000000
,
00010000
10000000
00100000
00010000
,
00001000
00010000
00000100
00000010
,
00000100
00001000
00001001
00000000
,
00000010
00000100
00001000
00010000
,
00001000
00001000
00100000
00000000
,
00010000
00100000
01000000
10000000
,
00100000
01000000
00100000
00010000
,
00001000
00001000
00010000
00000100
,
00001000
00000010
00000110
00000000
,
00000010
00000100
00001000
00010000
,
00001000
00001000
00100000
00001000
,
00010000
00100000
01000000
00100000
,
10000000
00010000
10000000
00000000
,
00100000
00010000
00001000
00000100
,
00000010
00001000
00000001
00000000
,
00000010
00000100
00010000
00000010
,
00000100
00001000
00011000
00000000
,
00010000
01000000
10000000
00100000
,
01000000
01000000
01010000
00000000
,
00010000
01000000
00100000
00010000
,
00001000
00001000
00010000
00000000
,
00001000
00000100
00000010
00001000
,
00000001
00000010
00000100
00000000
,
00001000
00000001
00000100
00001000
,
00010000
00100000
00010000
00000000
,
00010000
00100000
10000000
00100000
,
01000000
01000000
00010000
00000000
,
00100000
00001000
00010000
00100000
,
00010000
00001000
00010000
00000000
,
00010000
00000100
00001000
00001000
,
00000010
00000100
00000001
00000000
,
00000010
00000100
00001000
00000010
,
00000100
00001000
00010000
00011000
,
00010000
00100000
10000000
00100000
,
01000000
01000000
01100000
00000000
,
00100000
10000000
11000000
00000000
,
00100000
00001000
00010000
00000000
,
00001000
00010000
00011000
00000000
,
00001000
00000100
00000010
00000000
,
00000010
00001000
00001100
00000000
,
00000001
00000100
00001000
00010000
,
00001000
00001000
00100000
00000000
,
00010000
01000000
00100000
00000000
,
10000000
00010000
01000000
00100000
,
00010000
00001000
00010000
00000000
,
00001000
00000100
00000010
00001000
,
00000001
00000010
00001000
00000000
,
00001000
00010000
00100000
01000000
,
10000000
01000000
00010000
00000000
,
01000000
00100000
00010000
00001000
,
00010000
00000100
00001100
00000000
,
00000010
00001000
00000001
00000100
,
00001000
00010000
00001000
00000000
,
00000100
00001000
00010000
00100000
,
10000000
00010000
01000000
00000000
,
01000000
00100000
00010000
00001000
,
00010000
00100000
00010000
00000000
,
00001000
00000100
00000001
00000010
,
00001000
00010000
00001000
00000000
,
00020000
00000000
00030000
00000000
,
00001000
00010000
00110000
00000000
,
00100000
10000000
00100000
00000000
,
01000000
00100000
01100000
00000000
,
00100000
00010000
00001000
00000000
,
00001000
00000100
00000110
00000000
,
00000010
00001000
00000001
00000010
,
00001000
00010000
00001000
00000000
,
00001000
00010000
01000000
00000000
,
10000000
01000000
00100000
00010000
,
01000000
00100000
00010000
00001000
,
00010000
00001000
00000100
00000010
,
00001000
00000100
00000010
00000000
,
00000001
00000010
00000100
00001000
,
00000010
00000100
00001000
00010000
,
00001000
00010000
00100000
01000000
,
00010000
00100000
01000000
10010000
,
00000000
00000000
00000000
00000000
;
#NOTES:
     dance-double:
     :
     Medium:
     10:
     :
00000000
00000000
00000000
00000000
,
00000000
00000000
00000000
00000000
,
00000000
00000000
00000000
00000000
,
00000000
00000000
00000000
00000000
,
00000000
00000000
00000000
00000000
,
00011000
00000000
00001000
00000000
00000100
00000010
00001000
00000001
,
00000000
00000010
00000000
00001000
00000000
00010000
00000010
00000000
,
00000100
00000000
00000000
00000100
00000000
00001000
00010000
00100000
,
00000000
01000000
00000000
01200000
00000000
00000000
01300000
00000000
,
00010000
00000000
10000000
00000000
00100000
01000000
00100000
00000000
,
00010000
00000000
00001000
00010000
00000000
00010000
00000100
00000000
,
00001000
00000001
00001000
00000000
00000010
00000100
00001000
00000000
,
00000100
00000000
00000001
00000010
00000000
00000100
00001000
00000000
,
00000010
00000000
00000100
00000000
00001000
00010000
00001000
00000000
,
00010000
00000000
01000000
10000000
00000000
00100000
01000000
00000000
,
00100000
00000000
10000000
00000000
00100000
01000000
00010000
00000000
,
00100000
00000000
00001000
00010000
00000000
00100000
00010000
00000000
,
00001000
00000000
00001000
00000000
00000100
00000010
00001000
00000001
,
00000000
00000011
00000000
00000101
00000000
00000100
00000010
00000000
,
00000010
00000000
00001000
00000000
00000010
00000100
00001000
00000000
,
00010000
00000000
00001000
00100000
00000000
00100000
00010000
00000000
,
01000000
00000000
01100000
00000000
00100000
10000000
01000000
00000000
,
00010000
00000000
01000000
10000000
00000000
00100000
01000000
00000000
,
00100000
00000000
00010000
00000000
00001000
00010000
00001000
00000100
,
00000000
00000010
00000000
00001010
00000000
00001000
00000001
00000000
,
00000010
00000000
00000010
00000000
00000100
00001000
00000010
00000000
,
00000100
00000000
00001000
00010000
00000000
00001000
00000100
00000000
,
00001000
00000000
00101000
00000000
00100000
00010000
00100000
00000000
,
01000000
00000000
10000000
00100000
00000000
00010000
00100000
00000000
,
01000000
00000000
01100000
00000000
00100000
00010000
00001000
00000000
,
00001000
00000000
00010000
00000100
00000000
00001000
00000100
00000000
,
00000010
00000000
00000110
00000000
00000100
00001000
00000010
00000000
,
00000100
00000000
00000001
00000010
00000000
00001000
00010000
00000000
,
00001000
00000000
00011000
00000000
00010000
00100000
00010000
00001000
,
00010000
00100000
10000000
10100000
,
10000000
00000000
00100000
00000000
01000000
00100000
00010000
00001000
,
00010000
00001000
00000100
00000110
,
00000010
00000000
00001000
00000000
00000001
00000100
00000010
00000000
,
00000100
00000000
00001000
00010000
00000000
00010000
00000100
00000000
,
00001000
00000000
00000001
00000000
00000010
00001000
00010000
00000000
,
00001000
00001000
00000000
00021000
00000000
00000000
00000000
00031000
,
00000000
00001000
00010000
00000000
00001000
00000000
00000000
00010000
,
00000000
00010000
00100000
01000000
00000000
00000000
00000000
00010000
,
00000000
00010000
00100000
00000000
00010000
00000000
00000000
00101000
,
00000000
00100000
01000000
10000000
00000000
00000000
00000000
00100000
,
00000000
00100000
10000000
00000000
00100000
00000000
00000000
01000000
,
00000000
01000000
00100000
00010000
00000000
00001000
00000000
00010000
,
00000000
00001000
00000100
00000010
00001000
00000000
00000000
00001001
,
00000000
00000001
00000010
00000200
00000000
00000000
00001300
00000000
,
00000010
00000100
00001000
00000000
00010000
00000000
00100000
00000000
,
01000000
00010000
10000000
10100000
,
00100000
00010000
00001000
00000000
00000100
00000000
00000010
00000000
,
00001000
00000001
00000010
00000110
,
00000100
00001000
00000010
00000000
00000100
00000000
00001000
00000000
,
00010000
00100000
01000000
01010000
,
00010000
10000000
00100000
00000000
00010000
00001000
00000100
00001000
,
00000000
00010000
00000000
00012000
00000000
00000000
00013000
00000000
,
00000100
00001000
00000100
00000000
00000010
00000000
00000001
00000100
,
00000000
00001000
00010000
00000000
00011000
00000000
00010000
00100000
,
00000000
10000000
00100000
00000000
00010000
00000000
00001000
00010000
,
00000000
00001000
00000000
00011000
00000000
00000000
00010000
00001000
,
00000000
00000100
00000010
00000000
00001000
00000000
00000001
00000010
,
00000000
00001000
00010000
00000000
00011000
00000000
00001000
00010000
,
00000000
00100000
10000000
00000000
10100000
00000000
10000000
00100000
,
00000000
01000000
00000000
01100000
00000000
00100000
10000000
00000000
,
00020000
00000000
00000000
00000000
00000000
00000000
00000000
00130000
,
00000000
00001000
00010000
00000000
00100000
00000000
00010000
00001000
,
00000000
00000100
00001000
00000000
00010000
00000000
00000100
00000010
,
00000000
00000001
00000010
00000000
00001000
00000000
00010000
00000100
,
00000000
00000010
00000100
00000000
00010000
00000000
00001000
00010000
,
00000000
00100000
10000000
00000000
00100000
00000000
00100000
10000000
,
00000000
00010000
00100000
00000000
01000000
00000000
10000000
00100000
,
00000000
00010000
00001000
00000000
00010000
00000000
00001000
00000100
,
00000000
00000001
00000010
00000100
00001000
00000000
00001100
00000000
,
00000001
00000000
00000010
00000000
00001000
00000000
00010000
00100000
,
00000000
01000000
10000000
00000000
01000000
00000000
01100000
00000000
,
00100000
00000000
00010000
00000000
00001000
00000000
00000100
00000001
,
00000000
00000010
00000100
00000000
00001000
00000000
00001010
00000000
,
00000010
00000000
00000100
00000000
00001000
00000000
00010000
00100000
,
00000000
00010000
00001000
00000000
00000100
00000000
00000101
00000000
,
00000001
00000000
00000010
00000000
00001000
00010000
00100000
00010000
,
00000000
00001000
00000000
00011000
00000000
00010000
00001000
00000000
,
00000000
00000000
00000000
00000000
;
#NOTES:
     dance-double:
     :
     Hard:
     12:
     :
00000000
00000000
00000000
00000000
,
00000000
00000000
00000000
00000000
,
00000000
00000000
00000000
00000000
,
00000000
00000000
00000000
00000000
,
00000000
00000000
00000000
00000000
,
00000100
00000000
00000000
00000000
00000110
00000000
00000000
00000010
00000001
00000000
00000100
00000000
00001000
00000000
00000100
00000000
,
00000000
00000100
00001000
00010000
00000000
00100000
10000000
01000000
,
00100000
10000000
00100000
00010000
00100000
00001000
00010000
00100000
,
00000000
00000000
00010000
00000000
00000000
00000000
00011000
00000000
00000000
00000000
00001000
00010000
00000100
00000000
00000000
00000000
,
00001000
00000010
00000010
00000100
00000001
00001000
00000010
00000100
,
00001000
00000000
00010000
00100000
00000000
01000000
10000000
00000000
,
01000000
00020000
00000000
00130000
01000000
10000000
00100000
10000000
,
01000000
00000000
00100000
00001000
00000000
00001000
00010000
00000000
,
00010000
00000100
00000100
00001000
00000010
00000100
00000100
00000001
,
00000010
00001000
00000010
00000001
00000000
00000001
00000100
00000000
,
00001000
00020000
00000000
00031000
00100000
00001000
00010000
00100000
,
01000000
00010000
10000000
00100000
00000000
00100000
10000000
00000000
,
00100000
00010000
00000000
00010000
00001000
00010000
00001000
00000100
,
00000010
00001010
00000000
00000101
00000000
00000001
00000010
00000100
,
00001000
00000020
00000000
00000130
00000001
00000100
00001000
00010000
,
00001000
00000000
00010000
00200000
00000000
00310000
00001000
00100000
,
01000000
10000000
00100000
10000000
01000000
00010000
01000000
10000000
,
00100000
00000000
00100000
00010000
00000000
00010000
00002000
00000000
,
00013000
00000010
00000000
00001000
00000010
00000100
00001000
00000100
,
00000010
00000000
00000010
00000000
00001000
00000000
00001001
00000000
00000000
00000000
00000001
00000100
00000001
00000000
00000000
00000000
,
00001000
00000100
00000010
00000001
00001000
00000010
00000100
00001000
,
00010000
00000000
00001000
00100000
00000000
00100000
01000000
00000000
,
10000000
00100000
00000000
00100000
01000000
10000000
01000000
00010000
,
00100000
00000000
00001000
00010000
00000000
00010000
00001000
00000000
,
00001000
00000100
00000001
00000010
00000100
00001000
00000000
00000100
,
00010000
00000010
00000100
00002000
00000000
00013000
00001000
00000000
,
00100000
00010000
00010000
01000000
00100000
00100000
10000000
00100000
,
01000000
00000000
10000000
00000000
01000000
00000000
00100000
00000000
00000000
00000000
00010000
00000000
00001000
00000000
00000000
00001000
,
00010000
00001000
00010000
00001000
00000100
00000010
00000100
00000001
,
00000000
00000011
00000000
00001001
00000000
00000010
00001000
00000100
,
00010000
00000010
00000100
00001000
00000100
00000001
00000010
00001000
,
00010000
00000000
00001000
00010000
00000000
00010000
01000000
10000000
,
00100000
00100000
10000000
00100000
01000000
00100000
00010000
00001000
,
00010000
00000000
00010000
00001000
00000000
00001000
00001100
00000000
,
00000100
00000000
00000001
00000000
00000000
00000000
00000010
00000100
00001000
00000000
00000010
00000000
00000100
00000000
00001000
00000000
,
00010000
00010000
00000000
00022000
00000000
00033000
00000000
00011000
,
00000000
00010000
00100000
00000000
02000000
00010000
03010000
10000000
,
00000000
10000000
00010000
00200000
00000000
01300000
10000000
00100000
,
00000000
00100000
00010000
00000000
00002000
00010000
00013000
00000010
,
00000000
00000000
00000100
00000000
00000001
00000000
00000010
00000000
00000000
00000100
00001000
00000000
00000010
00000000
00000100
00000000
,
00000000
00000100
00001000
00000000
00020000
00001000
00031000
00100000
,
00100000
01000000
10000000
00100000
00000000
01000000
00010000
00100000
,
00000000
00100000
00010000
01000000
00100000
00000000
00000000
00110000
,
00000000
00000000
00010000
00000000
00001000
00000000
00000010
00000000
00000000
00000001
00001000
00000000
00000001
00000000
00000000
00000000
,
00001000
00000010
00000100
00001000
00010000
00001000
00100000
00010000
,
01000000
00100000
00010000
00001000
00000000
00001000
00010000
00001000
,
00000100
00000001
00000010
00001000
00010000
00000010
00000100
00001000
,
00010000
00100000
10000000
00010000
00100000
01000000
00000000
01000000
,
00100000
00010000
10000000
00100000
00010000
00001000
00000100
00000010
,
00000100
00001000
00010000
00000100
00000000
00000100
00001000
00000001
,
00000010
00001000
00010000
00001000
00000100
00001000
00010000
01000000
,
00000000
00110000
00000000
10010000
00000000
10000000
00100000
00000000
,
00010000
00100000
10000000
01000000
00020000
00000000
00031000
00000200
,
00000000
00000310
00001000
00000002
00000000
00000013
00000010
00000200
,
00000000
00001300
00000001
00000010
00001000
00010000
00001000
00011000
,
00000000
00101000
00000000
00110000
00000000
00010000
01000000
00200000
,
00000000
10300000
00100000
01000000
00020000
00000000
00130000
02000000
,
00000000
03010000
00001000
00010000
00000000
00010000
00001000
00000200
,
00000000
00001300
00000100
00000001
00000020
00000000
00000130
00001000
,
00000000
00000000
00001010
00000000
00000000
00000000
00010100
00000000
00000000
00000000
00010000
00001000
00010000
00000000
00000000
00000000
,
00002000
00000000
00000000
00000000
00000000
00003000
00000000
00101000
,
00000000
00100000
01000000
00000000
20000000
00100000
30100000
01000000
,
00000000
01000000
00001000
00010000
00000000
00100000
00010000
00001000
,
00000000
00001000
00010000
00000000
00002000
00000100
00003100
00000001
,
00000000
00000000
00000010
00000000
00000100
00000000
00001000
00000000
00000000
00001000
00000010
00000000
00000100
00000000
00001000
00000000
,
00000000
00001000
00010000
00000000
00200000
10000000
10300000
01000000
,
00000000
01000000
00010000
01000000
00000000
10000000
00100000
00010000
,
00000000
00100000
00010000
00001000
00000100
00000000
00000000
00001001
,
00000000
00000000
00000001
00000000
00000100
00000000
00001000
00000000
00000000
00001000
00010000
00000000
00001000
00000000
00000000
00000000
,
00010000
00100000
01000000
00100000
10000000
01000000
00010000
01000000
,
00100000
00001000
00010000
00001000
00000000
00001000
00000100
00000010
,
00001000
00000001
00000010
00000100
00001000
00000010
00000100
00001000
,
00010000
00001000
00100000
00001000
00010000
00100000
00000000
00100000
,
10000000
00010000
01000000
00100000
01000000
00001000
00010000
00001000
,
00000100
00000001
00000000
00000001
00001000
00000010
00000100
00000001
,
00000010
00000100
00001000
00000010
00001000
00000100
00010000
00001000
,
00000000
00011000
00000000
00101000
00000000
00010000
01000000
00000000
,
00000000
00000000
00000000
00000000
;
