
//----- song id: llcu
#TITLE:ラブラブキュートなハピハピサンデー;
#ARTIST:Lisapyon♡ 【長野】;
#TITLETRANSLIT:Love love cute na happy happy sunday;
#ARTISTTRANSLIT:Lisapyon♡ [Nagano];
#BANNER:Love love cute na happy happy sunday.png;
#BACKGROUND:Love love cute na happy happy sunday-bg.png;
#CDTITLE:./CDTitles/DDR (2014).png;
#MUSIC:Love love cute na happy happy sunday.ogg;
#SAMPLESTART:53.818;
#SAMPLELENGTH:15;
#BPMS:0=165;
#NOTES:
     dance-single:
     :
     Beginner:
     3:
     :
0000
0000
0000
0000
,
0000
0000
0000
0000
,
0000
0000
0000
0000
,
0000
0000
0000
0000
,
0000
0000
0000
0000
,
0001
0000
0001
0000
,
1000
1000
1000
0000
,
1000
1000
1000
0000
,
0001
0001
0001
0000
,
1000
0000
1000
0000
,
1000
1000
1000
0000
,
0001
0001
0001
0000
,
1000
1000
1000
0000
,
0010
0000
0010
0000
,
0001
0001
0001
0000
,
1000
0000
0001
0000
,
1000
0000
1000
0000
,
0001
0000
0100
0000
,
1000
1000
1000
0000
,
0010
0000
0001
0000
,
1000
1000
1000
0000
,
0010
0010
0010
0000
,
0010
0010
0010
0000
,
0010
0010
0010
0000
,
0010
0010
0010
0000
,
0001
0001
0001
0000
,
0100
0100
0100
0000
,
1000
0000
0100
0000
,
0001
0000
0100
0000
,
0010
0010
0010
0000
,
0100
0100
0100
0000
,
1000
0000
0100
0000
,
0001
0000
0010
0000
,
0001
0001
0000
0000
,
1000
1000
0000
0000
,
0001
0000
1000
0000
,
0001
0000
1000
0000
,
1000
1000
1000
0000
,
0001
0001
0001
0000
,
0001
0000
1000
0000
,
0001
0000
1000
0000
,
0010
0000
0010
0000
,
1000
1000
1000
0000
,
0001
0000
0001
0000
,
0001
0001
0001
0000
,
1000
1000
1000
0000
,
0001
0001
0001
0000
,
0001
0000
1000
0000
,
0001
0000
1000
0000
,
0010
0000
0010
0000
,
1000
1000
1000
0000
,
0001
0000
0001
0000
,
0001
0001
0001
0000
,
0001
0000
1000
0000
,
0001
0000
1000
0000
,
1001
0000
0000
0000
,
1000
0000
0001
0000
,
1000
0000
0000
0000
,
0000
0000
0000
0000
;
#NOTES:
     dance-single:
     :
     Easy:
     5:
     :
0000
0000
0000
0000
,
0000
0000
0000
0000
,
0000
0000
0000
0000
,
0000
0000
0000
0000
,
0000
0000
0000
0000
,
0001
0001
1000
0000
,
0001
1000
0002
0003
,
1000
1000
1000
0000
,
0001
0001
0001
0000
,
1000
1000
0001
0000
,
1000
0001
2000
3000
,
0001
0001
0001
0000
,
1000
1000
1000
0000
,
0010
0001
0010
0001
,
0001
0010
0001
0000
,
1000
1000
0001
0001
,
1000
0001
1000
0000
,
0001
0000
0100
0000
,
1000
1000
0100
0000
,
0010
0000
0001
0000
,
1000
1000
1000
0000
,
0010
0001
0010
0000
,
0010
1000
0010
0000
,
0010
0001
0010
0000
,
0010
1000
0010
0000
,
0010
0100
0100
0000
,
0010
0010
0100
0000
,
1000
0000
0100
0000
,
0001
0000
0100
0000
,
0010
0001
0010
0000
,
0010
1000
0010
0000
,
1000
0000
0100
0000
,
0001
0000
0010
0000
,
0001
0001
1000
1000
,
0001
0001
1000
0000
,
0001
0001
1000
1000
,
0001
0001
1000
0000
,
1000
1000
1000
0000
,
0001
0001
0001
0000
,
0001
0100
1000
0100
,
0001
0100
1000
0000
,
0010
0000
0010
0000
,
1000
1000
0001
0000
,
0001
0000
1000
0000
,
0001
0001
1000
0000
,
0001
0010
0100
0000
,
1000
0010
0100
0000
,
0001
0100
1000
0100
,
0001
0100
1000
0000
,
0001
0001
1000
0000
,
0001
0001
1000
0001
,
1000
0100
0010
0001
,
1000
0000
1000
0000
,
0000
0001
0000
1000
,
0000
0001
0000
1000
,
1001
0000
0110
0000
,
1000
1000
0001
0001
,
0000
0000
0000
0000
;
#NOTES:
     dance-single:
     :
     Medium:
     7:
     :
0000
0000
0000
0000
,
0000
0000
0000
0000
,
0000
0000
0000
0000
,
0000
0000
0000
0000
,
0000
0000
0000
0000
,
0001
0001
1000
1000
,
0001
1000
0002
0103
,
1000
0000
1000
0000
1000
0100
0100
0000
,
0001
0000
0001
0000
0001
0100
0100
0000
,
1000
1000
0001
0001
,
1000
0001
2000
3100
,
0001
0000
0001
0000
0001
0100
0100
0000
,
1000
0000
1000
0000
1000
0100
0100
0000
,
1000
0001
0100
0001
,
0001
0010
0100
1000
,
1000
1000
0001
0001
,
1000
1000
0100
0000
,
0001
0100
0001
0000
0100
0000
1000
0000
,
1000
1000
0100
0000
,
0110
0000
0011
0000
,
0010
0100
0010
0100
0010
0000
0000
0000
,
0010
0000
0000
1000
0100
0000
0000
0000
,
0010
0000
0000
0001
0100
0000
0000
0000
,
0001
0000
0000
1000
0100
0000
0000
0000
,
1000
0000
0000
0100
0010
0000
0000
0000
,
0010
0000
0000
0001
0100
0000
0000
0000
,
0010
0000
0000
1000
0100
0000
0000
0000
,
1000
0000
0000
0001
0100
0000
0000
0000
,
0001
0000
0000
0010
0100
0000
0000
0000
,
0010
0000
0000
0001
0100
0000
0000
0000
,
0010
0000
0000
1000
0100
0000
0000
0000
,
1000
0000
0000
0001
0100
0000
0000
0000
,
0001
0000
0000
0100
0010
0000
0000
0000
,
0101
0101
1000
1000
,
0001
1000
0001
1000
0000
0000
0000
0000
,
1100
1100
0001
0001
,
1000
0001
1000
0001
0000
0000
0000
0000
,
1000
0000
0100
1000
0000
0000
0001
0000
,
1000
0001
1000
0001
,
0001
0000
0100
0001
0000
0000
1000
0000
,
0001
1000
0001
0100
,
0010
0010
0010
0010
,
1000
0001
1000
0000
0001
0000
0001
0000
,
0101
0000
1100
0000
,
0001
1000
0001
1000
,
0001
0010
0100
1000
,
1000
0010
0100
0001
,
0001
0100
1000
0100
,
0001
0100
1000
0000
0100
0000
0001
0000
,
0001
0001
1000
1000
,
0001
0000
0001
1000
0000
0000
0001
0000
,
1000
0100
0010
0001
,
1000
0100
0000
0011
0000
0000
0011
0000
,
1000
0100
0001
0000
0100
0000
1000
0000
,
1000
0100
0001
0000
0100
0000
1000
0000
,
1100
0000
0101
0000
,
1100
1100
0101
0101
,
0010
0000
0000
0000
,
0000
0000
0000
0000
;
#NOTES:
     dance-single:
     :
     Hard:
     11:
     :
0000
0000
0000
0000
,
0000
0000
0000
0000
,
0000
0000
0000
0000
,
0000
0000
0000
0000
,
0000
0000
0000
0000
,
0001
0000
1000
0100
0010
0100
1000
0100
,
0010
0000
0001
0100
1000
0000
0100
0000
,
0001
0010
0100
1000
0010
0000
1000
0001
,
1000
0010
0100
0001
1000
0001
1000
0001
,
1000
0000
0001
0100
0010
0100
0001
0100
,
0010
0000
1000
0100
0001
0000
0100
0000
,
1000
0010
0100
0001
0010
0000
0001
1000
,
0001
0010
0100
1000
0001
1000
0001
1000
,
0001
1000
0100
0000
1000
0000
0001
0000
,
1000
0010
0100
0001
0010
0100
0010
0000
,
0011
1100
1010
0101
,
0001
1000
0000
0001
1000
0001
0100
0010
,
1000
0100
0010
0001
0010
0000
0010
0000
,
1000
0100
0010
0001
0020
0000
0031
0000
,
1000
0001
0100
0000
0001
1000
0100
0000
,
1000
0010
0100
0001
0100
0000
1001
0000
,
0100
0010
0100
0010
0100
0000
0100
0000
,
0001
0010
0100
1000
0100
0000
0100
0000
,
0001
0100
0010
1000
0100
0000
0100
0000
,
1000
0001
0010
0100
0010
0000
0010
0000
,
0010
0100
0010
1000
0100
0000
0100
0000
,
0010
0001
0010
0001
0100
0000
0100
0000
,
1000
0000
0000
0001
0100
0000
0000
1000
,
0100
0000
0000
0001
0100
0001
1000
0100
,
0010
0001
0010
0001
1000
0000
1000
0000
,
0001
0100
0001
0100
0001
0000
0001
0000
,
1000
0100
0001
0100
1000
0000
0001
0000
,
1000
0001
1000
0100
0001
0000
0100
0000
,
1100
1100
0101
0101
,
0001
0100
0001
1000
0000
0001
0010
0001
,
1100
1100
0001
0001
,
1000
0100
0001
0100
1000
0100
0001
0000
,
1001
0000
0100
1000
0010
0100
0001
0000
,
1000
0100
0010
0001
0100
0010
0001
0000
,
0011
0100
1100
1000
,
0001
0010
0100
1000
0001
0010
0100
0000
,
0010
0100
0010
0100
0010
0100
0010
0000
,
1000
0001
1000
0001
0100
0000
0001
0000
,
0001
0100
1000
0000
0100
0000
0001
0010
,
0001
1000
0000
0001
1000
0000
1001
0000
,
0001
0010
0100
0010
0001
1000
0100
0010
,
0001
0010
0100
0010
0001
0100
1000
0100
,
0001
0100
0001
0000
0100
1000
0100
0000
,
0001
0100
1000
0000
1100
0000
0101
0000
,
0001
0100
0001
0000
0010
0100
1000
0000
,
0001
0100
0001
1000
0100
0010
0001
0000
,
1000
0100
0100
0000
0001
0000
0100
0000
,
1000
0100
0000
0001
0100
0000
0000
0000
,
1000
0001
0100
0000
0100
0001
1000
0000
,
1000
0100
0001
0000
0100
1000
0001
0000
,
0101
0000
1001
0000
,
1100
0000
1100
0000
0010
0100
0010
0001
,
0010
0000
0000
0000
,
0000
0000
0000
0000
;
#NOTES:
     dance-double:
     :
     Easy:
     6:
     :
00000000
00000000
00000000
00000000
,
00000000
00000000
00000000
00000000
,
00000000
00000000
00000000
00000000
,
00000000
00000000
00000000
00000000
,
00000000
00000000
00000000
00000000
,
00010000
00010000
00001000
00001000
,
00010000
00001000
00020000
00030000
,
00001000
00001000
00001000
00000000
,
00010000
00010000
00010000
00000000
,
00010000
00100000
10000000
00000000
,
10000000
00010000
10000000
01000000
,
00010000
00001000
00000100
00000000
,
00000001
00000100
00001000
00000000
,
00100000
00001000
00100000
00001000
,
00001000
00100000
00010000
00000000
,
10000000
10000000
00010000
00010000
,
00000100
00000100
00000100
00000000
,
00000001
00000000
00000100
00000000
,
00001000
00010000
01000000
00000000
,
10000000
00000000
01000000
00000000
,
10000000
01000000
00010000
00000000
,
00001000
00000100
00000001
00000001
,
00000001
00000100
00001000
00011000
,
00010000
00100000
10000000
10000000
,
10000000
10000000
00100000
10100000
,
10000000
01000000
00010000
00001000
,
00001000
00000100
00000001
00000001
,
00000001
00000000
00001000
00000000
,
00010000
00000000
10000000
00000000
,
10000000
01000000
00010000
00000000
,
00001000
00000010
00000001
00000000
,
00000001
00000000
00000100
00000000
,
00001000
00000000
00010000
00000000
,
00010000
00001000
00011000
00011000
,
00010000
00010000
00001000
00001000
,
00011000
00011000
00001000
00001000
,
00010000
00010000
00001000
00000000
,
00010000
01000000
10000000
00000000
,
10000000
01000000
00010000
00000000
,
00001000
00000100
00000001
00000100
,
00001000
00000100
00000001
00000000
,
00000001
00000000
00000100
00000000
,
00010000
00000000
00100000
00000000
,
00010000
01000000
00010000
10000000
,
01000000
00010000
00001000
00000010
,
00000001
00000001
00000001
00000000
,
00000001
00000010
00001000
00010000
,
00100000
01000000
00010000
10000000
,
00010000
01000000
10000000
00000000
,
10000000
01000000
00010000
00000000
,
00001000
00000100
00000001
00001000
,
00000001
00000100
00001000
00010000
,
01000000
10000000
10000000
00000000
,
00000000
01000000
00000000
00010000
,
00000000
00001000
00000000
00000010
,
00000110
00000000
00001100
00000000
,
00001000
00010000
01000000
10000000
,
00000000
00000000
00000000
00000000
;
#NOTES:
     dance-double:
     :
     Medium:
     8:
     :
00000000
00000000
00000000
00000000
,
00000000
00000000
00000000
00000000
,
00000000
00000000
00000000
00000000
,
00000000
00000000
00000000
00000000
,
00000000
00000000
00000000
00000000
,
00010000
00000000
00100000
00000000
10000000
01000000
00010000
00000000
,
00001000
00000100
00000002
00000103
,
00001000
00000000
00001000
00000000
00000001
00000100
00001000
00000000
,
00010000
00000000
01000000
00000000
10000000
01000000
01000000
00000000
,
10000000
00000000
10000000
00000000
10000000
01000000
00010000
00000000
,
00001000
00000100
00000002
00000103
,
00000001
00000000
00000001
00000000
00000001
00000100
00001000
00000000
,
00010000
00000000
01000000
00000000
10000000
01000000
01000000
00000000
,
00010000
10000000
01000000
00010000
,
00001000
00000100
00000001
00001000
,
00001000
00000001
00000010
00001000
,
00010000
00100000
01000000
00000000
,
00010000
01000000
00010000
00000000
10000000
00000000
01000000
00000000
,
00010000
00001000
00000100
00000000
,
00000110
00000000
00001010
00000000
,
00001000
00010000
00001000
00010000
01000000
00000000
00000000
00000000
,
00100000
00000000
00000000
00010000
01000000
00000000
00000000
00000000
,
10000000
00000000
00000000
01000000
00001000
00000000
00000000
00000000
,
00010000
00000000
00000000
00001000
00000100
00000000
00000000
00000000
,
00000001
00000000
00000000
00000100
00000010
00000000
00000000
00000000
,
00001000
00000000
00000000
00010000
01000000
00000000
00000000
00000000
,
10000000
00000000
00000000
01000000
00010000
00000000
00000000
00000000
,
00001000
00000000
00000000
00000100
00000001
00000000
00000000
00000000
,
00001000
00000000
00000000
00000010
00000100
00000000
00000000
00000000
,
00000001
00000000
00000000
00000100
00001000
00000000
00000000
00000000
,
00010000
00000000
00000000
00100000
01000000
00000000
00000000
00000000
,
00010000
00000000
00000000
10000000
01000000
00000000
00000000
00000000
,
10000000
00000000
00000000
01000000
00010000
00000000
00000000
00000000
,
00011000
00011000
00000100
00000100
,
00010000
00001000
00010000
00001000
00000000
00000000
00000000
00000000
,
00011000
00011000
01000000
01000000
,
00001000
00010000
00001000
00010000
00000000
00000000
00000000
00000000
,
01000000
00000000
10000000
00100000
00000000
00000000
00010000
00000000
,
10000000
01000000
00010000
00001000
,
00000100
00000000
00000001
00000010
00000000
00000000
00001000
00000000
,
00000001
00000100
00001000
00010000
,
00100000
10000000
00100000
00010000
,
10000000
01000000
00010000
00000000
00001000
00000000
00000100
00000000
,
00000101
00000000
00001010
00000000
,
00010000
00001000
00010000
00001000
,
00010000
00100000
01000000
10000000
,
10000000
01000000
00010000
00001000
,
00000100
00000001
00001000
00000100
,
00000001
00000100
00001000
00000000
00010000
00000000
01000000
00000000
,
10000000
10000000
10000000
10000000
,
01000000
00000000
00010000
00001000
00000000
00000000
00000100
00000000
,
00000001
00000100
00000010
00000001
,
00000100
00000000
00001000
00010000
00000000
00000000
00000000
00000000
,
00010000
01000000
10000000
00000000
01000000
00000000
10000000
00000000
,
10000000
01000000
00010000
00000000
00001000
00000000
00000100
00000000
,
00000101
00000000
00001100
00000000
,
00000101
00001100
00011000
00100000
,
00001000
00000000
00000000
00000000
,
00000000
00000000
00000000
00000000
;
#NOTES:
     dance-double:
     :
     Hard:
     11:
     :
00000000
00000000
00000000
00000000
,
00000000
00000000
00000000
00000000
,
00000000
00000000
00000000
00000000
,
00000000
00000000
00000000
00000000
,
00000000
00000000
00000000
00000000
,
00000001
00000100
00001000
00000000
00010000
00000000
01000000
00000000
,
00010000
01000000
00010000
00000000
10000000
00000000
01000000
00010000
,
00001000
00000010
00000001
00001000
00000010
00000000
00001001
00000000
,
00001000
00000010
00000100
00000001
00001000
00000001
00000100
00001000
,
00010000
01000000
10000000
00000000
00110000
00000000
11000000
00000000
,
10000000
01000000
10000000
00000000
00010000
00000000
10000000
01000000
,
00010000
00001000
00000100
00000001
00000010
00000000
00001001
00000000
,
00001000
00000010
00000100
00000001
00001000
00000001
00000100
00001000
,
00010000
01000000
10000000
00000000
10000000
00000000
00010000
00000000
,
10000000
00100000
01000000
00010000
10000000
01000000
00010000
00000000
,
00011000
00000110
00000011
00000100
,
00000001
00000100
00000000
00010000
00100000
00010000
01000000
00100000
,
10000000
01000000
00100000
00010000
00100000
00000000
00100000
00010000
,
10000000
01000000
00010000
00001000
00000010
00000000
00000001
00000000
,
00000001
00000100
00001000
00000000
00010000
01000000
10000000
00000000
,
10000000
00100000
01000000
00010000
01000000
00000000
00011000
00000000
,
00001000
00010000
00001000
00010000
00001000
00000000
00000100
00000000
,
00000001
00000010
00000100
00001000
00000100
00000000
00000100
00000000
,
00010000
00001000
00100000
00010000
01000000
00000000
01000000
00000000
,
10000000
00010000
00100000
01000000
00100000
00000000
00100000
00000000
,
00001000
00010000
00000010
00001000
00000100
00000000
00000100
00000000
,
00000010
00000001
00000010
00000001
00000100
00000000
00000100
00000000
,
00000001
00000000
00000000
00000100
00001000
00000000
00000000
00010000
,
01000000
00000000
00000000
10000000
01000000
00000000
10000000
00000000
,
10000000
01000000
00010000
00001000
00000100
00000000
00000001
00000000
,
00000001
00000100
00001000
00000100
00000001
00000000
00000001
00000000
,
00000001
00000100
00001000
00010000
01000000
00000000
10000000
00000000
,
10000000
00010000
10000000
01000000
00010000
00001000
00000100
00000001
,
00000011
00000010
00001000
00011000
,
00010000
00001000
00010000
00001000
00000000
00010000
00100000
00010000
,
11000000
11000000
00010000
00010000
,
10000000
01000000
00010000
00001000
00000100
00000001
00000100
00000000
,
00001001
00000000
00000100
00000001
00000010
00000100
00010000
00000000
,
00000010
00000100
00000010
00001000
00000001
00000010
00001000
00000000
,
00011000
01100000
10000000
10000000
,
10000000
00100000
00010000
00001000
00000100
00000001
00000100
00000000
,
00000001
00000010
00000001
00000000
00000010
00010000
00000010
00000000
,
00001000
00010000
00001000
00010000
01000000
00000000
10000000
00000000
,
00010000
01000000
10000000
00000000
01000000
00000000
00001000
00000000
,
00010000
00001000
00000000
00000100
00000001
00000000
00000001
00000000
,
00001001
00000000
00000100
00000001
00000010
00000100
00010000
00000000
,
00000010
00000100
00000010
00001000
00000001
00000010
00001000
00000000
,
00011000
01100000
10000000
10000000
,
10000000
00100000
00010000
00001000
00000100
00000001
00000100
00000000
,
00000001
00000010
00000001
00000000
00000010
00010000
00000010
00000000
,
00001000
00010000
00001000
00010000
01000000
00000000
10000000
00000000
,
00010000
01000000
10000000
00000000
01000000
00000000
00001000
00000000
,
00010000
00001000
00000000
00000100
00000001
00000000
00001000
00000000
,
00000001
00000100
00001000
00000000
00010000
01000000
10000000
00000000
,
10000000
01000000
00010000
00000000
00001000
00000000
00010000
00000000
,
00011000
00000000
00010100
00000000
,
00000101
00000000
00000101
00000000
00000001
00000100
00001000
00010000
,
00001000
00000000
00000000
00000000
,
00000000
00000000
00000000
00000000
;
