
//----- song id: rusy
#TITLE:ルシャナの気持ち;
#ARTIST:Le Siana 【奈良】;
#TITLETRANSLIT:Le Siana no kimochi;
#ARTISTTRANSLIT:Le Siana [Nara];
#BANNER:Le Siana no kimochi.png;
#BACKGROUND:Le Siana no kimochi-bg.png;
#CDTITLE:./CDTitles/DDR (2014).png;
#MUSIC:Le Siana no kimochi.ogg;
#SAMPLESTART:68.009;
#SAMPLELENGTH:15;
#BPMS:0=172;
#NOTES:
     dance-single:
     :
     Beginner:
     2:
     :
0000
0000
0000
0000
,
0000
0000
0000
0000
,
0000
0000
0000
0000
,
0000
0000
0000
0000
,
0000
0000
0000
0000
,
0000
0000
0000
0000
,
0000
0000
0000
0000
,
0001
0000
0001
0000
,
0001
0000
0000
0000
,
1000
0000
1000
0000
,
1000
0000
0000
0000
,
0100
0000
0000
0000
,
0000
0000
0000
0000
,
0000
0000
0000
0000
,
0000
0000
0000
0000
,
1000
0000
1000
0000
,
1000
0000
0000
0000
,
0001
0000
0001
0000
,
0001
0000
0000
0000
,
1000
0000
1000
0000
,
1000
0000
0000
0000
,
0100
0000
0000
0000
,
0100
0000
0000
0000
,
0001
0000
0001
0000
,
0001
0000
0000
0000
,
1000
0000
1000
0000
,
1000
0000
0000
0000
,
0001
0000
0001
0000
,
0001
0000
0000
0000
,
0100
0000
0000
0000
,
0100
0000
0000
0000
,
1000
0000
0000
0000
,
0100
0000
0000
0000
,
0001
0000
0000
0000
,
0100
0000
0100
0000
,
0100
0000
0000
0000
,
1000
0000
0000
0000
,
0100
0000
0000
0000
,
0001
0000
0001
0000
,
0001
0000
0000
0000
,
1000
0000
0000
0000
,
0001
0000
0001
0000
,
0001
0000
0000
0000
,
0100
0000
0000
0000
,
1000
0000
0000
0000
,
0100
0000
0100
0000
,
0100
0000
0000
0000
,
0010
0000
0010
0000
,
0010
0000
0000
0000
,
1000
0000
1000
0000
,
1000
0000
1000
0000
,
0001
0000
0001
0000
,
0001
0000
0001
0000
,
1000
0000
0000
0000
,
0001
0000
0000
0000
,
0010
0000
0010
0000
,
0010
0010
0010
0000
,
0001
0000
0001
0000
,
0001
0000
0001
0000
,
1000
0000
1000
0000
,
1000
0000
1000
0000
,
0001
0000
0000
0000
,
1000
0000
0000
0000
,
0100
0000
0100
0000
,
0100
0100
0100
0000
,
1000
0000
1000
0000
,
1000
0000
0000
0000
,
0001
0000
0001
0000
,
0001
0000
0000
0000
,
0100
0000
0100
0000
,
0100
0000
0000
0000
,
1000
0000
1000
0000
,
0001
0000
0001
0000
,
1001
0000
0000
0000
,
0000
0000
0000
0000
;
#NOTES:
     dance-single:
     :
     Easy:
     5:
     :
0000
0000
0000
0000
,
0000
0000
0000
0000
,
0000
0000
0000
0000
,
0000
0000
0000
0000
,
0000
0000
0000
0000
,
0000
0000
0000
0000
,
0000
0000
0000
0000
,
1000
0000
0100
0000
,
0001
0000
0100
0000
,
0010
0000
0010
0000
,
0100
0100
0100
0100
,
0010
0000
0000
0000
,
0000
0000
0000
0000
,
0000
0000
0000
0000
,
0000
0000
0000
0000
,
1000
1000
0010
0000
,
1000
1000
1000
0000
,
0001
0001
0010
0000
,
0001
0001
0001
0000
,
1000
0100
0100
0000
,
0001
0100
0100
0000
,
1000
0001
1000
0000
,
0010
0100
0010
0000
,
1000
0001
0100
0000
,
1000
1000
1000
0000
,
0001
1000
0100
0000
,
1000
0100
0100
0000
,
0010
0100
0010
0000
,
0001
0001
0001
0000
,
1000
0100
0100
0000
,
0001
0100
0100
0000
,
0020
0000
0000
0030
,
2000
0000
0000
3000
,
0002
0000
0000
0003
,
0200
0300
0020
0030
,
0200
0000
0000
0300
,
0002
0000
0000
0003
,
2000
0000
0000
3000
,
0200
0300
0020
0030
,
0001
0000
0001
1000
,
0100
0000
0100
0001
,
1000
0000
1000
0001
,
0100
0000
0100
0010
,
0001
0000
0001
0100
,
0010
0000
0010
0100
,
1000
1000
1000
0000
,
0001
0001
0001
0000
,
0100
0100
0100
0100
,
0020
0000
0030
0000
,
0001
1000
0001
1000
,
0001
1000
0100
0000
,
0010
0100
0010
0100
,
0010
0100
1000
1000
,
0100
0000
0010
0010
,
0001
0000
0100
0100
,
0020
0000
0100
0030
,
0001
0010
0100
1000
,
0001
0100
0001
0100
,
0001
1000
0100
0000
,
0010
1000
0010
1000
,
0010
0100
1000
1000
,
0001
0000
0010
0010
,
0100
0000
1000
0000
,
0001
0100
1000
0100
,
0010
0100
0001
1000
,
0100
0100
0100
0000
,
0010
0001
0010
0000
,
0001
0001
0001
0000
,
0100
0001
0100
0000
,
0100
0100
0100
0000
,
0010
0100
0010
0000
,
1000
1000
1000
0000
,
0001
0001
0010
0100
,
2002
0000
0000
0000
,
0000
0000
0000
0000
,
3003
0000
0000
0000
,
0000
0000
0000
0000
;
#NOTES:
     dance-single:
     :
     Medium:
     8:
     :
0000
0000
0000
0000
,
0000
0000
0000
0000
,
0000
0000
0000
0000
,
0000
0000
0000
0000
,
0000
0000
0000
0000
,
0000
0000
0000
0000
,
0000
0000
0000
0000
,
0010
1001
0000
0010
,
0100
1001
0000
0010
,
0100
1001
0000
0010
,
1000
0100
0010
0001
,
2002
0000
0000
0000
,
3003
0000
0000
0000
,
0000
0000
0000
0000
,
0000
0000
0000
0000
,
1000
0010
0010
1000
,
0000
0010
0010
0001
,
0000
0010
1000
0100
,
0010
0000
0001
1000
0000
0000
0100
0000
,
0010
0000
0001
1000
0000
0000
0010
0000
,
0100
0000
0001
1000
0000
0000
0100
0000
,
1000
0100
1000
0001
,
0100
0001
1000
0000
,
1000
0100
0100
1000
,
0001
0000
0100
0001
0100
0000
0001
0000
,
0000
0001
0100
0010
,
1000
0000
0010
1000
0010
0000
1000
0000
,
0000
0010
0100
1000
,
0010
0010
0010
0100
,
0001
1001
0000
1001
,
0100
0010
1000
0100
,
0010
0000
0000
0001
0000
0000
0100
0000
,
0010
0000
0000
1000
0000
0000
0100
0000
,
0010
0000
0000
0001
0000
0000
1000
0000
,
0010
0000
0000
0100
0000
0000
1001
0000
,
0100
0000
0000
1000
0000
0000
0010
0000
,
0100
0000
0000
0001
0000
0000
0010
0000
,
0100
0000
0000
1000
0000
0000
0001
0000
,
0100
0000
0000
0010
0000
0000
1001
0000
,
0200
0000
0000
0010
0000
0000
0310
0000
,
2000
0000
0000
0001
0000
0000
3001
0000
,
0020
0000
0000
0100
0000
0000
0130
0000
,
0002
0000
0000
1000
0000
0000
0103
0000
,
0020
0000
0000
2030
0000
0000
3100
0000
,
0020
0000
0000
0032
0000
0000
1003
0000
,
0010
0010
1000
0001
,
0100
0100
0001
1000
,
0001
0100
1000
0010
,
0220
0000
0330
0000
,
0001
0100
1000
0100
,
0001
1100
0011
1100
,
1000
0010
0001
0010
,
1000
0101
1010
0101
,
1000
0000
0001
0000
,
0100
0001
1000
0100
,
2000
0100
3002
0100
,
1003
0000
0010
0000
0001
0100
0001
0000
,
1000
0100
0001
0010
,
1000
1010
0101
1010
,
0001
0100
1000
0010
,
0001
0011
1100
0011
,
0200
0310
0200
0310
,
0200
0010
0001
1300
,
0100
0000
0010
0000
1000
0001
1000
0000
,
1001
0010
0100
0000
,
1100
0001
0100
1000
,
0001
1000
0100
0001
,
1010
0001
0010
1000
,
0001
1000
0010
0001
,
0110
0001
1000
0100
,
1000
0010
0001
0100
,
1010
0000
0100
0001
0100
0000
0010
0000
,
1000
0000
0001
0000
0010
0001
0010
0001
,
2000
0000
0000
0000
,
0000
0000
0000
0000
,
3000
0000
0000
0000
,
0000
0000
0000
0000
;
#NOTES:
     dance-single:
     :
     Hard:
     11:
     :
0000
0000
0000
0000
,
0000
0000
0000
0000
,
0000
0000
0000
0000
,
0000
0000
0000
0000
,
0000
0000
0000
0000
,
0000
0000
0000
0000
,
0000
0000
0000
0000
,
1001
0000
0100
0001
0100
0001
0100
0000
,
0100
0000
0100
1000
0100
1000
0100
0000
,
0100
0000
0010
0100
0020
0000
0000
0000
,
0100
0100
0130
0110
,
1100
0001
0000
0001
,
0000
0001
0000
0001
,
0000
0000
0001
0000
0000
0000
0001
1000
,
0000
0010
0001
0100
0010
1000
0001
0000
,
1000
0000
0001
0000
0001
0000
0100
0010
,
1000
0000
0001
0000
0001
0000
0010
0100
,
1000
0001
0100
1000
,
0010
0000
0001
0100
0001
0001
0010
0100
,
1000
0000
1000
0010
1000
1000
0010
0100
,
0001
0100
0010
1000
0001
0000
0001
1000
,
0010
0100
0000
1001
0000
0000
1000
0001
,
0100
0010
0000
1001
0000
0100
0010
0000
,
1000
0001
0100
1000
,
0010
0000
0001
0100
1000
0000
0100
0000
,
0001
0000
1000
0100
0010
0000
0010
0001
,
0100
0000
0100
0010
1000
0000
1000
0100
,
0010
0000
0001
0100
1000
0000
0100
0000
,
0010
0000
1000
0100
0001
0000
0100
0000
,
1001
0100
0001
1000
,
0010
0000
1000
0001
0100
0000
0010
0000
,
0110
0000
0000
0100
0100
0000
0010
0000
,
1100
0000
0000
0100
0100
0000
0010
0000
,
0101
0000
0000
0100
0100
0000
0010
0000
,
1001
0000
0000
0100
0100
0000
0010
0000
,
1010
0000
0000
1000
0100
0000
0011
0000
,
1001
0000
0000
0001
0100
0000
1010
0000
,
1001
0000
0000
0010
0100
0000
1001
0000
,
0010
0000
1000
0001
0100
0010
1000
0001
,
0100
0000
0000
0010
0100
0001
0010
0000
,
1100
0000
0000
0010
0100
1000
0010
0000
,
0101
0000
0000
0010
1000
0100
0010
0100
,
1000
0001
0010
0100
,
1100
0000
0000
0001
0100
1000
0100
0000
,
0101
0000
0000
1000
0100
0001
0100
1000
,
0001
1000
0001
1000
,
0100
0010
0100
0010
,
0001
0100
0001
0100
0010
1000
0010
1000
,
0020
0000
0030
0000
,
0100
0001
0100
0001
0010
0001
0100
0010
,
0100
0000
0001
0010
0100
0000
0010
0000
,
0100
1000
0100
1000
0010
1000
0100
0010
,
0100
1000
0010
0100
,
0001
0000
1000
0001
0100
0001
0100
0001
,
1000
0001
0010
0100
,
0012
1000
0103
0010
,
1010
0101
1010
0101
,
1000
0010
1000
0010
0100
0010
1000
0100
,
1000
0000
0010
0100
1000
0000
0100
0000
,
0001
0010
0001
0010
0100
0010
0001
0100
,
0001
0010
0001
0100
,
1000
0000
0001
0000
0100
0001
1000
0001
,
0100
0010
1000
0100
,
0001
0000
0011
0000
1000
0001
1000
0000
,
0001
0010
0100
0010
1000
0010
0100
0000
,
1100
0000
1000
0100
0010
0001
0100
0000
,
0101
0000
0010
0100
0001
1000
0010
0000
,
1010
0000
1000
0010
0100
0001
0010
0000
,
0011
0000
0001
1000
0010
0100
0001
0000
,
1001
0000
0001
0100
0010
0100
0001
0000
,
0110
0000
1000
0100
0010
0100
1000
0000
,
0001
0000
0100
0010
0020
0000
0000
0000
,
0100
0001
0100
1030
,
2002
0000
0000
0000
,
0000
0000
0000
0000
,
3003
0000
0000
0000
,
0000
0000
0000
0000
;
#NOTES:
     dance-double:
     :
     Easy:
     5:
     :
00000000
00000000
00000000
00000000
,
00000000
00000000
00000000
00000000
,
00000000
00000000
00000000
00000000
,
00000000
00000000
00000000
00000000
,
00000000
00000000
00000000
00000000
,
00000000
00000000
00000000
00000000
,
00000000
00000000
00000000
00000000
,
00001000
00001000
00000100
00000000
,
00000001
00000001
00000010
00000000
,
00000001
00000001
00000200
00000000
,
00000000
00000000
00000000
00000300
,
00001000
00000000
00000000
00000000
,
00000000
00000000
00000000
00000000
,
00000000
00000000
00000000
00000000
,
00000000
00000000
00000000
00000000
,
00010000
00000000
01000000
00000000
,
10000000
00100000
10000000
00000000
,
01000000
00000000
00010000
00000000
,
00001000
00010000
00001000
00000000
,
00100000
00000000
01000000
00000000
,
00010000
00000000
00001000
00000000
,
00000100
00000010
00000100
00000000
,
00000001
00001000
00000001
00000000
,
00000010
00000000
00001000
00000000
,
00010000
00001000
00010000
00000000
,
00100000
00000000
01000000
00000000
,
00100000
10000000
01000000
10000000
,
00100000
00000000
01000000
00000000
,
00010000
00010000
10000000
00000000
,
01000000
00100000
01000000
00000000
,
00010000
00000000
00001000
00000000
,
00022000
00000000
00000000
00033000
,
00000200
00000000
00000000
00000300
,
00002002
00000000
00000000
00003003
,
00000100
00000000
00001000
00000000
,
00022000
00000000
00000000
00033000
,
00200000
00000000
00000000
00300000
,
20020000
00000000
00000000
30030000
,
00100000
00000000
00010000
00000000
,
00002000
00000000
00003000
00001000
,
00000200
00000000
00000300
00000100
,
00000020
00000000
00000030
00000010
,
00002002
00000000
00003003
00001001
,
00000200
00000000
00000300
00001000
,
00020000
00000000
00030000
00001000
,
00100000
00100000
01000000
01000000
,
00100000
01000000
00100000
01000000
,
10000000
10000000
01000000
00010000
,
00002000
00000000
00003000
00000000
,
00010000
00001000
00010000
00001000
,
00010000
00000100
00000100
00000000
,
00000010
00000001
00000010
00000001
,
00000100
00000010
00000010
00000000
,
00001001
00000000
00000100
00000000
,
00011000
00000000
00010000
00000000
,
00001000
00001000
00100000
00010000
,
00100000
00010000
01000000
10000000
,
01000000
00100000
01000000
00100000
,
01000000
00010000
00010000
00000000
,
00100000
00010000
00100000
00010000
,
00100000
00001000
00001000
00000000
,
00011000
00000000
00001000
00000000
,
00000110
00000000
00000001
00000000
,
00001000
00000001
00000100
00000010
,
00000010
00000100
00001000
00010000
,
00100000
00010000
00100000
00000000
,
10000000
00010000
10000000
00000000
,
01000000
00010000
01000000
00000000
,
00100000
00010000
00100000
00000000
,
00001000
00010000
00001000
00000000
,
00000100
00000010
00000100
00000000
,
00000001
00001000
00000001
00001000
,
00000010
00000100
00000010
00000100
,
00002002
00000000
00000000
00000000
,
00000000
00000000
00000000
00000000
,
00003003
00000000
00000000
00000000
,
00000000
00000000
00000000
00000000
;
#NOTES:
     dance-double:
     :
     Medium:
     9:
     :
00000000
00000000
00000000
00000000
,
00000000
00000000
00000000
00000000
,
00000000
00000000
00000000
00000000
,
00000000
00000000
00000000
00000000
,
00000000
00000000
00000000
00000000
,
00000000
00000000
00000000
00000000
,
00000000
00000000
00000000
00000000
,
01000000
00000000
00000000
10100000
00000000
10100000
00000000
00000000
,
00010000
00000000
00000000
00101000
00000000
00101000
00000000
00000000
,
00010000
00000000
00001000
00010000
00001000
00000000
00010000
00000000
,
00001000
00000100
00000001
00000100
,
00002000
00000000
00003000
00000000
,
00000000
00000000
00000000
00000000
,
00000000
00000000
00000000
00000000
,
00000000
00000000
00000000
00000000
,
11000000
01000000
00010000
00001000
,
00000100
00000101
00000100
00001000
,
00010000
01000000
10000000
00100000
,
10100000
00010000
00001000
00000010
,
00000011
00000001
00000100
00001000
,
00011000
00010000
00100000
10000000
,
00010000
10000000
00010000
00000000
10000000
00000000
00000000
00000000
,
01000000
00100000
01000000
00000000
00100000
00000000
00000000
00000000
,
01000000
00010000
00001000
00000100
,
00000010
00000000
00001000
00000001
00000100
00000000
00000010
00000000
,
00000100
00001000
00010000
00100000
,
01100000
00000000
01000000
00010000
10000000
00000000
01000000
00000000
,
10000000
00100000
00010000
00001000
,
00000100
00000000
00000010
00000100
00000010
00000000
00001000
00000000
,
00001001
00000010
00000000
00000100
,
00001000
00000000
00100000
00000000
00010000
01000000
00010000
00000000
,
10000000
00000000
00000000
00100000
00000000
00000000
01010000
00000000
,
00100000
00000000
00000000
00001000
00000000
00000000
00011000
00000000
,
00000100
00000000
00000000
00000010
00000000
00000000
00000110
00000000
,
00000001
00000000
00000000
00001000
00000000
00000000
00001100
00000000
,
00000010
00000000
00000000
00010000
00000000
00000000
00010100
00000000
,
00001000
00000000
00000000
01000000
00000000
00000000
00110000
00000000
,
10000000
00000000
00000000
00100000
00000000
00000000
01010000
00000000
,
00100000
00000000
00000000
00001000
00000000
00000000
00011000
00000000
,
00000010
00000000
00000000
00000100
00000000
00000100
00000001
00000000
,
00001000
00000000
00000000
00000001
00000000
00000001
00000010
00000000
,
00001000
00000000
00000000
00100000
00000000
00100000
00010000
00000000
,
10000000
00000000
00000000
00100000
00000000
00100000
01000000
00000000
,
10010000
00000000
00000000
00100000
00000000
00100000
00001000
00000000
,
00011000
00000000
00000000
00000010
00000000
00000010
00001000
00000000
,
00000001
00000001
00001000
00001000
,
00000001
00001000
00000001
00001000
,
00000010
00000000
00000100
00000000
00001000
00000000
00010000
00001000
,
00020000
00000000
00030000
00000000
,
00110000
00001000
00110000
00001000
,
01010000
00001000
00010000
01000000
,
11000000
00010000
11000000
00010000
,
10000000
00000000
00100000
00000000
01000000
00000000
00010000
10000000
,
00010000
01000000
00010000
00001000
,
00000100
00000011
00000101
00000011
,
00002000
00000100
00000001
00000010
,
00013000
00000010
00000001
00000100
,
00001100
00010000
00001100
00010000
,
00001010
00010000
00000010
00001000
,
00010100
00001000
00101000
00010000
,
00010010
00001000
01001000
00010000
,
00100000
00000000
00010000
00000000
10000000
00010000
10000000
00010000
,
10000000
01000000
00100000
00010000
,
00001000
00000000
00010000
00001000
00010000
00000000
00000100
00000000
,
00011000
00000010
00000100
00000000
,
00001001
00000000
00000000
00000011
00000000
00000011
00000000
00000000
,
00001100
00000010
00000100
00001000
,
00011000
00000000
00000000
00101000
00000000
00101000
00000000
00000000
,
01010000
00010000
00100000
01000000
,
11000000
00000000
00000000
10010000
00000000
10010000
00000000
00000000
,
01100000
00000000
00000000
00101000
00000000
00101000
00000000
00000000
,
00011000
00000000
00010000
00001000
00000100
00000000
00000001
00000000
,
00000100
00001000
00010000
00100000
,
20020000
00000000
00000000
00000000
,
00000000
00000000
00000000
00000000
,
30030000
00000000
00000000
00000000
,
00000000
00000000
00000000
00000000
;
#NOTES:
     dance-double:
     :
     Hard:
     12:
     :
00000000
00000000
00000000
00000000
,
00000000
00000000
00000000
00000000
,
00000000
00000000
00000000
00000000
,
00000000
00000000
00000000
00000000
,
00000000
00000000
00000000
00000000
,
00000000
00000000
00000000
00000000
,
00000000
00000000
00000000
00000000
,
00001010
00000000
00000100
00000001
00000010
00000100
00001000
00000000
,
00010100
00000000
00001000
00100000
00010000
01000000
00100000
00000000
,
10100000
00000000
01000000
00100000
10000000
00000000
00010000
00000000
,
10100000
00010000
01001000
00010000
,
00001100
00000001
00000000
00000001
,
00000000
00000001
00000000
00000001
,
00000000
00000000
00000001
00000000
00000000
00000000
00000001
00001000
,
00000000
00000010
00001000
00000100
00010000
00001000
00100000
00010000
,
01000000
00000000
00100000
00000000
00100000
00000000
00100000
10000000
,
00000000
10000000
01000000
00000000
01000000
00000000
00100000
00010000
,
00000000
00010000
00001000
00000000
00000100
00000000
00001000
00000000
,
00000010
00000000
00000010
00000001
00000000
00000001
00000010
00000100
,
00001000
00000000
00001000
00000100
00000000
00000100
00001000
00010000
,
00100000
00000000
00100000
00010000
00000000
00010000
00100000
01000000
,
10000000
00000000
01000000
00000000
01000000
00000000
00010000
00100000
,
01000000
10000000
00100000
01000000
00010000
00000000
10010000
00000000
,
01000000
10010000
00100000
10010000
,
00100000
01000000
00010000
00000100
00001000
00000010
00000100
00000000
,
00000010
00001001
00000100
00001001
,
00000010
00000000
00000001
00000100
00001000
00000000
00010000
00000000
,
00011000
00100000
10000000
00100000
,
00010000
00100000
10000000
00010000
,
10000000
00100000
10000000
00100000
01000000
00000000
00010000
00100000
,
01000000
00000000
00100000
00001000
00010000
00000100
00001000
00000010
,
00000100
00000000
00000000
00000110
00000000
00000001
00000100
00000010
,
00001000
00000000
00000000
00001100
00000000
00000010
00001000
00000100
,
00010000
00000000
00000000
00011000
00000000
00100000
00001000
00010000
,
01000000
00000000
00000000
00110000
00000000
01000000
00100000
10000000
,
00010000
00000000
00000000
10100000
00000000
00010000
01000000
00001000
,
00100000
00000000
00000000
00101000
00000000
00001000
00010000
00000100
,
00001000
00000000
00000000
00001010
00000000
00000100
00000001
00001000
,
00000010
00000001
00000100
00001000
,
00000010
00000000
00000000
00001001
00000000
00000001
00000100
00001000
,
00010000
00000000
00000000
00011000
00000000
00001000
00010000
00100000
,
10000000
00000000
00000000
10010000
00000000
10000000
01000000
00010000
,
00001000
00000000
00000000
00011000
00000000
00010000
00001000
00000010
,
00000001
00000000
00000000
00001001
00000000
00000100
00001000
00010000
,
01000000
00000000
00000000
10010000
00000000
00100000
00010000
00001000
,
00000010
00000001
00000100
00001000
,
00000100
00000001
00000010
00001000
,
00010000
01000000
10000000
00100000
,
20020000
00000000
30030000
00000000
,
10000000
00100000
10000000
00100000
00010000
00100000
00010000
00100000
,
10000000
00100000
01000000
00010000
,
00100000
00010000
00100000
00010000
00001000
00010000
00001000
00010000
,
00100000
00010000
00001000
00000100
,
00000110
00000000
00000010
00000001
00000100
00000010
00001000
00000100
,
00000010
00000001
00000100
00001000
,
00020000
00100000
00001000
01030000
,
00002000
00000010
00010000
00003100
,
00000001
00000010
00000001
00000010
00001000
00000010
00001000
00000010
,
00000001
00000010
00000100
00001000
,
00000010
00001000
00000010
00001000
00010000
00001000
00010000
00001000
,
00000010
00001000
00010000
01000000
,
01100000
10000000
00010000
10000000
,
10010000
01000000
00100000
01000000
,
01100000
00000000
00100000
10000000
01000000
00010000
00001000
00000100
,
00000001
00000010
00000100
00001000
,
00001001
00000000
00000100
00000001
00001000
00000001
00000100
00000000
,
00010010
00000000
00001000
00010000
00000010
00010000
00001000
00000000
,
01001000
00000000
00100000
00001000
01000000
00001000
00100000
00000000
,
10010000
00000000
01000000
10000000
00010000
10000000
01000000
00000000
,
11000000
00000000
00010000
01000000
10000000
00100000
10000000
00000000
,
00110000
00000000
01000000
00010000
00001000
00010000
00100000
00000000
,
00011000
00000000
00100000
00010000
00001000
00000000
00000100
00000000
,
00000001
00000010
00001000
00010000
,
00022000
00000000
00000000
00000000
,
00000000
00000000
00000000
00000000
,
00033000
00000000
00000000
00000000
,
00000000
00000000
00000000
00000000
;
