
//----- song id: luck
#TITLE:LUCKY-YO!!;
#ARTIST:だいやぁ☆もんど 【鳥取】;
#ARTISTTRANSLIT:Da iya~a☆mondo [Tottori];
#BANNER:LUCKY-YO!!.png;
#BACKGROUND:LUCKY-YO!!-bg.png;
#CDTITLE:./CDTitles/DDR (2014).png;
#MUSIC:LUCKY-YO!!.ogg;
#SAMPLESTART:53.531;
#SAMPLELENGTH:15;
#BPMS:0=112;
#NOTES:
     dance-single:
     :
     Beginner:
     2:
     :
0000
0000
0000
0000
,
0000
0000
0000
0000
,
0000
0000
0000
0000
,
0000
0000
0000
0000
,
0000
0000
0000
0000
,
1000
0000
1000
0000
,
0001
0000
0001
0000
,
1000
0000
1000
0000
,
1000
0000
0000
0000
,
1000
0000
1000
0000
,
1000
1000
1000
0000
,
0001
0000
0001
0000
,
0001
0001
0001
0000
,
0100
0000
0100
0000
,
0100
0100
0100
0000
,
0001
0000
1000
0000
,
1001
0000
0000
0000
,
1000
0000
0100
0000
,
1000
0000
0000
0000
,
0001
0000
0100
0000
,
0001
0000
0000
0000
,
1000
0000
0010
0000
,
1000
0000
0000
0000
,
0001
0000
0010
0000
,
0001
0000
0000
0000
,
1000
1000
1000
0000
,
0001
0000
0001
0000
,
1000
1000
1000
0000
,
0100
0000
0100
0000
,
1000
1000
1000
0000
,
0001
0000
0001
0000
,
1000
1000
1000
0000
,
0010
0000
0010
0000
,
0010
0000
0000
0000
,
0001
0000
0000
0000
,
0100
0000
0000
0000
,
1000
0000
0000
0000
,
0010
0010
0010
0000
,
0001
0000
0001
0000
,
0010
0010
0010
0000
,
1000
0000
1000
0000
,
0010
0010
0010
0000
,
0001
0000
0001
0000
,
0010
0010
0010
0000
,
1000
0000
1000
0000
,
1001
0000
0000
0000
,
0000
0000
0000
0000
;
#NOTES:
     dance-single:
     :
     Easy:
     4:
     :
0000
0000
0000
0000
,
0000
0000
0000
0000
,
0000
0000
0000
0000
,
0000
0000
0000
0000
,
0000
0000
0000
0000
,
0001
0001
0001
0000
,
1000
1000
1000
0000
,
0001
0001
0001
0000
,
1000
1000
1000
0000
,
0001
0001
0010
0010
,
0001
0100
0001
0000
,
1000
1000
0100
0100
,
0010
0001
0010
0000
,
0100
0100
1000
1000
,
0010
1000
0010
0000
,
1000
0100
0001
0010
,
2000
0000
3000
0000
,
0001
0100
0001
0100
,
0001
0020
0000
0030
,
1000
0100
1000
0100
,
1000
0020
0000
0030
,
0100
0010
0100
0010
,
0100
0001
1000
0001
,
0010
0000
0100
0000
,
2002
0000
3003
0000
,
0100
0100
1000
1001
,
0000
0100
0010
0001
,
0100
0100
0001
1001
,
0000
0001
0100
0010
,
1000
1000
0001
1001
,
0000
0010
0100
1000
,
0010
0010
1000
1001
,
0000
0100
1000
0100
,
0002
0000
0000
0003
,
0100
0100
0100
0000
,
1000
1000
1000
0000
,
0001
0001
0001
0000
,
1001
0000
1001
0000
,
0100
0010
0001
1000
,
1001
0000
1001
0000
,
0010
1000
0001
1000
,
1001
0000
1001
0000
,
0100
0001
0010
0001
,
1001
0000
1001
0000
,
0100
0010
0001
1000
,
2002
0000
0000
3003
,
0000
0000
0000
0000
;
#NOTES:
     dance-single:
     :
     Medium:
     7:
     :
0000
0000
0000
0000
,
0000
0000
0000
0000
,
0000
0000
0000
0000
,
0000
0000
0000
0000
,
0000
0000
0000
0000
,
0000
1000
0000
1000
0000
0001
0000
0001
,
0000
0010
0000
0010
0000
0100
0000
0100
,
0000
1000
0000
1000
0000
0001
0000
0001
,
0000
0100
0000
0100
0000
0010
0010
0000
,
1000
0001
1000
0001
,
1000
0001
1000
0001
1000
0000
0000
0000
,
0001
0100
0001
0100
,
0001
0100
0001
0100
0001
0000
0000
0000
,
0010
1000
0010
1000
,
0010
1000
0010
1000
0010
0000
0000
0000
,
1000
0000
0001
0000
1000
0001
1000
0000
,
2002
0000
3003
0000
,
0000
0001
0001
0000
1000
0001
0100
0001
,
1000
0020
0000
0030
,
0000
1000
1000
0000
0100
1000
0001
1000
,
0100
0020
0000
0030
,
0000
0100
0100
0000
0010
0001
1000
0001
,
0010
0000
0001
0000
0100
0000
0010
0100
,
0010
1000
0001
1001
,
0202
0000
0000
0303
,
1000
1000
1000
0000
0001
0001
0001
0000
,
1000
0000
0100
0000
0010
0100
1000
0000
,
0001
0001
0001
0000
1000
1000
1000
0000
,
0010
0000
1000
0000
0100
0010
0001
0000
,
1000
1000
1000
0000
0001
0001
0001
0000
,
0010
0000
0100
0000
1000
0001
0100
0000
,
0010
0010
0010
0000
0100
0100
0100
0000
,
0001
0000
1000
0000
0001
1000
0001
1000
,
0020
0000
0000
0030
,
0000
1000
0000
1000
0000
0100
0000
0100
,
0000
0010
0000
0010
0000
0001
0000
0001
,
0000
0100
0000
0100
0000
0010
0010
0000
,
1000
0001
0000
0010
0100
0000
0010
0000
,
0001
0001
0001
0000
1000
1000
1000
0000
,
0001
0010
0000
0100
1000
0000
0001
0000
,
0100
0100
0100
0000
0010
0010
0010
0000
,
1000
0010
0000
0100
0001
0000
1000
0000
,
0001
0001
0001
0000
1000
1000
1000
0000
,
0100
0010
0000
0001
1000
0000
0010
0000
,
0100
0100
0100
0000
0001
0001
1000
0001
,
2002
0000
0000
3003
,
0000
0000
0000
0000
;
#NOTES:
     dance-single:
     :
     Hard:
     10:
     :
0000
0000
0000
0000
,
0000
0000
0000
0000
,
0000
0000
0000
0000
,
0000
0000
0000
0000
,
0000
0000
0000
0000
,
0000
1000
0010
1000
0100
1000
0010
1000
,
0000
0001
0010
0001
0100
0001
0010
0001
,
0000
1000
0100
0010
0100
1000
0100
0010
,
0000
0001
0100
0010
0100
0001
0100
0010
,
0000
1000
1000
0100
1000
0100
0010
0001
,
0100
0100
0001
0100
0010
1000
0000
1000
,
0000
0001
0001
0010
0001
0010
0001
0100
,
0001
0010
0100
1000
0001
0100
0000
0100
,
0000
0010
0010
0100
0010
1000
0100
0010
,
0001
0010
0100
1000
0001
0100
0100
0100
,
0110
0000
1001
0000
1000
0100
0001
0010
,
2000
0000
0000
3000
,
0000
0101
0101
0000
0001
0100
1000
0100
,
0001
2000
0000
0010
0000
0001
0000
3100
,
0000
1100
1100
0000
1000
0100
0001
0100
,
1000
0002
0000
0010
0000
1000
0000
0103
,
0000
0110
0110
0000
1000
0100
0010
0001
,
2000
0000
3020
0000
0130
0001
0001
0010
,
0100
0000
0001
0100
1000
0010
1000
0100
,
0010
2002
0000
3003
,
0001
0000
0001
0000
0101
0000
0000
1000
0000
0000
1000
0000
1100
0000
0000
0000
,
0010
1000
0001
0010
0001
1000
0010
1000
,
0100
0000
0100
0000
1100
0000
0000
0010
0000
0000
0010
0000
0011
0000
0000
0000
,
0100
1000
0001
0100
0001
1000
0100
1000
,
0001
0000
0101
0000
1010
0000
0000
1000
0000
0000
1100
0000
0011
0000
0000
0000
,
0001
0001
1000
1000
0010
0010
0100
0100
,
0001
0000
1000
0000
1001
0000
0000
0100
0000
0000
0010
0000
0110
0000
0000
0000
,
0001
0001
1000
1000
0001
0010
0100
1000
,
2002
0000
0000
3003
,
0000
1000
0100
1000
0001
1000
0100
1000
,
0000
0001
0100
0001
1000
0001
0100
0001
,
0000
1000
0100
0010
0001
0100
0010
1000
,
0001
1100
0100
1000
0101
0000
1001
0000
,
0100
0010
0010
0010
1000
0001
1000
0001
,
0100
0011
0001
0100
1010
0000
1001
0000
,
0010
0100
0100
0100
1000
0001
1000
0001
,
0010
1100
1000
0010
0101
0000
1001
0000
,
0100
0010
1000
0100
0010
0001
0100
0010
,
1010
1001
0100
0011
1001
0000
0110
0000
,
1000
0100
0001
0100
1000
0010
0001
0010
,
0220
0000
0000
0330
,
0000
0000
0000
0000
;
#NOTES:
     dance-double:
     :
     Easy:
     4:
     :
00000000
00000000
00000000
00000000
,
00000000
00000000
00000000
00000000
,
00000000
00000000
00000000
00000000
,
00000000
00000000
00000000
00000000
,
00000000
00000000
00000000
00000000
,
00001000
00001000
00000100
00000000
,
00000001
00000001
00000100
00000000
,
00010000
00010000
00100000
00000000
,
10000000
10000000
00100000
00000000
,
00010000
10000000
00010000
10000000
,
01000000
01000000
01000000
00000000
,
00010000
00001000
00010000
00001000
,
00000100
00000100
00000010
00000000
,
00001000
00000001
00001000
00000001
,
00000010
00000010
00000010
00000000
,
00001001
00000000
00011000
00000000
,
10010000
00000000
00000000
00000000
,
00010000
00100000
10000000
01000000
,
00020000
00000000
00030000
00000000
,
00001000
00000100
00000001
00000010
,
00002000
00000000
00003000
00000000
,
00010000
01000000
10000000
00100000
,
00020000
00000000
00030000
00000000
,
00001000
00000010
00000001
00000100
,
00002002
00000000
00000000
00003003
,
00000001
00001001
00000100
00001000
,
00000000
00010000
00001000
00001000
,
00010000
00011000
00010000
01000000
,
00000000
00010000
00100000
01000000
,
10000000
10010000
01000000
00010000
,
00000000
00001000
00010000
00010000
,
00001000
00011000
00001000
00000100
,
00000000
00000010
00001000
00000001
,
00002002
00000000
00000000
00003003
,
00000010
00000010
00000001
00000000
,
00000100
00000100
00001000
00000000
,
00010000
00010000
00001000
00000000
,
00011000
00000000
10010000
00000000
,
10000000
01000000
00010000
00001000
,
00011000
00000000
00001001
00000000
,
00000001
00000100
00001000
00010000
,
00011000
00000000
10010000
00000000
,
10000000
00100000
00010000
00001000
,
00011000
00000000
00001001
00000000
,
00000001
00000010
00001000
00010000
,
00022000
00000000
00000000
00033000
,
00000000
00000000
00000000
00000000
;
#NOTES:
     dance-double:
     :
     Medium:
     7:
     :
00000000
00000000
00000000
00000000
,
00000000
00000000
00000000
00000000
,
00000000
00000000
00000000
00000000
,
00000000
00000000
00000000
00000000
,
00000000
00000000
00000000
00000000
,
00000000
00100000
00000000
00100000
00000000
01000000
00000000
01000000
,
00000000
00100000
00000000
01000000
00000000
00010000
00000000
00001000
,
00000000
00000010
00000000
00000010
00000000
00000100
00000000
00000100
,
00000000
00000010
00000000
00000001
00000000
00000100
00001000
00010000
,
00000000
00100000
01000000
00000000
00010000
00000000
00100000
00000000
,
00010000
00100000
00010000
00100000
00001000
00000000
00000000
00000000
,
00000100
00000010
00000100
00000000
00000001
00000000
00000010
00000000
,
00000001
00000100
00000001
00000100
00001000
00000000
00000000
00000000
,
00010000
00001000
00010000
00000000
01000000
00000000
00100000
00000000
,
00010000
10000000
00010000
10000000
01000000
00000000
00100000
00000000
,
01100000
00010000
00011000
00000000
,
00002002
00000000
00000000
00003003
,
00000000
00000100
00000100
00000000
00000010
00001000
00000100
00010000
,
00002000
00000000
00000000
00003000
,
00000000
01000000
01000000
00000000
00100000
10000000
00010000
01000000
,
00002000
00000000
00000000
00003000
,
00000000
00000100
00000100
00000000
00000001
00000100
00000010
00000100
,
00002000
00010000
01003000
00100000
,
01100000
00000000
10000000
01000000
00010000
00001000
00010000
00000000
,
00022000
00000000
00000000
00033000
,
00000010
00000010
00000010
00000000
00000100
00000100
00000100
00000000
,
00000010
00000000
00000100
00000000
00000010
00001000
00010000
00000000
,
00100000
00100000
00100000
00000000
01000000
01000000
01000000
00000000
,
00100000
00000000
01000000
00000000
00100000
00010000
00001000
00000000
,
00000010
00000010
00000010
00000000
00000100
00000100
00000100
00000000
,
00000010
00000000
00000001
00000000
00000100
00001000
00010000
00000000
,
00100000
00100000
00100000
00000000
01000000
01000000
01000000
00000000
,
10000000
00000000
00010000
00000000
10000000
01000000
00010000
00000000
,
00022000
00000000
00000000
00033000
,
00000000
00000100
00000000
00000001
00000000
00000010
00000000
00001000
,
00000000
00010000
00000000
01000000
00000000
10000000
00000000
00100000
,
00000000
00010000
00000000
00001000
00000000
00010000
00010000
00000000
,
00010000
00001000
00000000
00000100
00000001
00000000
00001000
00000000
,
00000010
00000010
00000010
00000000
00000100
00000100
00000100
00000000
,
00001000
00010000
00000000
00100000
10000000
00000000
00010000
00000000
,
01000000
01000000
01000000
00000000
00100000
00100000
00100000
00000000
,
10000000
00010000
00000000
00001000
00010000
00000000
00001000
00000000
,
00000010
00000010
00000010
00000000
00000100
00000100
00000100
00000000
,
00000001
00001000
00000000
00010000
00001000
00000000
00010000
00000000
,
00100000
00100000
00100000
00000000
01000000
01000000
01000000
00000000
,
20020000
00000000
00000000
30030000
,
00000000
00000000
00000000
00000000
;
#NOTES:
     dance-double:
     :
     Hard:
     11:
     :
00000000
00000000
00000000
00000000
,
00000000
00000000
00000000
00000000
,
00000000
00000000
00000000
00000000
,
00000000
00000000
00000000
00000000
,
00000000
00000000
00000000
00000000
,
00001000
00000000
00100000
00000000
00100000
00010000
00000000
01000000
00000000
01000000
00100000
00000000
10000000
00000000
01000000
00000000
,
00010000
00000000
00001000
00000000
00001000
00010000
00000000
00000100
00000000
00000100
00000010
00000000
00000001
00000000
00000100
00000000
,
00001000
00000000
01000000
00000000
01000000
00010000
00000000
00100000
00000000
00100000
01000000
00000000
10000000
00000000
00100000
00000000
,
00010000
00000000
00001000
00000000
00001000
00010000
00000000
00000100
00000000
00000100
00000010
00000000
00000001
00000000
00001000
00000000
,
00000001
00000100
00000000
00001000
00000000
00000001
00000000
00000010
,
00000100
00000000
00001000
00000000
00010000
00000000
01000000
00100000
00000000
00000000
01000000
00000000
00000000
00000000
10000000
00000000
,
00000000
00010000
00000000
01000000
00000000
10000000
00000000
00010000
,
00001000
00000000
00010000
00000000
01000000
00100000
00000000
00100000
01000000
00000000
00010000
00000000
00000000
00000000
00001000
00000000
,
00000000
00000100
00000000
00000001
00000000
00000010
00000000
00001000
,
00000001
00000000
00000100
00000000
00000010
00000000
00001000
00010000
00000000
00000000
00001000
00000000
00001000
00000000
00001000
00000000
,
00011000
00000000
00010000
00000000
10010000
01000000
00010000
00000000
,
00022000
00000000
00000000
00033000
,
00000000
00000011
00000100
00000000
00000001
00000010
00000100
00001000
,
00020000
20000000
00000000
30030000
,
00000000
10100000
01000000
00000000
10000000
00100000
01000000
00010000
,
00002000
00000002
00000000
00003003
,
00000000
00000110
00000001
00000000
00000100
00000001
00000010
00001000
,
00020000
00000000
00001000
00000000
01030000
10000000
00100000
10000000
,
01000000
00000000
10000000
00100000
01000000
00001000
00010000
00000100
,
00000020
00000002
00000000
00000033
,
00001001
00000000
00000010
00000000
00001000
00000000
00000000
00010100
00000000
00000000
00001000
00000000
01000000
00000000
00000000
00000000
,
00100000
00001000
00010000
01000000
00100000
00001000
01000000
00100000
,
10100000
00000000
01000000
00000000
00010000
00000000
00000000
00101000
00000000
00000000
00010000
00000000
00000100
00000000
00000000
00000000
,
00000010
00000001
00000100
00001000
00010000
01000000
10000000
00100000
,
01100000
00000000
00010000
00000000
00001000
00000000
00000000
00000110
00000000
00000000
00000001
00000000
00001000
00000000
00000000
00000000
,
00000001
00000100
00001000
00010000
00001000
00000100
00000001
00000010
,
00000110
00000000
00001000
00000000
00010000
00000000
00000000
01100000
00000000
00000000
10000000
00000000
00010000
00000000
00000000
00000000
,
01000000
00000000
00100000
00000000
10000000
01000000
00010000
00001000
,
00000200
00000010
00000000
00000010
00000000
00000010
00000300
00000010
,
00000000
00000000
00001000
00000000
00001000
00000100
00000000
00000010
00000000
00000010
00000001
00000000
00001000
00000000
00000100
00000000
,
00010000
00000000
00001000
00000000
00001000
01000000
00000000
00100000
00000000
00100000
10000000
00000000
01000000
00000000
00010000
00000000
,
00001000
00000000
00010000
00000000
00010000
00000100
00000000
00000020
00000000
00000000
00000031
00000000
00001000
00000000
00000010
00000000
,
00001010
00000101
00000000
00001010
00010100
00000000
00000010
00000000
,
00001000
00000000
00000001
00000000
00000001
00000010
00000000
00000001
00000000
00000001
00000100
00000000
00000010
00000000
00001000
00000000
,
00001100
00000011
00000000
00001100
00010010
00000000
00000100
00000000
,
00001000
00000000
00010000
00000000
00010000
01000000
00000000
10000000
00000000
10000000
01000000
00000000
00100000
00000000
00010000
00000000
,
00110000
11000000
00000000
00110000
01001000
00000000
00100000
00000000
,
00010000
00000000
10000000
00000000
10000000
00100000
00000000
00010000
00000000
00010000
00001000
00000000
01000000
00000000
00010000
00000000
,
01010000
00101000
00000000
01010000
10100000
00000000
01000000
00000000
,
10000000
00000000
01000000
00000000
01000000
00100000
00000000
01000000
00000000
01000000
00010000
00000000
00001000
00000000
00000100
00000000
,
00000220
00000000
00000000
00000330
,
00000000
00000000
00000000
00000000
;
