
//----- song id: kira
#TITLE:キライじゃないのぉ;
#ARTIST:まなみのりさ 【広島】;
#TITLETRANSLIT:Kiraijanaino;
#ARTISTTRANSLIT:Manami no Risa [Hiroshima];
#BANNER:Kiraijanaino.png;
#BACKGROUND:Kiraijanaino-bg.png;
#CDTITLE:./CDTitles/DDR (2014).png;
#MUSIC:Kiraijanaino.ogg;
#SAMPLESTART:55.775;
#SAMPLELENGTH:15;
#BPMS:0=142;
#NOTES:
     dance-single:
     :
     Beginner:
     2:
     :
0000
0000
0000
0000
,
0000
0000
0000
0000
,
0000
0000
0000
0000
,
0000
0000
0000
0000
,
0000
0000
0000
0000
,
0001
0000
0000
0000
,
1000
0000
0000
0000
,
0001
0000
0000
0000
,
1000
0000
0000
0000
,
0010
0000
0000
0000
,
0010
0000
0010
0000
,
0100
0000
0000
0000
,
0100
0000
0100
0000
,
0010
0000
0000
0000
,
0010
0000
0010
0000
,
0001
0000
1000
0000
,
0001
0001
0001
0000
,
1000
0000
0000
0000
,
1000
1000
1000
0000
,
0010
0000
0000
0000
,
0010
0010
0010
0000
,
0001
0000
0000
0000
,
0001
0001
0001
0000
,
0100
0000
0100
0000
,
0100
0100
0100
0000
,
0002
0000
0000
0003
,
0000
0000
0000
0000
,
2000
0000
0000
3000
,
0000
0000
0000
0000
,
0020
0000
0000
0030
,
0000
0000
0000
0000
,
0001
0000
0000
0000
,
0001
0001
0001
0000
,
0010
0010
0010
0010
,
0010
0010
0000
0000
,
0010
0010
0010
0010
,
0010
0010
0000
0000
,
0100
0100
0100
0100
,
0100
0100
0000
0000
,
2000
0000
3000
0000
,
0002
0000
0003
0000
,
1000
0000
1000
0000
,
0010
0010
0010
0000
,
0001
0000
0001
0000
,
0010
0010
0010
0000
,
0100
0000
0100
0000
,
0010
0010
0010
0000
,
2000
0000
3000
0000
,
0002
0000
0003
0000
,
1000
0000
0000
0000
,
0010
0000
0000
0000
,
0001
0000
0000
0000
,
1000
0000
0000
0000
,
2002
0000
0000
0000
,
0000
0000
0000
0000
,
0000
0000
0000
3003
,
0000
0000
0000
0000
;
#NOTES:
     dance-single:
     :
     Easy:
     4:
     :
0000
0000
0000
0000
,
0000
0000
0000
0000
,
0000
0000
0000
0000
,
0000
0000
0000
0000
,
0000
0000
0000
0000
,
1000
1000
0010
0000
,
0001
0001
0010
0000
,
1000
1000
0001
0000
,
1000
0000
0000
0000
,
0010
0000
0010
0000
,
2000
0000
3000
0000
,
0001
0000
0001
0000
,
0200
0000
0300
0000
,
0010
0000
1000
0000
,
0020
0000
0030
0000
,
1000
0000
0001
0000
,
1000
0001
1000
0000
,
0001
0000
0010
0000
,
1000
0100
1000
0000
,
1000
0000
0010
0000
,
0001
0100
0001
0000
,
0001
0000
1000
0000
,
0010
0100
0010
0000
,
0001
0000
1000
0000
,
0001
1000
0001
0000
,
0020
0000
0030
0000
,
2000
0000
3000
0000
,
0002
0000
0003
0000
,
0000
0000
0000
0000
,
0020
0000
0030
0000
,
0002
0000
0003
0000
,
1000
0000
0001
0000
,
1001
0000
0000
0000
,
1000
0001
1000
0001
,
1000
0001
1000
0000
,
1000
0001
1000
0001
,
1000
0001
1000
0000
,
0001
1000
0001
1000
,
0001
1000
0001
0000
,
0020
0000
0030
0000
,
0200
0000
0300
0000
,
0001
0001
0010
0010
,
0001
0010
0001
0000
,
1000
1000
0010
0010
,
1000
0010
1000
0000
,
0010
0010
0100
0100
,
0010
0100
0010
0000
,
0002
0000
0003
0000
,
2000
0000
3000
0000
,
0001
0001
0100
0000
,
1000
1000
0100
0000
,
0001
0000
0100
0000
,
1000
0000
0100
0000
,
0002
0000
0003
0000
,
2000
0000
3000
0000
,
0020
0000
0000
0030
,
0000
0000
0000
0000
;
#NOTES:
     dance-single:
     :
     Medium:
     7:
     :
0000
0000
0000
0000
,
0000
0000
0000
0000
,
0000
0000
0000
0000
,
0000
0000
0000
0000
,
0000
0000
0000
0000
,
1100
1100
0010
0001
,
0100
1000
0010
0001
,
0101
0101
0010
1000
,
0200
0000
0020
0330
,
1000
0100
0010
0000
,
0010
0000
0100
2000
0000
0000
3000
0000
,
0001
1000
0010
0000
,
0001
0000
1000
0002
0000
0000
0003
0000
,
0100
1000
0001
0000
,
0100
0000
0001
0020
0000
0000
0030
0000
,
1001
0000
0110
0000
,
1001
0110
1001
0000
,
0010
1000
0001
0010
,
1000
0000
0001
0020
0000
0100
0130
0000
,
1000
0001
0100
0001
,
0010
0000
1000
0020
0000
0100
0130
0000
,
1000
0100
0001
0100
,
0001
0000
1000
0200
0000
0010
0310
0000
,
0001
0010
1000
0100
,
0011
1100
0101
0000
,
2000
0000
3200
0000
,
0320
0000
0032
0000
,
2003
0000
0000
0000
,
0020
0030
0002
0003
,
3200
0000
0320
0000
,
0032
0000
0203
0000
,
0310
1000
0100
0001
,
1000
0001
0110
0000
,
1100
0101
1100
0101
,
1000
0100
0010
0002
0000
1000
1003
0000
,
1100
0101
1100
0101
,
1000
0100
0010
0002
0000
1000
1003
0000
,
1010
0011
1010
0011
,
1000
0010
0100
0002
0000
1000
1003
0000
,
0001
0100
1000
0010
,
0001
0100
1000
0000
,
0002
0010
2003
0010
,
3001
0010
0100
2000
0000
0001
3001
0000
,
2000
0010
3002
0010
,
1003
0010
0100
0002
0000
1000
1003
0000
,
0002
0100
2003
0100
,
3001
0100
0010
2000
0000
0001
3001
0000
,
1000
0100
0001
0010
,
1000
0100
0001
0000
,
1100
1100
0010
0001
,
0100
0010
1000
0100
,
0101
0101
0010
1000
,
0002
0000
2000
3003
,
0010
1000
0001
1000
,
0010
0000
0100
0100
,
0001
0010
0100
0010
,
0000
0000
0000
0000
;
#NOTES:
     dance-single:
     :
     Hard:
     10:
     :
0000
0000
0000
0000
,
0000
0000
0000
0000
,
0000
0000
0000
0000
,
0000
0000
0000
0000
,
0000
0000
0000
0000
,
1001
0000
0110
0000
0010
1000
0100
0000
,
0010
0001
0100
0000
0010
1000
0100
0000
,
1100
0000
0101
0000
0010
1000
0100
0000
,
0020
0100
0000
0130
,
0001
0000
0010
0000
0100
0000
0000
1000
,
0100
0000
0010
0002
0000
1000
1003
0000
,
0001
0100
0010
0000
,
1000
0000
0001
2000
0000
0100
3100
0000
,
0010
0001
1000
0000
,
0010
0000
1000
0200
0000
0010
0310
0000
,
1001
0000
0110
0000
,
0011
1100
0101
0000
,
0010
1000
0001
0000
1000
0001
0100
0000
,
0001
0100
1000
0200
0000
0010
0310
0000
,
0010
1000
0001
0000
0010
0001
1000
0000
,
1000
0100
0001
0200
0000
0010
0310
0000
,
0002
0010
1003
0000
2000
0010
3001
0000
,
1000
0100
0010
0002
0000
1000
1003
0000
,
0010
1000
0100
0010
0001
0100
0010
1000
,
0001
0001
1000
1000
1001
0000
0000
0000
,
0002
0000
0010
0023
0000
0100
0230
0000
,
2300
0000
0010
3020
0000
0130
0200
0000
,
0302
0000
0023
0000
,
2030
0000
3200
0000
,
0302
0000
0010
0023
0000
0100
0230
0000
,
2300
0000
0010
3020
0000
0100
0230
0000
,
0301
0010
1000
0100
,
0001
1000
1100
0000
,
0010
1000
0100
1000
0010
1000
0100
1000
,
0010
1000
0100
0020
0000
0001
0031
0000
,
0010
0001
0100
0001
0010
0001
0100
0001
,
0010
0001
0100
0020
0000
1000
1030
0000
,
0100
1000
0010
1000
0100
1000
0010
1000
,
0100
1000
0010
0200
0000
0001
0301
0000
,
1000
0010
0001
0100
,
1000
0010
0001
1000
,
0001
0001
0010
0010
0100
0100
1000
1000
,
0001
0010
0100
2000
0000
0001
3001
0000
,
1000
1000
0010
0010
0100
0100
0001
0001
,
1000
0010
0100
0002
0000
1000
1003
0000
,
1000
1000
0100
0100
0010
0010
0001
0001
,
1000
0100
0010
0002
0000
1000
1003
0000
,
0001
0010
1000
0100
,
0001
0010
1000
0001
,
0011
0000
1100
0000
0010
0100
1000
0000
,
0010
0100
0001
0000
0010
0100
1000
0000
,
1001
0000
0110
0000
0010
1000
0100
0000
,
0020
0000
0200
0330
,
0010
0000
0001
0000
1000
0000
0001
0100
,
0000
0100
0000
0100
0000
0100
0010
0000
,
1000
0001
0000
0100
0000
0010
0000
0100
,
0000
0000
0000
0000
;
#NOTES:
     dance-double:
     :
     Easy:
     4:
     :
00000000
00000000
00000000
00000000
,
00000000
00000000
00000000
00000000
,
00000000
00000000
00000000
00000000
,
00000000
00000000
00000000
00000000
,
00000000
00000000
00000000
00000000
,
00000010
00000001
00001000
00000000
,
00000001
00000000
00000100
00000000
,
00001000
00010000
00001000
00000000
,
00200000
00000000
00000000
00300000
,
00010000
10000000
00010000
00000000
,
01000000
00000000
01000000
00000000
,
00100000
10000000
00100000
00000000
,
01000000
00000000
01000000
00000000
,
00010000
00001000
00010000
00000000
,
00000100
00000000
00000100
00000000
,
00000010
00000000
00000001
00000000
,
00001000
00000001
00001000
00000000
,
00000001
00000100
00001000
00000000
,
00010000
00000000
00010000
00000000
,
00010000
01000000
10000000
00000000
,
00010000
00000000
00010000
00000000
,
00100000
00010000
01000000
00000000
,
00001000
00000000
00001000
00000000
,
00010000
00000000
00010000
00000000
,
00001000
00000010
00000001
00000000
,
00002000
00000000
00003000
00000000
,
00000020
00000000
00000030
00000000
,
00000200
00000000
00000300
00000000
,
00002000
00000000
00003000
00000000
,
00020000
00000000
00030000
00000000
,
00200000
00000000
00300000
00000000
,
10000000
00000000
00010000
00000000
,
10010000
00000000
00000000
00000000
,
00100000
00010000
01000000
00010000
,
00100000
00001000
00010000
00000000
,
00000010
00001000
00000100
00001000
,
00000010
00010000
00001000
00000000
,
01000000
00010000
00100000
00010000
,
01000000
00001000
00010000
00000000
,
00000020
00000000
00000030
00000000
,
00002000
00000000
00003000
00000000
,
00000001
00000100
00001000
00010000
,
00100000
10000000
00010000
00000000
,
10000000
01000000
00010000
00001000
,
00000010
00000001
00001000
00000000
,
00000001
00000010
00001000
00010000
,
01000000
10000000
00010000
00000000
,
20000000
00000000
30000000
00000000
,
00020000
00000000
00030000
00000000
,
01000000
00100000
10000000
00000000
,
01000000
00100000
00010000
00000000
,
00001000
00010000
00001000
00000000
,
00000100
00000000
00001000
00000000
,
00000001
00000100
00000010
00000000
,
00000100
00000000
00000100
00000000
,
00001000
00000000
00010000
00000000
,
00000000
00000000
00000000
00000000
;
#NOTES:
     dance-double:
     :
     Medium:
     8:
     :
00000000
00000000
00000000
00000000
,
00000000
00000000
00000000
00000000
,
00000000
00000000
00000000
00000000
,
00000000
00000000
00000000
00000000
,
00000000
00000000
00000000
00000000
,
01100000
10010000
00100000
10000000
,
01000000
00000000
00010000
00000000
00001000
00010000
00001000
00000000
,
00001010
00000110
00000001
00001000
,
00000200
00000000
00000020
00000330
,
00000001
00000100
00001000
00000000
,
00010000
00000000
00001000
00020000
00000000
00000000
00030000
00000000
,
01000000
10000000
00010000
00000000
,
01000000
00000000
00100000
20000000
00000000
00000000
30000000
00000000
,
01000000
00010000
00001000
00000000
,
00000010
00000000
00001000
00020000
00000000
00000000
00030000
00000000
,
00001010
00000000
00011000
00000000
,
00001100
00000101
00001001
00000000
,
00000010
00000001
00001000
00000100
,
00010000
00000000
00001000
00020000
00000000
00001000
00031000
00000000
,
00100000
00010000
01000000
00100000
,
10000000
00000000
00010000
20000000
00000000
01000000
31000000
00000000
,
00100000
00001000
00010000
00100000
,
00010000
00000000
00001000
00020000
00000000
00001000
00031000
00000000
,
00000100
00000001
00000010
00001000
,
00001010
00000011
00001001
00000000
,
00000002
00000000
00000203
00000000
,
00002300
00000000
00023000
00000000
,
00230000
00000000
00000000
00000000
,
20000000
30000000
02000000
03000000
,
20300000
00000000
32000000
00000000
,
03020000
00000000
00032000
00000000
,
00003010
00000010
00000001
00001000
,
00000010
00000100
00000110
00000000
,
00001020
00010000
00001000
00010030
,
00000100
00001000
00010000
00002000
00000000
00010000
00013000
00000000
,
00210000
00001000
00010000
00301000
,
01000000
00010000
00001000
00020000
00000000
00001000
00031000
00000000
,
00001200
00010000
00001000
00010300
,
00000010
00001000
00010000
00002000
00000000
00010000
00013000
00000000
,
00100000
10000000
01000000
00100000
,
00001000
00010000
00001000
00001000
,
00200000
00010000
00302000
00010000
,
00103000
00010000
01000000
00002000
00000000
00010000
00013000
00000000
,
00000020
00001000
00020030
00001000
,
00030010
00001000
00000100
00020000
00000000
00001000
00031000
00000000
,
02000000
00010000
03002000
00010000
,
01003000
00010000
00100000
00002000
00000000
00010000
00013000
00000000
,
00000100
00000001
00000010
00001000
,
00000010
00000001
00001000
00001000
,
00001010
00011000
01000000
00010000
,
10000000
00000000
00100000
00000000
01000000
00100000
01000000
00000000
,
01010000
00011000
00000100
00000001
,
00002000
00000000
00000002
00003003
,
00000010
00000001
00001000
00000000
,
00000001
00000100
00001000
00010000
,
00100000
10000000
10000000
00010000
,
00000000
00000000
00000000
00000000
;
#NOTES:
     dance-double:
     :
     Hard:
     10:
     :
00000000
00000000
00000000
00000000
,
00000000
00000000
00000000
00000000
,
00000000
00000000
00000000
00000000
,
00000000
00000000
00000000
00000000
,
00000000
00000000
00000000
00000000
,
00110000
00000000
00011000
00000000
00000010
00001000
00000100
00000000
,
00000010
00000001
00000100
00000000
00000010
00010000
00001000
00000000
,
00001010
00000000
00011000
00000000
00100000
00010000
01000000
00000000
,
00020000
00000000
20000000
30030000
,
00100000
00000000
10000000
00000000
00010000
00000000
00000000
10000000
,
01000000
00000000
00010000
00002000
00000000
00000100
00003100
00000000
,
00000010
00000000
00000001
00000000
00001000
00000000
00000000
00000001
,
00000100
00000000
00001000
00020000
00000000
01000000
01030000
00000000
,
10000000
00000000
00010000
00000000
00100000
00000000
00000000
10000000
,
00100000
00000000
00010000
00002000
00000000
00010000
00013000
00000000
,
00000010
00001000
00010000
00001000
00000010
00010000
00001000
00000010
,
00000001
00001000
00001001
00000000
,
00000010
00001000
00000100
00000000
00000010
00000001
00000100
00000000
,
00001000
00010000
00100000
20000000
00000000
00010000
30010000
00000000
,
00100000
00010000
01000000
00000000
00100000
10000000
01000000
00000000
,
00010000
00001000
00000010
00000002
00000000
00001000
00001003
00000000
,
00000100
00001000
00000010
00000000
00000100
00000001
00000010
00000000
,
00001000
00010000
01000000
20000000
00000000
00010000
30010000
00000000
,
00100000
00010000
00001000
00010000
00100000
00001000
00010000
00100000
,
10000000
10000000
00010000
00010000
10010000
00000000
00000000
00000000
,
00100000
00000000
10000000
01000000
00000000
00100000
00010000
00000000
,
00001000
00000000
00000100
00000010
00000000
00000001
00000100
00000000
,
00000020
00000000
00002030
00000000
,
00003002
00000000
00000023
00000000
,
00000031
00000000
00000100
00000010
00000000
00001000
00010000
00000000
,
01000000
00000000
00100000
10000000
00000000
00010000
10000000
00000000
,
00100000
00000000
00010000
00100000
10000000
01000000
00010000
00000000
,
00001000
00010000
00011000
00000000
,
00010000
00001000
00000100
00001000
00010000
00001000
00000100
00001000
,
00010000
00001000
00000100
00000002
00000000
00001000
00001003
00000000
,
00000100
00001000
00010000
00001000
00000100
00001000
00010000
00001000
,
00000100
00001000
00010000
00200000
00000000
01000000
01300000
00000000
,
00010000
00001000
00000010
00001000
00010000
00001000
00000010
00001000
,
00010000
00001000
00000010
00000002
00000000
00001000
00001003
00000000
,
00000010
00000001
00000100
00001000
,
00010000
01000000
10000000
10000000
,
00010000
00100000
01000000
00100000
00001000
00010000
00000010
00001000
,
00000001
00000010
00000100
00002000
00000000
00000001
00003001
00000000
,
00000100
00000010
00001000
00000100
00010000
00001000
00100000
00010000
,
10000000
00100000
01000000
00020000
00000000
10000000
10030000
00000000
,
01000000
00100000
00010000
00100000
01000000
00010000
00001000
00000010
,
00000001
00001000
00000010
00000200
00000000
00000001
00000301
00000000
,
00000010
00000001
00000100
00001000
,
00010000
01000000
10000000
10000000
,
10100000
00000000
01010000
00000000
00100000
10000000
01000000
00000000
,
00100000
00010000
01000000
00000000
00001000
00010000
00001000
00000000
,
00001010
00000000
00000101
00000000
00000010
00000001
00000100
00000000
,
00000002
00000000
00002000
00003003
,
00000010
00000000
00001000
00000000
00010000
00000000
01000000
10000000
,
00000000
10000000
00000000
00100000
00000000
00100000
00010000
00000000
,
00001000
00001000
00000000
00000100
00000000
00000001
00000010
00000000
,
00000000
00000000
00000000
00000000
;
