
//----- song id: kawa
#TITLE:川崎純情音頭;
#ARTIST:川崎純情小町☆ 【神奈川】;
#TITLETRANSLIT:Kawasaki junjo ondo;
#ARTISTTRANSLIT:Kawasaki junjo komachi [Kanagawa];
#BANNER:Kawasaki junjo ondo.png;
#BACKGROUND:Kawasaki junjo ondo-bg.png;
#CDTITLE:./CDTitles/DDR (2014).png;
#MUSIC:Kawasaki junjo ondo.ogg;
#SAMPLESTART:60;
#SAMPLELENGTH:15;
#BPMS:0=132;
#NOTES:
     dance-single:
     :
     Beginner:
     2:
     :
0000
0000
0000
0000
,
0000
0000
0000
0000
,
0000
0000
0000
0000
,
0000
0000
0000
0000
,
0001
0000
1000
0000
,
1001
0000
0000
0000
,
1001
0000
0000
0000
,
1001
0000
0000
0000
,
0010
0010
0010
0010
,
0000
1000
0000
1000
,
0000
0001
0000
0001
,
0000
0010
0000
0010
,
0000
0001
0000
0001
,
0000
1000
0000
1000
,
0000
0001
0000
0001
,
0000
0100
0000
0100
,
0100
0100
0100
0000
,
1000
0000
0000
0000
,
0001
0000
0000
0000
,
0010
0000
0000
0000
,
0001
0000
0000
0000
,
0010
0000
0000
0000
,
1000
0000
0000
0000
,
0001
0000
0000
0000
,
0010
0000
0000
0000
,
1000
0000
1000
0000
,
0100
0000
0100
0000
,
0001
0000
0001
0000
,
0010
0010
0010
0000
,
1000
0000
0001
0000
,
0100
0000
0100
0000
,
0001
0000
0000
0000
,
0000
0000
0000
0000
,
0001
0000
0010
0000
,
1000
0000
0000
0000
,
0001
0001
0001
0000
,
1000
1000
1000
0000
,
1000
0000
0010
0000
,
0001
0000
0000
0000
,
0010
0010
0010
0000
,
1000
1000
1000
0000
,
1000
0000
0001
0000
,
0100
0000
0010
0000
,
1000
0000
0010
0000
,
0001
0000
1000
0000
,
0010
0000
0010
0000
,
0010
0010
0010
0000
,
0100
0000
0100
0000
,
0100
0100
0100
0000
,
0000
0000
0000
0000
;
#NOTES:
     dance-single:
     :
     Easy:
     4:
     :
0000
0000
0000
0000
,
0000
0000
0000
0000
,
0000
0000
0000
0000
,
1001
0000
0000
0000
,
0010
1000
0100
0000
,
1001
0000
0000
0000
,
1001
0000
0000
0000
,
1001
0000
0000
0000
,
0010
0010
0010
0000
,
0000
1000
0000
0001
,
0000
0010
0000
0001
,
0000
1000
0000
0001
,
0000
1000
0000
0100
,
0000
0001
0000
1000
,
0000
0010
0000
0100
,
0000
0001
0000
1000
,
0100
0010
0100
0000
,
1000
1000
1000
0000
,
0001
0001
0001
0000
,
0010
1000
0100
0010
,
0001
0001
0001
0000
,
0010
0001
0100
0000
,
1000
0001
1000
0000
,
1000
0100
0001
0100
,
0010
0010
0100
0000
,
2000
3000
0002
0003
,
0100
0100
0100
0000
,
0002
0003
2000
3000
,
0010
0010
0010
0000
,
2000
3000
0002
0003
,
0100
0100
0100
0000
,
1000
0000
0001
0000
,
0010
0010
0010
0000
,
1000
0010
0001
0000
,
0001
0100
1000
0000
,
1000
1000
1000
1000
,
0001
0001
0002
0003
,
1000
0010
0001
0000
,
0001
0100
1000
0000
,
0010
0010
0100
0100
,
1000
1000
1000
0000
,
2000
3000
0002
0003
,
0200
0300
0020
0030
,
0001
0010
0100
1000
,
0100
0010
0001
0000
,
1000
1000
0001
0001
,
1000
0001
1001
0000
,
0010
0010
0100
0100
,
0010
0100
0110
0000
,
0000
0000
0000
0000
;
#NOTES:
     dance-single:
     :
     Medium:
     7:
     :
0000
0000
0000
0000
,
0000
0000
0000
0000
,
0000
0000
0000
0000
,
1001
0000
0000
0000
,
0010
0010
1000
1000
0100
0000
0000
0000
,
1001
0100
0100
0100
,
1001
0100
0100
0100
,
1001
0100
0100
0100
,
0010
0100
0010
0100
0010
0100
0010
0000
,
0010
0101
0010
1100
,
0010
0000
0101
0000
1000
0000
0001
0100
,
0010
1100
0010
0101
,
0010
0000
1001
0000
0000
0100
1000
0000
,
0010
0101
0010
1100
,
0010
0000
1001
0000
0100
0001
0100
0000
,
0010
1100
0010
0101
,
1000
0010
0100
0001
1000
0000
0110
0000
,
0000
0001
0000
0001
,
0000
1000
0000
1000
,
0010
1000
0100
0010
,
0001
0100
0001
0000
0010
1000
0010
0000
,
0100
0001
0010
0010
,
1000
0100
1000
0000
0001
0100
0001
0000
,
0100
0010
1000
0001
,
0100
0010
0100
0000
0001
1000
0100
0000
,
2000
0000
0002
3003
,
0100
0010
1000
0001
,
2000
0000
0002
3003
,
0100
0100
0100
0100
,
0020
0000
0200
0330
,
0010
0100
0001
1000
,
0000
0010
1000
0000
0010
1000
0000
0000
,
0010
0100
0010
0100
0010
0000
1001
0000
,
0110
1001
0110
1001
,
0110
1001
0110
0000
,
1000
0100
0010
0001
,
1000
1000
0002
0003
,
0110
1001
0110
1001
,
0110
1001
0110
0000
,
1000
0100
0010
0001
,
1000
1000
0002
0003
,
2000
0000
0002
3003
,
0200
0000
0020
0330
,
1000
0100
0010
0001
,
0100
0010
1000
0001
,
1000
0000
1000
0000
0010
0100
0010
0000
,
1000
0001
0100
0000
1100
0000
0000
0000
,
0001
0000
0001
0000
0100
0010
0100
0000
,
0001
1000
0100
0000
0101
0000
0000
0000
,
0000
0000
0000
0000
;
#NOTES:
     dance-single:
     :
     Hard:
     9:
     :
0000
0000
0000
0000
,
0000
0000
0000
0000
,
0000
0000
0000
0000
,
1001
0000
0000
0000
,
0010
0001
0100
0001
0010
0000
0000
0000
,
1001
0100
0100
0100
,
1001
0100
0100
0100
,
1001
0100
0100
0100
,
0010
0100
1000
0100
0010
0001
0010
0000
,
0001
0100
0010
0000
0001
0100
0010
0000
,
0001
0100
0010
0000
0001
0100
0010
1000
,
0100
0010
0001
0000
0100
0010
0001
0000
,
0100
0010
0001
0000
0011
0000
1100
0000
,
0010
0001
1000
0000
0010
0001
1000
0000
,
0010
0001
1000
0000
0010
0001
1000
0010
,
0100
0001
1000
0000
0100
0001
1000
0000
,
0001
0010
0100
1000
0001
0000
0110
0000
,
0001
1000
0001
1000
,
0100
0000
0010
0000
0100
0010
0001
0000
,
0010
0001
0100
0010
,
1000
0100
0010
0000
0010
0001
1000
0000
,
0100
1000
0010
0010
,
0001
0100
0001
0000
1000
0100
1000
0000
,
0100
0010
0001
1000
,
0100
0010
0100
1000
0001
0010
0100
0000
,
1000
0000
0000
1000
0001
0000
0000
0000
1000
0000
0000
1000
0001
0000
1000
0000
,
0100
0000
0000
0100
0010
0000
0000
0000
0100
0000
0000
0100
0010
0000
0001
0000
,
0010
0000
0000
0010
0100
0000
0000
0000
1000
0000
0000
1000
0100
0000
1000
0000
,
0001
0100
0010
0100
1000
0100
0001
0000
,
0100
0000
0000
0100
0010
0000
0000
0000
0100
0000
0000
0100
0010
0000
1000
0000
,
0010
0000
0000
0010
0100
0000
0000
0000
0010
0000
0000
0010
0100
0000
0010
0000
,
0000
1000
0001
0000
1000
0001
0000
0000
,
0010
0100
1000
0010
0100
0001
1000
0000
,
0010
1000
0100
0000
0100
0001
0010
0000
,
0010
1000
0100
0001
0010
0000
1000
0000
,
0001
0100
0010
1000
,
0001
0100
0001
1000
0100
0010
0010
0000
,
0010
0001
0100
0000
0100
1000
0010
0000
,
0010
0001
0100
1000
0010
0000
0100
0000
,
0001
0100
0010
1000
,
0001
0010
0100
0010
0001
0000
1000
0000
,
0002
0010
1000
0103
,
2000
0010
0001
3100
,
0001
1000
0100
0000
0010
0001
1000
0000
,
0010
1000
0100
0000
0010
0001
0100
0000
,
1010
0000
1010
0000
0100
0001
0010
0000
,
0001
0100
0010
0000
0101
0000
0000
0000
,
0011
0000
0011
0000
0100
1000
0010
0000
,
1000
0100
0010
0000
1100
0000
0000
0000
,
0000
0000
0000
0000
;
#NOTES:
     dance-double:
     :
     Easy:
     4:
     :
00000000
00000000
00000000
00000000
,
00000000
00000000
00000000
00000000
,
00000000
00000000
00000000
00000000
,
00000000
00000000
00000000
00000000
,
00000010
00000000
00000100
00000000
,
00001001
00000000
00000000
00000000
,
00001001
00000000
00000000
00000000
,
00001001
00000000
00000000
00000000
,
00000100
00000100
00000100
00000100
,
00000000
00010000
00000000
00011000
,
00000000
00100000
00000000
01100000
,
00000000
10000000
00000000
00010000
,
00000000
10000000
00000000
01100000
,
00000000
00001000
00000000
00011000
,
00000000
00000100
00000000
00000110
,
00000000
00000001
00000000
00001001
,
00000100
00000010
00010000
00000000
,
00100000
00000000
00100000
00000000
,
10000000
00000000
00010000
00000000
,
10000000
01000000
00010000
00000000
,
00001000
00000000
00000100
00000000
,
00000010
00001000
00000001
00000000
,
00000100
00000000
00000010
00000000
,
00001000
00010000
01000000
00000000
,
00010000
00000000
10000000
00000000
,
01000000
00000000
00010000
00000000
,
00001000
00001000
00001000
00000000
,
00000010
00000000
00000001
00000000
,
00001000
00001000
00001000
00000000
,
00000010
00000000
00000100
00000000
,
00001000
00001000
00001000
00000000
,
00010000
00000000
00010000
00000000
,
00001000
00000000
00001000
00000000
,
00011000
00000000
01000000
00000000
,
00100000
10000000
01000000
00000000
,
00100000
00100000
00100000
00000000
,
01000000
01000000
01000000
00000000
,
00011000
00000000
00000100
00000000
,
00000010
00000100
00000001
00000000
,
00001000
00001000
00001000
00000000
,
00000010
00000010
00000010
00000000
,
00000100
00000000
00010000
00000000
,
00100000
00000000
01000000
00000000
,
10000000
01000000
00010000
00000000
,
00001000
00000100
00000001
00000000
,
00000010
00000010
00001000
00001000
,
00000100
00000100
00011000
00000000
,
01000000
01000000
00100000
00100000
,
10000000
10000000
10010000
00000000
,
00000000
00000000
00000000
00000000
;
#NOTES:
     dance-double:
     :
     Medium:
     7:
     :
00000000
00000000
00000000
00000000
,
00000000
00000000
00000000
00000000
,
00000000
00000000
00000000
00000000
,
10010000
00000000
00000000
00000000
,
00100000
00100000
01000000
01000000
00010000
00000000
00000000
00000000
,
01000000
01000000
01000000
01000000
,
00001000
00001000
00001000
00001000
,
00000010
00000010
00000010
00000010
,
00000001
00000100
00000001
00000100
00000001
00000100
00000001
00000000
,
00000010
00000110
00001000
00011000
,
00100000
00000000
01100000
00000000
10000000
00000000
00010000
01000000
,
00000000
01100000
00010000
00011000
,
00000010
00000000
00000110
00000000
00000000
00000001
00000100
00000000
,
00000010
00011000
00100000
01100000
,
10000000
00000000
01100000
00000000
00010000
10000000
01000000
00000000
,
00100000
01100000
00010000
00000110
,
00001000
00001000
00000001
00000001
00000110
00000000
00000000
00000000
,
00000001
00000001
00000001
00000001
,
00001000
00001000
00000001
00000001
,
00000100
00001000
00010000
00100000
,
10000000
10000000
00010000
00010000
,
01000000
00100000
10000000
01000000
,
00010000
00001000
00000010
00000001
,
00000100
00000010
00001000
00000001
,
00000100
00000100
00000010
00000010
,
00020000
00000000
00002000
00033000
,
01000000
01000000
01000000
00000000
,
00200000
00000000
20000000
30300000
,
00010000
00010000
00010000
00000000
,
02000000
00000000
00020000
03030000
,
10000000
10000000
10000000
10000000
,
00000000
00100000
01000000
00000000
00100000
01000000
00000000
00000000
,
00100000
00010000
00001000
00000010
,
00001001
00001001
00000110
00000110
,
00001001
00000110
00001001
00000000
,
00000001
00000100
00001000
00010000
,
00100000
10000000
00010000
00000000
,
10010000
10010000
01100000
01100000
,
10010000
01100000
10010000
00000000
,
10000000
01000000
00010000
00001000
,
00000010
00000001
00001000
00000000
,
00002000
00000000
00000002
00003003
,
00000200
00000000
00000020
00000330
,
00001000
00100000
10000000
01000000
,
00100000
00010000
00001000
00000100
,
00000010
00000000
00000010
00000000
00000100
00000010
00000100
00000000
,
00000010
00000001
00000100
00000000
00000101
00000000
00000000
00000000
,
00000010
00000000
00000010
00000000
00000100
00000010
00000100
00000000
,
00001000
00010000
00001000
00000000
00011000
00000000
00000000
00000000
,
00000000
00000000
00000000
00000000
;
#NOTES:
     dance-double:
     :
     Hard:
     9:
     :
00000000
00000000
00000000
00000000
,
00000000
00000000
00000000
00000000
,
00000000
00000000
00000000
00000000
,
10010000
00000000
00000000
00000000
,
01000000
00001000
00010000
00000100
00001000
00000000
00000000
00000000
,
00000110
00001000
00001000
00001000
,
00101000
01000000
01000000
01000000
,
10010000
01000000
01000000
01000000
,
00100000
01000000
00010000
01000000
00001000
00010000
00000100
00000000
,
00000010
00000101
00000010
00001100
,
00000010
00000000
00011000
00000000
01000000
00100000
10000000
00000000
,
01000000
00110000
01000000
10100000
,
01000000
00000000
00011000
00000000
00010000
00000010
00000100
00000000
,
00000010
00000101
00000010
00001100
,
00000010
00000000
00011000
00000000
01000000
00100000
10000000
00000000
,
01000000
00110000
01000000
10100000
,
01000000
00010000
01000000
00001000
00010000
00000000
00000110
00000000
,
00001000
00000001
00001000
00000001
,
00000100
00000010
00000100
00000010
,
00010000
00001000
00010000
00001000
,
00100000
01000000
10000000
00000000
00100000
10000000
00010000
00000000
,
01000000
00010000
00001000
00000010
,
00000100
00000010
00000100
00000000
00000001
00001000
00000100
00000000
,
00010000
00100000
10000000
01000000
,
00010000
01000000
00010000
00000000
00100000
10000000
01000000
00000000
,
10000000
00000000
00000000
10000000
00100000
00000000
00000000
00000000
10000000
00000000
00000000
10000000
01000000
00000000
00100000
00000000
,
01000000
00000000
00000000
01000000
00010000
00000000
00000000
00000000
01000000
00000000
00000000
01000000
00010000
00000000
00001000
00000000
,
00010000
00000000
00000000
00010000
00001000
00000000
00000000
00000000
00010000
00000000
00000000
00010000
00000010
00000000
00001000
00000000
,
00000001
00000100
00000010
00000100
00000001
00001000
00000100
00000000
,
00000010
00000000
00000000
00000010
00000100
00000000
00000000
00000000
00001000
00000000
00000000
00001000
00000100
00000000
00010000
00000000
,
00001000
00000000
00000000
00001000
00010000
00000000
00000000
00000000
00001000
00000000
00000000
00001000
01000000
00000000
00010000
00000000
,
00000000
01000000
00100000
00000000
01000000
00010000
00000000
00000000
,
10000000
01000000
00100000
01000000
00010000
00001000
00000010
00000000
,
00000010
00000001
00000100
00000000
00000100
00001000
00000010
00000000
,
00000010
00001000
00010000
01000000
00100000
00000000
01100000
00000000
,
10000000
01000000
00100000
00010000
,
10000000
00010000
00100000
00010000
10000000
00000000
10010000
00000000
,
00100000
10000000
01000000
00000000
01000000
00010000
00100000
00000000
,
00100000
00010000
00001000
00000100
00000010
00000000
00000110
00000000
,
00000001
00000010
00000100
00001000
,
00000010
00010000
00001000
00100000
00010000
00000000
01000000
00000000
,
00002000
00100000
00010000
00103000
,
00020000
00000010
00001000
00030010
,
00000100
00000010
00001000
00000000
00000100
00000010
00000001
00000000
,
00000100
00001000
00010000
00000000
01000000
10000000
00010000
00000000
,
00110000
00000000
11000000
00000000
00100000
00010000
01000000
00000000
,
00010000
00100000
01000000
00000000
00011000
00000000
00000000
00000000
,
00001010
00000000
00000101
00000000
00000010
00001000
00000100
00000000
,
00001000
00000010
00000100
00000000
00011000
00000000
00000000
00000000
,
00000000
00000000
00000000
00000000
;
