
//----- song id: joma
#TITLE:JOMANDA;
#ARTIST:DJ YOSHITAKA;
#BANNER:JOMANDA.png;
#BACKGROUND:JOMANDA-bg.png;
#CDTITLE:./CDTitles/jubeat copious APPEND.png;
#MUSIC:JOMANDA.ogg;
#SAMPLESTART:62.769;
#SAMPLELENGTH:15;
#DISPLAYBPM:90:600;
#BPMS:0=195,71=97.5,87=195,119=160,121=140,122=120,123=90,127.5=93.75,127.75=97.826,128=110,129=120,131=130,133=140,135=150,137=170,139=180,139.5=190,142=210,145=220,146=240,147=250,151=270,155=600,192=195,292.5=97.5,308.5=195;
#STOPS:70=0.308,119=0.375,120=0.375,121=0.429,122=0.5,191=0.3,259=0.154,291.5=0.923,308.5=0.154,339=0.154;
#NOTES:
     dance-single:
     :
     Beginner:
     4:
     :
0000
0000
0000
0000
,
0000
0000
0000
0000
,
0000
0000
0000
0000
,
0000
0000
0000
0000
,
0000
0000
0000
0000
,
0000
0000
0000
0000
,
1000
0000
1000
0000
,
0001
0000
0001
0000
,
0010
0000
0000
0000
,
0100
0000
0000
0000
,
0001
0000
0010
0000
,
0100
0000
0000
0000
,
1000
0000
0010
0000
,
0100
0000
0000
0000
,
0001
0000
0001
0000
,
1000
0000
1000
0000
,
0001
0000
1000
0000
,
1001
0000
0000
0010
,
0000
0000
0000
1000
,
0000
0000
0000
0100
,
0000
0000
0000
0001
,
0000
0000
0000
1000
,
0000
1000
0000
0001
,
0000
0001
0000
1000
,
0000
1000
0000
0001
,
0000
0001
0000
0010
,
0000
0000
0000
0100
,
0000
0000
0000
0020
,
0000
0000
0000
0000
,
0000
0000
0000
0030
,
0000
0000
0000
0001
,
0001
0001
0000
0010
,
0010
0010
0000
1000
,
1000
1000
0000
0100
,
0100
0100
0000
0001
,
0000
0001
0000
1000
,
0000
1000
0000
0001
,
0000
0000
0000
1000
,
0000
0000
0000
0002
,
0000
0000
0000
0000
,
0000
0000
0000
0000
,
0000
0000
0000
0000
,
0000
0000
0000
0000
,
0000
0000
0000
0000
,
0000
0000
0000
0000
,
0000
0000
0000
0000
,
0000
0000
0000
0000
,
0000
0000
0000
0003
,
0000
0000
0000
0000
,
1000
0000
0010
0000
,
1000
0000
0010
0000
,
1000
1000
1000
0000
,
0001
0001
0001
0000
,
0001
0000
0010
0000
,
0001
0000
0010
0000
,
0001
0001
0001
0000
,
1000
1000
1000
0000
,
1000
0000
0100
0000
,
1000
0000
0100
0000
,
1000
1000
1000
0000
,
0001
0001
0001
0000
,
0001
0000
0100
0000
,
0001
0000
0100
0000
,
0001
0001
0001
0000
,
1000
1000
1000
1000
,
0000
0000
0000
0001
0000
0000
0000
0100
,
0000
0000
0000
0000
,
0000
0000
0000
1000
0000
0000
0000
0100
,
0000
0000
0000
0000
0000
0000
0000
0010
,
0000
0010
0000
0010
0000
0000
0000
0001
,
0000
0001
0000
0001
0000
0000
0000
1000
,
0000
1000
0000
1000
0000
0000
0000
0010
,
0000
0010
0000
0010
0000
0010
0000
0000
,
0000
0010
0000
0000
0000
0000
0000
0000
,
0000
0001
0000
0000
0000
0000
0000
0000
,
0000
1000
0000
0000
0000
0000
0000
0000
,
0000
0100
0000
0000
0000
0000
0000
0000
,
0000
0000
0001
0000
,
1000
0000
0001
0000
,
0010
0010
0010
0000
,
0100
0100
0100
0000
,
1000
0000
0001
0000
,
1000
0000
0001
0000
,
0010
0010
0010
0000
,
0100
0100
0100
0100
,
0000
0000
0000
1000
0000
0000
0000
0100
,
0000
0000
0000
0000
,
0000
0000
0000
0001
0000
0000
0000
0100
,
0000
0000
0000
0000
0000
0000
0000
0010
,
0000
0010
0000
0010
0000
0000
0000
1000
,
0000
1000
0000
1000
0000
0000
0000
0001
,
0000
0001
0000
0001
0000
0000
0000
0010
,
0000
0010
0000
0010
0000
0010
0000
0000
,
0000
0000
0000
0000
;
#NOTES:
     dance-single:
     :
     Easy:
     8:
     :
0000
0000
0000
0000
,
0000
0000
0000
0000
,
0000
0000
0000
0000
,
0000
0000
0000
0000
,
0000
0000
0000
0000
,
0000
0000
0000
0000
,
1000
0000
1000
0000
0010
0000
0100
0001
,
0000
0001
0000
0001
0000
0000
0100
0000
,
0001
0001
0010
0100
,
1000
1000
0001
0001
,
0100
0000
0100
0000
0010
0000
1000
0001
,
0000
0001
0000
0001
0000
0000
1000
0000
,
0001
0000
0001
0000
0100
0000
0010
1000
,
0000
1000
0000
1000
0000
0000
0100
0000
,
0010
0001
0100
0000
,
0010
1000
0100
0000
,
0010
0001
0100
1000
,
0001
1000
1001
0010
,
0000
0001
0000
2000
,
0000
0000
3000
0010
,
0000
0100
0000
0002
,
0000
0000
0003
0010
,
0010
0010
0000
0001
,
0001
0001
0000
0100
,
0100
0100
0000
1000
,
1000
1000
0000
0010
,
0010
1000
0000
0001
,
0001
0010
0000
0100
,
1000
0010
0001
1000
,
0000
0000
0000
0000
0000
0000
0000
0000
0000
0000
0000
0000
0000
0000
0000
0000
0000
0000
0000
0000
0000
0000
0000
0000
0000
0000
0000
0000
0000
0000
0000
0000
0000
0000
0000
0000
0000
0000
0000
0000
0000
0000
0000
0000
0000
0000
0000
0000
0020
0030
0000
0000
0000
0000
0000
0000
0000
0000
0000
0000
0000
0000
0000
0000
,
2000
3000
0000
0000
0000
0000
0000
0000
0000
0000
0000
0000
0000
0000
0000
0000
0002
0003
0000
0000
0000
0000
0000
0000
0000
0000
0000
0000
0000
0000
0000
0000
0200
0300
0000
0000
0000
0000
0000
0000
0000
0000
0000
0000
0000
0000
0000
0000
0010
0000
0000
0000
0000
0000
0000
0000
0000
0000
0000
0000
0000
0000
0000
0000
,
1000
0100
0000
0010
,
0001
0100
0000
0010
,
1000
0001
0000
0010
,
0001
1000
0000
0010
,
0010
0010
0000
1000
,
1000
1000
0000
0001
,
0001
0001
0000
0010
,
0010
0010
0000
2002
,
0000
0000
0000
0000
,
0000
0000
0000
0000
,
0000
0000
0000
0000
,
0000
0000
0000
0000
,
0000
0000
0000
0000
,
0000
0000
0000
0000
,
0000
0000
0000
0000
,
0000
0000
0000
0000
,
0000
0000
0000
3003
,
0000
0000
0000
0000
,
0010
0001
0010
0100
,
1000
0100
0001
0100
,
0010
1000
0010
0100
,
0001
0100
1000
0000
,
0001
0010
0100
1000
,
0001
0010
1000
0010
,
0001
0100
0010
1000
,
0001
1000
0001
0000
,
2000
0100
0100
3100
,
0010
0001
0100
1000
,
0002
0100
0100
0103
,
0010
1000
0100
0000
,
0200
0010
0010
0310
,
0001
0001
1000
1000
,
0020
0100
0100
0130
,
0001
1000
0001
1001
,
0000
0010
0010
0010
,
0000
0100
0000
0001
0000
1000
0000
0100
,
0000
0010
0010
0010
,
0000
0100
0000
1000
0000
0001
0000
0010
,
0000
0010
0000
0100
0000
0100
0000
0010
,
0000
0001
0000
0100
0000
1000
0000
1000
,
0000
0000
0000
0001
0000
0000
0000
0100
,
0000
1000
0000
0010
0000
0001
0000
0000
,
0000
1000
0000
0000
0000
0001
0000
0000
,
0000
0200
0000
0000
0000
0000
0000
0300
,
0000
0010
0000
0000
0000
1000
0000
0000
,
0000
0002
0000
0000
0000
0000
0000
0000
,
0003
0001
0010
0100
,
1000
0100
0001
0100
,
0010
1000
0010
0100
,
0001
0100
1000
0000
,
0200
0010
0010
0310
,
0001
0001
1000
1000
,
0020
0100
0100
0130
,
0001
1000
0001
1001
,
0000
0010
0010
0010
,
0000
0100
0000
0001
0000
1000
0000
0100
,
0000
0010
0010
0010
,
0000
0100
0000
1000
0000
0001
0000
0010
,
0000
0010
0000
0100
0000
0100
0000
0010
,
0000
0001
0000
0100
0000
1000
0000
1000
,
0000
0000
0000
0001
0000
0000
0000
0100
,
0000
1000
0000
0010
0000
0001
0000
1001
,
0000
0000
0000
0000
;
#NOTES:
     dance-single:
     :
     Medium:
     12:
     :
0000
0000
0000
0000
,
0000
0000
0000
0000
,
0000
0000
0000
0000
,
0000
0000
0000
0000
,
0000
0000
0000
0000
,
0000
0000
0000
0000
,
0001
0000
0001
0000
0010
0000
0100
1000
,
0000
1000
0000
1000
0001
0100
0010
0000
,
1000
1000
0010
0100
,
0001
0000
0001
0000
1000
0001
1000
0001
,
0100
0000
0100
0000
0010
0000
1000
0010
,
0000
0010
0000
0010
0100
0001
0100
0000
,
0001
0000
0001
0000
1000
0000
0100
0010
,
0000
0010
0000
0010
0001
1000
0001
0000
,
1000
0000
1000
0000
0100
0000
0010
0001
,
1000
0000
1000
0000
0001
0000
1000
0001
,
0100
0000
0010
1000
0100
0000
0010
0001
,
1000
0000
0000
0001
0000
0000
1001
0000
0000
0000
0000
0000
0020
0000
0000
0000
,
0000
2030
0000
3002
,
0000
0000
0000
0023
,
0000
0230
0000
2300
,
0000
0000
3000
0010
,
0010
0010
0010
1000
,
1000
0001
0001
0100
,
0100
0100
0100
0001
,
0100
0000
0010
0000
1000
0000
0100
1000
,
0100
0000
0010
0100
0010
0000
0001
0010
,
0001
0000
1000
0001
1000
0000
0010
1000
,
0100
0000
0010
0000
0001
0000
0100
0000
0010
0000
0000
0000
1000
0000
0000
0010
,
0000
0000
0000
0000
0000
0000
0000
0000
0001
0000
0000
0000
0000
0000
0000
0000
0000
0000
0000
0000
0100
0000
0000
0000
0000
0000
0000
0000
0000
0000
0000
0000
1000
0000
0000
0000
0000
0000
0000
0000
0000
0000
0000
0000
0000
0000
0000
0000
0002
0003
0000
0000
0000
0000
0000
0000
0000
0000
0000
0000
0000
0000
0000
0000
,
0020
0030
0000
0000
0000
0000
0000
0000
0000
0000
0000
0000
0000
0000
0000
0000
0200
0300
0000
0000
0000
0000
0000
0000
0000
0000
0000
0000
0000
0000
0000
0000
2000
3000
0000
0000
0000
0000
0000
0000
0000
0000
0000
0000
0000
0000
0000
0000
0001
0000
0000
0000
0000
0000
0000
0000
0100
0000
0000
0000
0010
0000
0000
0000
,
0100
0000
0001
0010
0000
1000
0000
0100
0000
0000
0000
0000
1000
0000
0100
0010
,
0100
0000
1000
0010
0000
0001
0000
0100
0000
0000
0000
0000
0001
0000
1000
0000
,
0100
0000
0010
0001
0000
1000
0000
0001
0000
0000
0000
0000
0100
0000
0001
0000
,
1000
0000
0100
0010
0000
0100
0000
0010
0000
0000
0000
0000
0001
0000
0010
0000
,
0100
0000
1000
0000
0100
0000
1000
0010
,
0100
0001
0100
0001
,
0010
1000
0100
0001
,
0010
1000
0100
2002
,
0000
0000
0000
0000
,
0000
0000
0000
0000
,
0000
0000
0000
0000
,
0000
0000
0000
0000
,
0000
0000
0000
0000
,
0000
0000
0000
0000
,
0000
0000
0000
0000
,
0000
0000
0000
0000
,
0000
0000
0000
3003
,
0010
0000
0000
0010
0000
0000
1000
0000
0000
1000
0000
0000
0001
0000
0000
0000
,
0010
0000
0000
0010
0000
0000
0100
0000
0000
0100
0000
0000
0010
0000
0001
0000
,
1000
0000
0000
1000
0000
0000
0001
0000
0000
0001
0000
0000
0100
0000
0010
0000
,
1000
0000
0000
1000
0000
0000
0100
0000
0000
0100
0000
0000
0010
0000
0100
0000
,
0001
0000
0000
0001
0000
0000
0100
0000
0000
0100
0000
0000
1000
0000
0010
0000
,
0100
0000
0000
0100
0000
0000
0010
0000
0000
0010
0000
0000
1000
0000
0001
0000
,
0010
0000
0000
0010
0000
0000
0001
0000
0000
0001
0000
0000
0010
0000
0100
0000
,
1000
0000
0000
1000
0000
0000
0001
0000
0000
0001
0000
0000
0100
0000
0010
0000
,
1000
0000
0000
1000
0000
0000
0001
0000
0000
0001
0000
0000
0010
0000
0000
0000
,
0002
0000
0000
1000
0000
0000
0100
0000
0000
0103
0000
0000
0010
0000
1000
0000
,
0200
0000
0000
0010
0000
0000
1000
0000
0000
1300
0000
0000
0010
0000
0001
0000
,
2000
0000
0000
0001
0000
0000
0010
0000
0000
3010
0000
0000
0100
0000
0001
0000
,
0020
0000
0000
0100
0000
0000
0001
0000
0000
0031
0000
0000
1000
0000
0001
0000
,
0200
0000
0000
1000
0000
0000
0010
0000
0000
0310
0000
0000
0001
0000
1000
0000
,
0020
0000
0000
0100
0000
0000
1000
0000
0000
1030
0000
0000
0001
0000
1000
0000
,
0200
0000
0000
0001
0000
0000
0010
0000
0000
0310
0000
0000
1000
0000
0001
0000
,
0000
0100
0000
0010
0000
1000
0001
0100
,
0000
0001
0010
0000
0010
0000
0010
0000
,
0000
0100
0000
1000
0100
0001
0000
0100
,
0000
1000
0010
0000
0010
0000
0010
0000
,
0000
0100
0000
0001
0100
1000
0000
0010
,
1000
0100
0000
0010
0001
0100
0000
0010
,
1000
0001
0000
0100
0001
1000
0000
0001
,
0010
0100
1000
0100
0010
0001
1000
0000
,
0000
0001
0000
0010
0000
1000
0000
0000
,
0000
0002
0000
0000
0000
2003
0000
0000
,
0000
3200
0000
0000
0000
0000
0000
0000
,
0000
0320
0000
0000
0000
0032
0000
0000
,
0000
2003
0000
0000
0000
3010
0010
0010
,
0010
0000
0000
0000
1001
0000
0100
0000
0000
0100
0000
0000
0010
0000
1000
0000
,
0001
0000
0000
0001
0000
0000
1000
0000
0000
1000
0000
0000
0100
0000
0010
0000
,
0001
0000
0000
0001
0000
0000
0100
0000
0000
0100
0000
0000
0010
0000
0100
0000
,
1000
0000
0000
1000
0000
0000
0100
0000
0000
0100
0000
0000
0001
0000
0010
0000
,
0200
0000
0000
1000
0000
0000
0010
0000
0000
0310
0000
0000
0001
0000
1000
0000
,
0020
0000
0000
0100
0000
0000
1000
0000
0000
1030
0000
0000
0001
0000
1000
0000
,
0200
0000
0000
0001
0000
0000
0010
0000
0000
0310
0000
0000
1000
0000
0001
0000
,
0000
0100
0000
0010
0000
1000
0001
0100
,
0000
0001
0010
0000
0010
0000
0010
0000
,
0000
0100
0000
1000
0100
0001
0000
0100
,
0000
1000
0010
0000
0010
0000
0010
0000
,
0000
0100
0000
0001
0100
1000
0000
0010
,
1000
0100
0000
0010
0001
0100
0000
0010
,
1000
0001
0000
0100
0001
1000
0000
0001
,
0010
0100
1000
0100
0010
0001
1000
0000
,
0000
0001
0000
0010
0001
1000
0100
0010
,
0000
0000
0000
0000
;
#NOTES:
     dance-single:
     :
     Hard:
     15:
     :
0000
0000
0000
0000
,
0000
0000
0000
0000
,
0000
0000
0000
0000
,
0000
0000
0000
0000
,
0000
0000
0000
0000
,
0000
0000
0000
0000
,
1000
0000
1000
0000
0100
0000
0010
0001
,
0000
0001
0000
0001
1000
0010
0100
0000
,
0001
0001
0100
0010
,
1000
0000
1000
0000
0001
0001
1000
1000
,
0010
0000
0010
0000
0100
0001
0100
0010
,
0000
0000
0010
0000
0000
0000
0010
0000
0000
0000
1000
0001
0100
0000
0000
0000
,
1000
0000
1000
0000
0001
0010
0100
0010
,
0000
0000
0010
0000
0000
0000
0010
0000
0000
0000
0001
1000
0100
0000
0000
0000
,
0001
0000
0001
0000
0010
0000
0100
1000
,
0001
0000
0001
0000
1000
0000
0001
1000
,
0010
0000
0100
0001
0010
0000
0100
1000
,
0001
0000
0000
1000
0000
0000
1001
0000
0000
0000
0000
0000
0200
0000
0000
0000
,
0000
0302
0000
2003
,
0000
0000
0000
3200
,
0000
0320
0000
0032
,
0000
0000
0003
0100
,
0100
0100
0100
0001
,
0001
1000
1000
0010
,
0010
0010
0010
1000
,
0010
0000
0100
0000
0001
0000
0010
0001
,
0100
0000
0010
1000
0100
0000
0010
0001
,
0100
0000
0010
1000
0100
0000
0010
0001
,
0010
0000
0100
0000
1000
0000
0010
0000
0100
0000
0001
0000
1000
0000
0000
0010
,
0000
0000
0000
0000
0000
0000
0000
0000
0001
0000
0000
0000
0000
0000
0000
0000
0000
0000
0000
0000
1000
0000
0000
0000
0000
0000
0000
0000
0000
0000
0000
0000
0001
0000
0000
0000
0000
0000
0000
0000
0000
0000
0000
0000
0000
0000
0000
0000
2200
3300
0000
0000
0000
0000
0000
0000
0000
0000
0000
0000
0000
0000
0000
0000
,
0220
0330
0000
0000
0000
0000
0000
0000
0000
0000
0000
0000
0000
0000
0000
0000
0022
0033
0000
0000
0000
0000
0000
0000
0000
0000
0000
0000
0000
0000
0000
0000
2002
3003
0000
0000
0000
0000
0000
0000
0000
0000
0000
0000
0000
0000
0000
0000
1000
0000
0000
0000
0000
0000
0000
0000
0010
0000
0000
0000
0100
0000
0000
0000
,
0010
1000
0100
0010
0000
0001
0000
0010
0000
0000
0000
0000
0001
0000
0010
0100
,
0010
0001
0100
0010
0000
1000
0000
0010
0000
0000
0000
0000
1000
0000
0001
0000
,
0010
0100
1000
0100
0000
1000
0000
0001
0000
0000
0000
0000
0100
0000
0010
0000
,
0100
0001
0010
0100
0000
1000
0000
0100
0000
0000
0000
0000
1000
0000
0100
0000
,
0010
0000
0001
0100
0000
0010
0000
0100
0000
0000
0000
0000
0001
0000
0100
0000
,
0010
0000
1000
0010
0000
1000
0000
1000
0000
0000
0000
0000
0100
0000
0010
0000
,
0001
0000
0100
0010
1000
0000
0100
0010
,
0001
0000
0100
0010
1000
0000
2002
0000
,
0000
0000
0000
0000
,
0000
0000
0000
0000
,
0000
0000
0000
0000
,
0000
0000
0000
0000
,
0000
0000
0000
0000
,
0000
0000
0000
0000
,
0000
0000
0000
0000
,
0000
0000
0000
0000
,
0000
0000
0000
3003
,
0100
0000
0000
0100
0000
0000
0001
0000
0000
0001
0000
0000
1000
0000
1000
0000
,
0100
0000
0000
0100
0000
0000
0010
0000
0000
0010
0000
0000
0100
1000
0001
0100
,
0001
0000
0000
0001
0000
0000
1000
0000
0000
1000
0000
0000
0010
0100
0001
1000
,
0001
0000
0000
0001
0000
0000
0010
0000
0000
0010
0000
0000
0100
0010
0001
1000
,
0001
0000
0000
0001
0000
0000
0100
0000
0000
0100
0000
0000
0010
1000
0010
0100
,
0010
0000
0000
0010
0000
0000
0100
0000
0000
0100
0000
0000
0001
1000
0100
1000
,
0001
0000
0000
0001
0000
0000
1000
0000
0000
1000
0000
0000
0100
0010
0001
1000
,
0010
0000
0000
0010
0000
0000
1000
0000
0000
1000
0000
0000
0010
0100
0001
0100
,
0010
0000
0000
0010
0000
0000
1000
0000
0000
1000
0000
0000
0100
0000
0000
0000
,
1000
0000
0001
0100
0000
0010
0100
0000
0001
0100
0000
0010
1000
0000
0001
0000
,
0010
0000
0100
1000
0000
0001
1000
0000
0100
1000
0000
0001
1000
0001
1000
0000
,
0100
0000
0010
0001
0000
0010
0100
0000
0010
0001
0000
0010
0100
0000
1000
0000
,
0001
0000
0100
0010
0000
0100
0001
0000
0100
0010
0000
1000
0001
1000
0001
0000
,
0020
0000
0000
0001
0000
0000
0100
0000
0000
0130
0000
0000
1000
0001
1000
0001
,
0200
0000
0000
0010
0000
0000
0001
0000
0000
0301
0000
0000
1000
0001
0010
0100
,
2000
0000
0000
0001
0000
0000
0100
0000
0000
3100
0000
0000
0001
0000
1000
0000
,
0000
0010
0000
0100
0000
0110
1001
0010
,
0000
0001
0101
0000
1010
0000
1100
0000
,
0000
0010
0000
0001
0010
1000
0000
0010
,
0000
0001
0101
0000
0011
0000
1100
0000
,
0000
0000
0010
0000
0000
0000
1000
0000
0001
0000
0100
0000
0000
0000
0001
0010
,
0100
0010
0001
0000
0000
0000
1000
0010
0100
0010
1000
0000
0000
0000
0001
0000
,
0010
0000
0100
0000
1000
0000
0010
1000
0001
1000
0001
0000
1000
0000
0100
0000
,
0010
0001
0010
0100
1000
0001
0100
0000
,
0100
0000
0000
0000
0000
0000
0000
0000
0010
0000
0000
0000
0000
0000
0000
0000
0100
0000
0000
0000
0000
0000
0000
0000
1000
0000
0000
0000
0000
0000
0000
0000
0100
0000
0000
0000
0000
0000
0000
0000
0001
0000
0000
0000
0000
0000
0000
0000
0100
0000
0000
0000
0000
0000
0000
0000
0020
0030
0000
0000
0000
0000
0000
0000
,
0000
2000
0000
0000
0000
3002
0000
0000
,
0000
0023
0000
0000
0000
0000
0000
0000
,
0000
0230
0000
0000
0000
2300
0000
0000
,
0000
0000
0000
0000
3002
0000
0000
0000
0000
0000
0000
0000
0000
0000
0000
0000
0000
0000
0000
0000
0103
0000
0000
0010
0000
0000
1000
0000
0000
0100
0000
0000
,
0010
0000
0000
0000
0001
0000
0000
0000
2000
3000
0000
0000
0000
0000
0000
0000
1001
0000
0000
0000
0000
0000
0000
0000
0010
0000
0000
0000
0000
0000
0000
0000
0000
0000
0000
0000
0010
0000
0000
0000
0000
0000
0000
0000
0000
0000
0000
0000
0100
0000
0000
0000
0001
0000
0000
0000
1000
0000
0000
0000
0100
0000
0000
0000
,
1000
0000
0000
1000
0000
0000
0001
0000
0000
0001
0000
0000
0010
0100
1000
0001
,
1000
0000
0000
1000
0000
0000
0010
0000
0000
0010
0000
0000
0100
0010
1000
0001
,
1000
0000
0000
1000
0000
0000
0100
0000
0000
0100
0000
0000
0010
0001
0010
0100
,
1000
0000
1000
0100
0000
0010
0100
0000
1000
0100
0000
0010
0001
0000
1000
0000
,
0010
0000
0100
0001
0000
1000
0001
0000
0100
0001
0000
1000
0001
1000
0001
0000
,
0100
0000
0010
1000
0000
0010
0100
0000
0010
1000
0000
0010
0100
0000
0001
0000
,
0000
0010
0000
0100
0000
0110
1001
0010
,
0000
1000
0100
0010
0100
0001
0100
0000
,
0000
0010
0000
1000
0010
0001
0000
0010
,
0000
1000
0100
0010
0100
0001
0100
0000
,
0000
0000
0010
0000
0000
0000
0001
0000
1000
0000
0100
0000
0000
0000
1000
0010
,
0100
0010
1000
0000
0000
0000
0001
0010
0100
0010
0001
0000
1000
0000
0000
0000
,
0010
0000
0100
0000
0001
0000
0010
0001
1000
0001
1000
0000
0001
0000
0100
0000
,
0010
1000
0010
0100
0001
1000
0100
0000
,
0100
0000
0010
0000
0100
0000
0001
0000
0100
0000
1000
0001
1000
0001
0100
0000
,
0000
0000
0000
0000
;
#NOTES:
     dance-single:
     :
     Challenge:
     17:
     :
0000
0000
0000
0000
,
0000
0000
0000
0000
,
0000
0000
0000
0000
,
0000
0000
0000
0000
,
0000
0000
0000
0000
,
0000
0000
0000
0000
,
0001
0000
0001
0000
0100
0000
0010
1010
,
0000
1010
0000
1010
0001
0010
0100
0000
,
1000
0000
1000
0100
0010
0000
0010
0001
,
1000
0000
1000
0000
0001
0001
1000
1000
,
0010
0000
0010
0000
0100
1000
0100
0110
,
0000
0000
0110
0000
0000
0000
0110
0000
1000
0000
0001
1000
0100
0000
0000
0000
,
0001
0000
0001
0000
1000
0010
0100
0110
,
0000
0000
0110
0000
0000
0000
0110
0000
0001
0000
1000
0001
0100
0000
0000
0000
,
1000
0000
1000
0010
0100
0000
0100
0001
,
1000
0000
1000
0100
0010
0000
0010
0001
,
0010
0000
0100
1000
0010
0100
0001
1000
,
0001
0000
0000
1000
0000
0000
1001
0000
0000
0000
0000
0000
1000
0100
0010
0001
,
0000
0000
0000
0000
1000
0100
0010
0001
0000
0100
0000
0000
1000
0100
0010
0001
,
0000
0000
0000
0000
0000
0000
0000
0000
0000
0000
0000
0000
1000
0010
0100
0001
,
0000
0000
0000
0000
1000
0010
0100
0001
0000
0010
0000
0000
1000
0010
0100
0001
,
0000
0000
0000
0100
,
0100
0100
0100
1000
,
1000
0001
0001
0010
,
0010
0010
0010
0001
,
0010
0000
0100
0000
1000
0000
0010
1000
,
0100
0010
0001
0100
0010
1000
0010
0100
,
0001
0000
0010
0000
0100
0000
1000
0000
0010
0000
0100
0000
0010
1000
0010
1000
,
0001
0100
0001
0100
0001
0010
0001
0010
0100
1000
0100
1000
0001
0000
0000
0010
,
0000
0000
0000
0000
0000
0000
0000
0000
1000
0000
0000
0000
0000
0000
0000
0000
0000
0000
0000
0000
0001
0000
0000
0000
0000
0000
0000
0000
0000
0000
0000
0000
1000
0000
0000
0000
0000
0000
0000
0000
0000
0000
0000
0000
0000
0000
0000
0000
0202
0303
0000
0000
0000
0000
0000
0000
0000
0000
0000
0000
0000
0000
0000
0000
,
0220
0330
0000
0000
0000
0000
0000
0000
0000
0000
0000
0000
0000
0000
0000
0000
2020
3030
0000
0000
0000
0000
0000
0000
0000
0000
0000
0000
0000
0000
0000
0000
2002
3003
0000
0000
0000
0000
0000
0000
0000
0000
0000
0000
0000
0000
0000
0000
0001
0000
0000
0000
0000
0000
0000
0000
0010
0000
0000
0000
0100
0000
0000
0000
,
0010
0001
0100
0010
0000
1000
0000
1010
0000
0000
0000
0000
1000
0000
0010
0100
,
0010
1000
0100
0010
0000
0001
0000
0011
0000
0000
0000
0000
0001
0000
1000
0010
,
0100
0001
1000
0100
0000
0010
0000
0110
0000
0000
0000
0000
1000
0000
0001
0100
,
0010
1000
0010
0100
0000
0001
0000
0101
0000
0000
0000
0000
0001
0000
0100
0010
,
1000
0100
0010
0001
0000
1000
0000
0001
0000
0000
0000
0000
1000
0000
0100
0010
,
0001
0100
0010
1000
0000
0001
0000
1000
0000
0000
0000
0000
0100
0000
0010
0000
,
0001
0100
0010
1000
0100
0010
0001
0100
,
1000
0100
0001
0100
1000
0100
2002
0000
,
0000
0000
0000
0000
,
0000
0000
0000
0000
,
0000
0000
0000
0000
,
0000
0000
0000
0000
,
0000
0000
0000
0000
,
0000
0000
0000
0000
,
0000
0000
0000
0000
,
0000
0000
0000
0000
,
0000
0000
0000
3003
,
0010
0000
0000
1010
0000
0000
0100
0000
0000
0101
0000
0000
0001
0000
0001
0000
,
1000
0000
0100
0010
0000
0100
1000
0000
0001
1000
0000
0100
0010
0001
0100
0010
,
1000
0000
0010
0100
0000
0010
1000
0000
0001
1000
0000
0100
0010
0001
0100
0010
,
1000
0000
0100
0010
0000
0100
1000
0000
0001
1000
0000
0001
0010
0100
1000
0010
,
1000
0000
0001
0100
0000
0010
0100
0000
0001
0100
0000
0010
1000
0000
0001
0000
,
0010
0000
0100
1000
0000
0100
0010
0000
0001
1000
0000
0001
0100
0010
1000
0001
,
1000
0000
0001
0010
0000
0001
1000
0000
0001
0100
0000
0010
1000
0001
0100
0010
,
1000
0000
0000
1000
0000
0000
0001
0000
0000
0001
0000
0000
0010
0100
1000
0100
,
0010
0000
0000
0001
0000
0000
1000
0000
0000
0001
0000
0000
1001
0000
0000
0000
,
0001
0000
1000
0100
0000
0010
0100
0000
1000
0100
0000
0010
0001
0100
0010
1000
,
0010
0000
0100
0001
0000
1000
0001
0000
0010
0001
0000
1000
0001
0010
0100
1000
,
0100
0000
0010
0100
0000
1000
0100
0000
0010
0001
0000
0100
0010
1000
0100
0010
,
0001
0000
0100
0010
0000
1000
0010
0000
0100
0010
0000
1000
0001
0000
1000
0000
,
0020
0000
1030
0002
0000
1003
0020
0000
1030
0002
0000
1003
0100
0010
0001
0100
,
0020
0000
1030
0002
0000
1003
0200
0000
1300
0002
0000
0103
0010
1000
0100
0010
,
0001
0000
0000
0001
0000
0000
0100
0000
0000
0100
0000
0000
0010
0000
1010
0000
,
0000
0110
0000
0101
0010
0100
1001
0010
,
0000
0100
1000
0010
1000
0001
0100
0000
,
0100
0010
0000
1000
0010
0001
0000
0100
,
0000
1000
0100
0010
0001
0100
0010
0000
,
0010
0000
0100
0000
0000
0000
0010
0000
1000
0000
0100
0000
0000
0000
1000
0010
,
0100
0010
1000
0100
0010
0000
0001
0010
0100
0010
0001
0100
0010
0000
1000
0000
,
0010
0000
0100
0000
0001
0000
0010
0001
1000
0001
1000
0010
0100
0000
0010
0000
,
1000
0100
0000
0010
0001
1000
0100
0000
,
0100
0000
0000
0000
0000
0000
0000
0000
0010
0000
0000
0000
0000
0000
0000
0000
0001
0000
0000
0000
0000
0000
0000
0000
1000
0000
0000
0000
0100
0000
0000
0000
1000
0000
0000
0000
0000
0000
0000
0000
0001
0000
0000
0000
0100
0000
0000
0000
0001
0000
0000
0000
0000
0000
0000
0000
0020
0030
0000
0000
0000
0000
0000
0000
,
0000
0000
0000
0000
0001
0000
0000
0010
0000
0000
0001
0000
0000
0010
0000
0000
0100
0000
0000
0000
1000
0000
0000
0010
0000
0000
0100
0000
0000
0010
0000
0000
,
0100
0000
0000
0000
0001
0000
0000
1000
0000
0000
0001
0000
0000
1000
0000
0000
0010
0000
0000
0000
0100
0000
0000
0001
0000
0000
1000
0000
0000
0001
0000
0000
,
1000
0000
0000
0000
0001
0000
0000
0010
0000
0000
0100
0000
0000
1000
0000
0000
0010
0000
0000
0000
1000
0000
0000
0010
0000
0000
0100
0000
0000
0001
0000
0000
,
0010
0000
0000
0000
2000
0000
0000
0000
0000
0000
0000
0000
0000
0000
0000
0000
0000
0000
0000
0000
3100
0000
0000
0010
0000
0000
0001
0000
0000
0100
0000
0000
,
0010
0000
0000
0000
1000
0000
0000
0000
0002
0003
0000
0000
0000
0000
0000
0000
1001
0000
0000
0000
0000
0000
0000
0000
0100
0000
0000
0000
0000
0000
0000
0000
0001
0000
0000
0000
0100
0000
0000
0000
0000
0000
0000
0000
0010
0000
0000
0000
1000
0000
0000
0000
0100
0000
0000
0000
0010
0000
0000
0000
0001
0000
0000
0000
,
0010
0000
0100
1000
0000
0001
1000
0000
0010
1000
0000
0001
1000
0010
0100
0001
,
0100
0000
0010
0100
0000
0001
0100
0000
0010
1000
0000
0100
0010
0001
0100
0010
,
1000
0000
0100
0010
0000
0001
0010
0000
0100
0010
0000
0001
1000
0000
0001
0000
,
0020
0000
0031
2000
0000
3001
0020
0000
0031
2000
0000
3001
0100
0010
1000
0100
,
0020
0000
0031
2000
0000
3001
0200
0000
0301
2000
0000
3100
0010
0001
0100
0010
,
1000
0000
0000
1000
0000
0000
0100
0000
0000
0100
0000
0000
0010
0000
0011
0000
,
0000
0110
0000
1100
0010
0100
1001
0010
,
0000
0100
0001
0010
0001
1000
0100
0000
,
0100
0010
0000
0001
0010
1000
0000
0100
,
0000
0001
0100
0010
1000
0100
0010
0000
,
0010
0000
0100
0000
0000
0000
0010
0000
0001
0000
0100
0000
0000
0000
0001
0010
,
0100
0010
0001
0100
0010
0000
1000
0010
0100
0010
1000
0100
0010
0000
0001
0000
,
0010
0000
0100
0000
1000
0000
0010
1000
0001
1000
0001
0010
0100
0000
0010
0000
,
0001
0010
0000
0001
0010
0000
0100
0010
0000
0100
0010
0000
0001
0000
0000
0000
,
1000
0000
0001
0000
0010
0000
0001
0100
0010
1000
0100
0010
0001
0000
1000
0000
,
0000
0000
0000
0000
;
#NOTES:
     dance-double:
     :
     Easy:
     8:
     :
00000000
00000000
00000000
00000000
,
00000000
00000000
00000000
00000000
,
00000000
00000000
00000000
00000000
,
00000000
00000000
00000000
00000000
,
00000000
00000000
00000000
00000000
,
00000000
00000000
00000000
00000000
,
10000000
00000000
10000000
00000000
00100000
00000000
01000000
00010000
,
00000000
00010000
00000000
00010000
00000000
00000000
00100000
00000000
,
00001000
00001000
00010000
00010000
,
00001000
00000100
00000001
00000010
,
00000001
00000000
00000001
00000000
00000100
00000000
00000010
00001000
,
00000000
00001000
00000000
00001000
00000000
00000000
00000001
00000000
,
00000010
00000000
00000100
00000000
00001000
00000000
00010000
00001000
,
00000000
00001000
00000000
00001000
00000000
00000000
01000000
00000000
,
00100000
01000000
00010000
00000000
,
00100000
01000000
10000000
00000000
,
00010000
00100000
10000000
01000000
,
00010000
00001000
00011000
00000010
,
00000000
00001000
00000000
00000200
,
00000000
00000000
00000300
00000010
,
00000000
00000001
00000000
00000200
,
00000000
00000000
00000300
00001000
,
00001000
00001000
00000000
00010000
,
00010000
00010000
00000000
00100000
,
00100000
00100000
00000000
10000000
,
10000000
10000000
00000000
00100000
,
10000000
01000000
00000000
00100000
,
00010000
01000000
00000000
00100000
,
00010000
00001000
00000010
00000001
,
00000000
00000000
00000000
00000000
00000000
00000000
00000000
00000000
00000000
00000000
00000000
00000000
00000000
00000000
00000000
00000000
00000000
00000000
00000000
00000000
00000000
00000000
00000000
00000000
00000000
00000000
00000000
00000000
00000000
00000000
00000000
00000000
00000000
00000000
00000000
00000000
00000000
00000000
00000000
00000000
00000000
00000000
00000000
00000000
00000000
00000000
00000000
00000000
00002000
00003000
00000000
00000000
00000000
00000000
00000000
00000000
00000000
00000000
00000000
00000000
00000000
00000000
00000000
00000000
,
00000002
00000003
00000000
00000000
00000000
00000000
00000000
00000000
00000000
00000000
00000000
00000000
00000000
00000000
00000000
00000000
00002000
00003000
00000000
00000000
00000000
00000000
00000000
00000000
00000000
00000000
00000000
00000000
00000000
00000000
00000000
00000000
00000002
00000003
00000000
00000000
00000000
00000000
00000000
00000000
00000000
00000000
00000000
00000000
00000000
00000000
00000000
00000000
00000100
00000000
00000000
00000000
00000000
00000000
00000000
00000000
00000000
00000000
00000000
00000000
00000000
00000000
00000000
00000000
,
00000010
00010000
00000000
00001000
,
00100000
00010000
00000000
01000000
,
00001000
00010000
00000000
00000100
,
00010000
00001000
00000000
00100000
,
00010000
01000000
00000000
00100000
,
10000000
01000000
00000000
00010000
,
00010000
00010000
00000000
00001000
,
00001000
00001000
00000000
00022000
,
00000000
00000000
00000000
00000000
,
00000000
00000000
00000000
00000000
,
00000000
00000000
00000000
00000000
,
00000000
00000000
00000000
00000000
,
00000000
00000000
00000000
00000000
,
00000000
00000000
00000000
00000000
,
00000000
00000000
00000000
00000000
,
00000000
00000000
00000000
00000000
,
00000000
00000000
00000000
00033000
,
00000000
00000000
00000000
00000000
,
00001000
00000100
00000001
00000010
,
00000100
00001000
00010000
00100000
,
00010000
10000000
00100000
01000000
,
00010000
10000000
01000000
00000000
,
10000000
01000000
00010000
00001000
,
00000100
00000001
00001000
00000010
,
00000100
00000010
00001000
00000100
,
00000010
00000001
00001000
00000000
,
00000200
00000010
00020300
00000010
,
00031000
00010000
00100000
10000000
,
00020000
00100000
20030000
00100000
,
31000000
00010000
00001000
00010000
,
00002000
00000010
00023000
00000010
,
00031000
00000100
00000001
00001000
,
00000200
00000010
00002300
00000010
,
00003100
00000001
00000010
00001001
,
00000000
00000010
00000010
00000010
,
00000000
00000100
00000000
00001000
00000000
00010000
00000000
00100000
,
00000000
01000000
01000000
01000000
,
00000000
00010000
00000000
00100000
00000000
01000000
00000000
10000000
,
00000000
00010000
00000000
01000000
00000000
00010000
00000000
00100000
,
00000000
00010000
00000000
00001000
00000000
00000100
00000000
00000010
,
00000000
00000000
00000000
00000001
00000000
00000000
00000000
00001000
,
00000000
00000010
00000000
00000100
00000000
00000001
00000000
00000000
,
00000000
00001000
00000000
00000000
00000000
00000001
00000000
00000000
,
00000000
00000200
00000000
00000000
00000000
00000000
00000000
00000300
,
00000000
00001000
00000000
00000000
00000000
00010000
00000000
00000000
,
00000000
00200000
00000000
00000000
00000000
00000000
00000000
00000000
,
00300000
10000000
00010000
00100000
,
01000000
00010000
00001000
00000010
,
00000001
00000100
00001000
00000100
,
00001000
00000001
00000100
00000000
,
00002000
00100000
00023000
00100000
,
00031000
00010000
01000000
10000000
,
00020000
00100000
20030000
00100000
,
30010000
00100000
01000000
10010000
,
00000000
00100000
00100000
00100000
,
00000000
01000000
00000000
00010000
00000000
00001000
00000000
00000010
,
00000000
00000100
00000100
00000100
,
00000000
00001000
00000000
00000010
00000000
00000100
00000000
00000001
,
00000000
00001000
00000000
00000100
00000000
00001000
00000000
00000010
,
00000000
00001000
00000000
00010000
00000000
01000000
00000000
00100000
,
00000000
00000000
00000000
10000000
00000000
00000000
00000000
00010000
,
00000000
00100000
00000000
01000000
00000000
10000000
00000000
00000000
,
00000000
00000000
00000000
00000000
;
#NOTES:
     dance-double:
     :
     Medium:
     12:
     :
00000000
00000000
00000000
00000000
,
00000000
00000000
00000000
00000000
,
00000000
00000000
00000000
00000000
,
00000000
00000000
00000000
00000000
,
00000000
00000000
00000000
00000000
,
00000000
00000000
00000000
00000000
,
00001000
00000000
00001000
00000000
00000010
00000000
00000100
00000001
,
00000000
00000001
00000000
00000001
00001000
00000100
00000010
00000000
,
00000001
00000100
00001000
00010000
,
01000000
00000000
10000000
00000000
00010000
01000000
00010000
01000000
,
00100000
00000000
00100000
00000000
10000000
00000000
01000000
00100000
,
00000000
00100000
00000000
00100000
01000000
00010000
00001000
00000000
,
00010000
00000000
00010000
00000000
00001000
00000000
00000100
00000010
,
00000000
00000010
00000000
00000010
00001000
00000001
00001000
00000000
,
00000001
00000000
00000001
00000000
00000010
00000000
00000100
00010000
,
00001000
00000000
00001000
00000000
01000000
00000000
00100000
10000000
,
01000000
00000000
00100000
00010000
01000000
00000000
00100000
10000000
,
00010000
00000000
00000000
10000000
00000000
00000000
10010000
00000000
00000000
00000000
00000000
00000000
00200000
00000000
00000000
00000000
,
00000000
20300000
00000000
32000000
,
00000000
00000000
00000000
03020000
,
00000000
00032000
00000000
00003020
,
00000000
00000000
00000030
00000001
,
00000001
00000001
00000001
00000100
,
00000100
00001000
00001000
00010000
,
00010000
00010000
00010000
01000000
,
10000000
00000000
00100000
00000000
10000000
00000000
00010000
00100000
,
01000000
00000000
10000000
00100000
01000000
00000000
00100000
10000000
,
01000000
00000000
00100000
00010000
01000000
00000000
00100000
10000000
,
01000000
00000000
00010000
00000000
00001000
00000000
00000100
00000000
00000010
00000000
00000000
00000000
00001000
00000000
00000000
00000010
,
00000000
00000000
00000000
00000000
00000000
00000000
00000000
00000000
00000001
00000000
00000000
00000000
00000000
00000000
00000000
00000000
00000000
00000000
00000000
00000000
00000100
00000000
00000000
00000000
00000000
00000000
00000000
00000000
00000000
00000000
00000000
00000000
00001000
00000000
00000000
00000000
00000000
00000000
00000000
00000000
00000000
00000000
00000000
00000000
00000000
00000000
00000000
00000000
00000002
00000003
00000000
00000000
00000000
00000000
00000000
00000000
00000000
00000000
00000000
00000000
00000000
00000000
00000000
00000000
,
00000200
00000300
00000000
00000000
00000000
00000000
00000000
00000000
00000000
00000000
00000000
00000000
00000000
00000000
00000000
00000000
00002000
00003000
00000000
00000000
00000000
00000000
00000000
00000000
00000000
00000000
00000000
00000000
00000000
00000000
00000000
00000000
00020000
00030000
00000000
00000000
00000000
00000000
00000000
00000000
00000000
00000000
00000000
00000000
00000000
00000000
00000000
00000000
00001000
00000000
00000000
00000000
00000000
00000000
00000000
00000000
00100000
00000000
00000000
00000000
00010000
00000000
00000000
00000000
,
00100000
00000000
00001000
00010000
00000000
01000000
00000000
01000000
00000000
00000000
00000000
00000000
10000000
00000000
00010000
01000000
,
00100000
00000000
10000000
01000000
00000000
00100000
00000000
00100000
00000000
00000000
00000000
00000000
00010000
00000000
00001000
00000000
,
00000100
00000000
00000010
00000001
00000000
00001000
00000000
00000001
00000000
00000000
00000000
00000000
00000100
00000000
00000010
00000000
,
00001000
00000000
00000100
00000010
00000000
00000100
00000000
00000100
00000000
00000000
00000000
00000000
00000010
00000000
00001000
00000000
,
00010000
00000000
00001000
00000000
00010000
00000000
01000000
10000000
,
00010000
10000000
10000000
00100000
,
10000000
00010000
10000000
01000000
,
00010000
00001000
00010000
00022000
,
00000000
00000000
00000000
00000000
,
00000000
00000000
00000000
00000000
,
00000000
00000000
00000000
00000000
,
00000000
00000000
00000000
00000000
,
00000000
00000000
00000000
00000000
,
00000000
00000000
00000000
00000000
,
00000000
00000000
00000000
00000000
,
00000000
00000000
00000000
00000000
,
00000000
00000000
00000000
00033000
,
00001000
00000000
00000000
00001000
00000000
00000000
00000100
00000000
00000000
00000100
00000000
00000000
00000001
00000000
00000000
00000000
,
00000010
00000000
00000000
00000010
00000000
00000000
00000100
00000000
00000000
00000100
00000000
00000000
00000010
00000000
00000001
00000000
,
00000100
00000000
00000000
00000100
00000000
00000000
00001000
00000000
00000000
00001000
00000000
00000000
00010000
00000000
00100000
00000000
,
10000000
00000000
00000000
10000000
00000000
00000000
00010000
00000000
00000000
00010000
00000000
00000000
01000000
00000000
00100000
00000000
,
10000000
00000000
00000000
10000000
00000000
00000000
01000000
00000000
00000000
01000000
00000000
00000000
00010000
00000000
00001000
00000000
,
00000100
00000000
00000000
00000100
00000000
00000000
00000010
00000000
00000000
00000010
00000000
00000000
00000100
00000000
00000010
00000000
,
00001000
00000000
00000000
00001000
00000000
00000000
00000001
00000000
00000000
00000001
00000000
00000000
00000010
00000000
00000100
00000000
,
00010000
00000000
00000000
00010000
00000000
00000000
00001000
00000000
00000000
00001000
00000000
00000000
00010000
00000000
00100000
00000000
,
01000000
00000000
00000000
01000000
00000000
00000000
00100000
00000000
00000000
10000000
00000000
00000000
00010000
00000000
00000000
00000000
,
00100000
00000000
00000000
00010000
00000000
00000000
10000000
00000000
00000000
00100000
00000000
00000000
01000000
00000000
00010000
00000000
,
10000000
00000000
00000000
01000000
00000000
00000000
00010000
00000000
00000000
00001000
00000000
00000000
00000010
00000000
00000001
00000000
,
00001000
00000000
00000000
00001000
00000000
00000000
00000001
00000000
00000000
00000001
00000000
00000000
00000100
00000000
00000010
00000000
,
00001000
00000000
00000000
00001000
00000000
00000000
00000100
00000000
00000000
00000100
00000000
00000000
00000010
00000000
00000001
00000000
,
00000100
00000000
00000000
00000010
00000000
00000000
00010000
00000000
00000000
00001000
00000000
00000000
00100000
00000000
00010000
00000000
,
01000000
00000000
00000000
00001000
00000000
00000000
00010000
00000000
00000000
00000010
00000000
00000000
00000100
00000000
00000001
00000000
,
00001000
00000000
00000000
00001000
00000000
00000000
00000001
00000000
00000000
00000001
00000000
00000000
00000100
00000000
00000010
00000000
,
00000000
00010000
00000000
00100000
00000000
10000000
00010000
00100000
,
00000000
00010000
10000000
00000000
10000000
00000000
10000000
00000000
,
00000000
00100000
00000000
01000000
00010000
00100000
00000000
01000000
,
00000000
00010000
00001000
00000000
00001000
00000000
00001000
00000000
,
00000000
00000100
00000000
00001000
00000100
00000001
00000000
00000010
,
00000001
00000100
00000000
00000010
00001000
00000100
00000000
00000010
,
00001000
00010000
00000000
01000000
10000000
00100000
00000000
01000000
,
00010000
00100000
01000000
00100000
00010000
10000000
00010000
00000000
,
00000000
10000000
00000000
00010000
00000000
00001000
00000000
00000000
,
00000000
00000002
00000000
00000000
00000000
00000203
00000000
00000000
,
00000000
00000320
00000000
00000000
00000000
00000000
00000000
00000000
,
00000000
00020030
00000000
00000000
00000000
00032000
00000000
00000000
,
00000000
00000000
00000000
00000000
00003020
00000000
00000000
00000000
00000000
00000000
00000000
00000000
00000000
00000000
00000000
00000000
00000000
00000000
00000000
00000000
00000130
00000000
00000000
00000100
00000000
00000000
00000100
00000000
00000000
00000100
00000000
00000000
,
00000100
00000000
00000000
00000000
00001001
00000000
00000001
00000000
00000000
00000010
00000000
00000000
00000100
00000000
00001000
00000000
,
00000001
00000000
00000000
00000100
00000000
00000000
00001000
00000000
00000000
00010000
00000000
00000000
00100000
00000000
10000000
00000000
,
00010000
00000000
00000000
00010000
00000000
00000000
10000000
00000000
00000000
10000000
00000000
00000000
01000000
00000000
00100000
00000000
,
00010000
00000000
00000000
00010000
00000000
00000000
01000000
00000000
00000000
01000000
00000000
00000000
00100000
00000000
10000000
00000000
,
01000000
00000000
00000000
00100000
00000000
00000000
00001000
00000000
00000000
00010000
00000000
00000000
00000010
00000000
00001000
00000000
,
00000100
00000000
00000000
00010000
00000000
00000000
00001000
00000000
00000000
00100000
00000000
00000000
01000000
00000000
10000000
00000000
,
00010000
00000000
00000000
00010000
00000000
00000000
10000000
00000000
00000000
10000000
00000000
00000000
01000000
00000000
00100000
00000000
,
00000000
00001000
00000000
00000010
00000000
00000001
00001000
00000010
,
00000000
00001000
00000001
00000000
00000001
00000000
00000001
00000000
,
00000000
00000010
00000000
00000100
00001000
00000010
00000000
00000100
,
00000000
00001000
00010000
00000000
00010000
00000000
00010000
00000000
,
00000000
01000000
00000000
00010000
01000000
10000000
00000000
00100000
,
10000000
01000000
00000000
00100000
00010000
01000000
00100000
00000000
,
00010000
00001000
00000000
00000100
00000001
00000010
00000000
00000100
,
00001000
00000010
00000100
00000010
00010000
00001000
00010000
00000000
,
00000000
01000000
00000000
10000000
00010000
01000000
00100000
10000000
,
00000000
00000000
00000000
00000000
;
#NOTES:
     dance-double:
     :
     Hard:
     15:
     :
00000000
00000000
00000000
00000000
,
00000000
00000000
00000000
00000000
,
00000000
00000000
00000000
00000000
,
00000000
00000000
00000000
00000000
,
00000000
00000000
00000000
00000000
,
00000000
00000000
00000000
00000000
,
00010000
00000000
00010000
00000000
01000000
00000000
00100000
00010000
,
00000000
00010000
00000000
00010000
01000000
00100000
10000000
00000000
,
01000000
01000000
00010000
00001000
,
00000010
00000000
00000010
00000000
00000001
00000010
00000100
00001000
,
00000010
00000000
00000010
00000000
00000100
00001000
00000100
00000010
,
00000000
00000000
00010000
00000000
00000000
00000000
00010000
00000000
00000000
00000000
00001000
00010000
00001000
00000000
00000000
00000000
,
00100000
00000000
00100000
00000000
00010000
00100000
01000000
10000000
,
00000000
00000000
10000000
00000000
00000000
00000000
10000000
00000000
00000000
00000000
00100000
10000000
00010000
00000000
00000000
00000000
,
10000000
00000000
10000000
00000000
01000000
00000000
00010000
00001000
,
00000100
00000000
00000100
00000000
00000001
00000000
00000010
00000001
,
00000100
00000000
00000010
00001000
00000100
00000000
00000010
00001000
,
00010000
00000000
00000000
00001000
00000000
00000000
00011000
00000000
00000000
00000000
00000000
00000000
02000000
00000000
00000000
00000000
,
00000000
23000000
00000000
30020000
,
00000000
00000000
00000000
00230000
,
00000000
02300000
00000000
03020000
,
00000000
00000000
00030000
00001000
,
00001000
00001000
00001000
00000100
,
00000100
00000001
00000001
00000010
,
00000010
00000010
00000010
00000001
,
00001000
00000000
00010000
00000000
10000000
00000000
00100000
10000000
,
01000000
00000000
00100000
00010000
01000000
00000000
00100000
01000000
,
00010000
00000000
00100000
01000000
10000000
00000000
00100000
10000000
,
00100000
00000000
01000000
00000000
00010000
00000000
00001000
00000000
00000010
00000000
00000100
00000000
00000001
00000000
00000000
00000010
,
00000000
00000000
00000000
00000000
00000000
00000000
00000000
00000000
00001000
00000000
00000000
00000000
00000000
00000000
00000000
00000000
00000000
00000000
00000000
00000000
00000100
00000000
00000000
00000000
00000000
00000000
00000000
00000000
00000000
00000000
00000000
00000000
00000001
00000000
00000000
00000000
00000000
00000000
00000000
00000000
00000000
00000000
00000000
00000000
00000000
00000000
00000000
00000000
00000202
00000303
00000000
00000000
00000000
00000000
00000000
00000000
00000000
00000000
00000000
00000000
00000000
00000000
00000000
00000000
,
00002200
00003300
00000000
00000000
00000000
00000000
00000000
00000000
00000000
00000000
00000000
00000000
00000000
00000000
00000000
00000000
00002020
00003030
00000000
00000000
00000000
00000000
00000000
00000000
00000000
00000000
00000000
00000000
00000000
00000000
00000000
00000000
00022000
00033000
00000000
00000000
00000000
00000000
00000000
00000000
00000000
00000000
00000000
00000000
00000000
00000000
00000000
00000000
00010000
00000000
00000000
00000000
00000000
00000000
00000000
00000000
00100000
00000000
00000000
00000000
01000000
00000000
00000000
00000000
,
00100000
10000000
01000000
00100000
00000000
00010000
00000000
10000000
00000000
00000000
00000000
00000000
00010000
00000000
10000000
01000000
,
00100000
00010000
00100000
00001000
00000000
00000010
00000000
00000100
00000000
00000000
00000000
00000000
00000001
00000000
00001000
00000000
,
00000010
00000100
00000001
00001000
00000000
00000100
00000000
00000010
00000000
00000000
00000000
00000000
00001000
00000000
00010000
00000000
,
00001000
01000000
00010000
00100000
00000000
01000000
00000000
10000000
00000000
00000000
00000000
00000000
00010000
00000000
01000000
00000000
,
00100000
00000000
10000000
00010000
00000000
01000000
00000000
00010000
00000000
00000000
00000000
00000000
00010000
00000000
10000000
00000000
,
01000000
00000000
00100000
00001000
00000000
00010000
00000000
00001000
00000000
00000000
00000000
00000000
00010000
00000000
00000010
00000000
,
00001000
00000000
00000001
00000010
00000100
00000000
00001000
00000010
,
00000100
00000000
00000001
00000100
00001000
00000000
00022000
00000000
,
00000000
00000000
00000000
00000000
,
00000000
00000000
00000000
00000000
,
00000000
00000000
00000000
00000000
,
00000000
00000000
00000000
00000000
,
00000000
00000000
00000000
00000000
,
00000000
00000000
00000000
00000000
,
00000000
00000000
00000000
00000000
,
00000000
00000000
00000000
00000000
,
00000000
00000000
00000000
00033000
,
00100000
00000000
00000000
00100000
00000000
00000000
10000000
00000000
00000000
10000000
00000000
00000000
01000000
00000000
00100000
00000000
,
01000000
00000000
00000000
01000000
00000000
00000000
00100000
00000000
00000000
00100000
00000000
00000000
00001000
00010000
00001000
00010000
,
00000010
00000000
00000000
00000010
00000000
00000000
00001000
00000000
00000000
00001000
00000000
00000000
00000100
00000010
00000100
00000010
,
00000001
00000000
00000000
00000001
00000000
00000000
00000100
00000000
00000000
00000100
00000000
00000000
00000010
00000100
00000010
00000100
,
00001000
00000000
00000000
00001000
00000000
00000000
00010000
00000000
00000000
00010000
00000000
00000000
00100000
01000000
00100000
01000000
,
00010000
00000000
00000000
00010000
00000000
00000000
10000000
00000000
00000000
10000000
00000000
00000000
00010000
10000000
01000000
10000000
,
00010000
00000000
00000000
00010000
00000000
00000000
00100000
00000000
00000000
00100000
00000000
00000000
00001000
00010000
00000100
00010000
,
00001000
00000000
00000000
00001000
00000000
00000000
00000100
00000000
00000000
00000100
00000000
00000000
00000001
00001000
00000100
00001000
,
00000001
00000000
00000000
00000100
00000000
00000000
00000010
00000000
00000000
00001000
00000000
00000000
00000001
00000000
00000000
00000000
,
00000001
00000000
00000000
00000100
00000000
00000000
00001000
00000000
00000000
00010000
00000000
00000000
00001000
00100000
00010000
00100000
,
00001000
00000000
00000000
00010000
00000000
00000000
00100000
00000000
00000000
10000000
00000000
00000000
00010000
01000000
00100000
01000000
,
00010000
00000000
00000000
10000000
00000000
00000000
01000000
00000000
00000000
00100000
00000000
00000000
00010000
00100000
01000000
00100000
,
00010000
00000000
00000000
10000000
00000000
00000000
00100000
00000000
00000000
00010000
00000000
00000000
00001000
00010000
00001000
00010000
,
00000100
00000000
00000000
00000010
00000000
00000000
00000001
00000000
00000000
00000100
00000000
00000000
00000010
00001000
00000100
00000010
,
00000001
00000000
00000000
00000100
00000000
00000000
00000010
00000000
00000000
00010000
00000000
00000000
00001000
01000000
00010000
10000000
,
01000000
00000000
00000000
00100000
00000000
00000000
00010000
00000000
00000000
10000000
00000000
00000000
00010000
00000000
10000000
00000000
,
00000000
01100000
00000000
10000000
00100000
00010000
00001000
00100000
,
00000000
00010000
00110000
00000000
00011000
00000000
00001100
00000000
,
00000000
00000010
00000000
00000001
00000100
00000010
00000000
00001000
,
00000000
00000010
00001010
00000000
00011000
00000000
01010000
00000000
,
00000000
00000000
00100000
00000000
00000000
00000000
10000000
00000000
00010000
00000000
01000000
00000000
00000000
00000000
00001000
00100000
,
00010000
00100000
00001000
00000000
00000000
00000000
00010000
00000010
00001000
00000010
00010000
00000000
00000000
00000000
00001000
00000000
,
00000100
00000000
00000001
00000000
00000010
00000000
00000100
00000010
00000001
00000010
00000100
00000000
00001000
00000000
00000001
00000000
,
00000100
00000010
00001000
00010000
01000000
00100000
10000000
00000000
,
01000000
00000000
00000000
00000000
00000000
00000000
00000000
00000000
00100000
00000000
00000000
00000000
00000000
00000000
00000000
00000000
01000000
00000000
00000000
00000000
00000000
00000000
00000000
00000000
00010000
00000000
00000000
00000000
00000000
00000000
00000000
00000000
01000000
00000000
00000000
00000000
00000000
00000000
00000000
00000000
10000000
00000000
00000000
00000000
00000000
00000000
00000000
00000000
01000000
00000000
00000000
00000000
00000000
00000000
00000000
00000000
00200000
00300000
00000000
00000000
00000000
00000000
00000000
00000000
,
00000000
00020000
00000000
00000000
00000000
00032000
00000000
00000000
,
00000000
00003200
00000000
00000000
00000000
00000000
00000000
00000000
,
00000000
00000320
00000000
00000000
00000000
00002030
00000000
00000000
,
00000000
00000000
00000000
00000000
00023000
00000000
00000000
00000000
00000000
00000000
00000000
00000000
00000000
00000000
00000000
00000000
00000000
00000000
00000000
00000000
00130000
00000000
00000000
10000000
00000000
00000000
01000000
00000000
00000000
00100000
00000000
00000000
,
00001000
00000000
00000000
00000000
00010000
00000000
00000000
00000000
00002000
00003000
00000000
00000000
00000000
00000000
00000000
00000000
00011000
00000000
00000000
00000000
00000000
00000000
00000000
00000000
00010000
00000000
00000000
00000000
00000000
00000000
00000000
00000000
00000000
00000000
00000000
00000000
00001000
00000000
00000000
00000000
00000000
00000000
00000000
00000000
00000000
00000000
00000000
00000000
00010000
00000000
00000000
00000000
00000010
00000000
00000000
00000000
00001000
00000000
00000000
00000000
00000010
00000000
00000000
00000000
,
00010000
00000000
00000000
00001000
00000000
00000000
00000010
00000000
00000000
00000001
00000000
00000000
00001000
00000100
00000010
00000100
,
00001000
00000000
00000000
00000001
00000000
00000000
00000100
00000000
00000000
00000010
00000000
00000000
00001000
00000010
00000100
00000010
,
00001000
00000000
00000000
00000001
00000000
00000000
00000010
00000000
00000000
00001000
00000000
00000000
00010000
00001000
00010000
00001000
,
01000000
00000000
00000000
00100000
00000000
00000000
10000000
00000000
00000000
01000000
00000000
00000000
00100000
00010000
01000000
00100000
,
10000000
00000000
00000000
01000000
00000000
00000000
00100000
00000000
00000000
00001000
00000000
00000000
00010000
00000100
00001000
00000001
,
00000100
00000000
00000000
00000010
00000000
00000000
00001000
00000000
00000000
00000001
00000000
00000000
00001000
00000000
00000001
00000000
,
00000000
00000110
00000000
00000001
00000010
00001000
00010000
00000010
,
00000000
00001000
00001010
00000000
00011000
00000000
01010000
00000000
,
00000000
00100000
00000000
10000000
01000000
00100000
00010000
10000000
,
00000000
00100000
00110000
00000000
00011000
00000000
00001100
00000000
,
00000000
00000000
00000010
00000000
00000000
00000000
00000001
00000000
00001000
00000000
00000100
00000000
00000000
00000000
00010000
00000010
,
00001000
00000010
00010000
00000000
00000000
00000000
00001000
00100000
00010000
00100000
00001000
00000000
00000000
00000000
00010000
00000000
,
01000000
00000000
10000000
00000000
00100000
00000000
01000000
00100000
10000000
00100000
01000000
00000000
00010000
00000000
10000000
00000000
,
01000000
00100000
00010000
00001000
00000100
00000010
00000001
00000000
,
00000100
00000000
00000010
00000000
00000100
00000000
00000001
00000100
00000001
00000000
00001000
00000100
00001000
00000000
00000001
00000000
,
00000000
00000000
00000000
00000000
;
#NOTES:
     dance-double:
     :
     Challenge:
     17:
     :
00000000
00000000
00000000
00000000
,
00000000
00000000
00000000
00000000
,
00000000
00000000
00000000
00000000
,
00000000
00000000
00000000
00000000
,
00000000
00000000
00000000
00000000
,
00000000
00000000
00000000
00000000
,
00000001
00000000
00000001
00000000
00000100
00000000
00001000
00010000
,
00000000
00010000
00000000
00010000
01000000
10000000
00010000
00000000
,
00100000
00000000
00100000
00010000
01000000
00000000
01000000
00100000
,
10000000
00000000
10000000
00000000
01000000
00100000
00010000
00001000
,
00000100
00000000
00000100
00000000
00000010
00000001
00000010
00000100
,
00000000
00000000
00000100
00000000
00000000
00000000
00000100
00000000
00000000
00000000
00001000
00000001
00000100
00000000
00000000
00000000
,
00000010
00000000
00000010
00000000
00001000
00010000
01000000
00100000
,
00000000
00000000
00100000
00000000
00000000
00000000
00100000
00000000
00000000
00000000
10000000
00010000
01000000
00000000
00000000
00000000
,
00100000
00000000
00100000
10000000
01000000
00000000
01000000
00010000
,
00001000
00000000
00001000
00000100
00000010
00000000
00000010
00010000
,
00001000
00000000
00000010
00000001
00001000
00000010
00000100
00000001
,
00001000
00000000
00000000
00000001
00000000
00000000
00001001
00000000
00000000
00000000
00000000
00000000
00000001
00000100
00000010
00001000
,
00000000
00000000
00000000
00000000
00010000
01000000
00100000
10000000
00000000
00010000
00000000
00000000
10000000
01000000
00100000
00010000
,
00000000
00000000
00000000
00000000
00000000
00000000
00000000
00000000
00000000
00000000
00000000
00000000
10000000
01000000
00010000
00001000
,
00000000
00000000
00000000
00000000
00010000
00001000
00000010
00000001
00000000
00001000
00000000
00000000
00000001
00000100
00000010
00001000
,
00000000
00000000
00000000
00000001
,
00000001
00000001
00000001
00000100
,
00000100
00001000
00001000
00010000
,
00010000
00010000
00010000
00100000
,
00100000
00000000
10000000
00000000
10000000
00000000
00010000
00100000
,
01000000
00100000
01000000
10000000
00100000
01000000
00001000
00010000
,
00001000
00000000
00010000
00000000
00000010
00000000
00001000
00000000
00000100
00000000
00000010
00000000
00000001
00000010
00000001
00000010
,
00000100
00001000
00000100
00001000
00000001
00000100
00000001
00000100
00000010
00001000
00000010
00001000
00000001
00000000
00000000
00000100
,
00000000
00000000
00000000
00000000
00000000
00000000
00000000
00000000
00001000
00000000
00000000
00000000
00000000
00000000
00000000
00000000
00000000
00000000
00000000
00000000
00010000
00000000
00000000
00000000
00000000
00000000
00000000
00000000
00000000
00000000
00000000
00000000
00100000
00000000
00000000
00000000
00000000
00000000
00000000
00000000
00000000
00000000
00000000
00000000
00000000
00000000
00000000
00000000
20200000
30300000
00000000
00000000
00000000
00000000
00000000
00000000
00000000
00000000
00000000
00000000
00000000
00000000
00000000
00000000
,
00220000
00330000
00000000
00000000
00000000
00000000
00000000
00000000
00000000
00000000
00000000
00000000
00000000
00000000
00000000
00000000
00022000
00033000
00000000
00000000
00000000
00000000
00000000
00000000
00000000
00000000
00000000
00000000
00000000
00000000
00000000
00000000
02020000
03030000
00000000
00000000
00000000
00000000
00000000
00000000
00000000
00000000
00000000
00000000
00000000
00000000
00000000
00000000
00100000
00000000
00000000
00000000
00000000
00000000
00000000
00000000
10000000
00000000
00000000
00000000
01000000
00000000
00000000
00000000
,
00100000
00010000
01000000
00001000
00000000
00010000
00000000
00000100
00000000
00000000
00000000
00000000
00001000
00000000
00000001
00000100
,
00000010
00001000
00000100
00000010
00000000
00000001
00000000
00000010
00000000
00000000
00000000
00000000
00000001
00000000
00000100
00000010
,
00001000
00010000
01000000
00100000
00000000
00100000
00000000
01000000
00000000
00000000
00000000
00000000
00100000
00000000
10000000
00100000
,
01000000
00010000
10000000
01000000
00000000
01000000
00000000
00010000
00000000
00000000
00000000
00000000
00001000
00000000
00010000
00000010
,
00001000
00000100
00000010
00000001
00000000
00001000
00000000
00000001
00000000
00000000
00000000
00000000
00001000
00000000
00000100
00000010
,
00000001
00000100
00000010
00001000
00000000
00000001
00000000
00001000
00000000
00000000
00000000
00000000
00000001
00000000
00000100
00000000
,
00000010
00001000
00000100
00010000
00001000
00100000
00010000
00100000
,
01000000
10000000
00010000
01000000
00100000
10000000
20020000
00000000
,
00000000
00000000
00000000
00000000
,
00000000
00000000
00000000
00000000
,
00000000
00000000
00000000
00000000
,
00000000
00000000
00000000
00000000
,
00000000
00000000
00000000
00000000
,
00000000
00000000
00000000
00000000
,
00000000
00000000
00000000
00000000
,
00000000
00000000
00000000
00000000
,
00000000
00000000
00000000
30030000
,
00100000
00000000
00000000
00100000
00000000
00000000
10000000
00000000
00000000
10000000
00000000
00000000
00010000
00000000
10000000
00000000
,
00010000
00000000
01000000
00100000
00000000
01000000
00010000
00000000
01000000
00100000
00000000
01000000
00010000
01000000
00001000
00010000
,
00001000
00000000
00010000
00000010
00000000
00010000
00001000
00000000
00010000
00000010
00000000
00010000
00000100
00001000
00000100
00000010
,
00000100
00000000
00001000
00000001
00000000
00001000
00000010
00000000
00001000
00000001
00000000
00001000
00000010
00000000
00000100
00000000
,
00000001
00000000
00000010
00000001
00000000
00000010
00000100
00000000
00000010
00000001
00000000
00000010
00000100
00000000
00010000
00000000
,
00001000
00000000
01000000
00010000
00000000
01000000
00100000
00000000
01000000
00010000
00000000
01000000
00100000
10000000
00010000
10000000
,
00100000
00000000
10000000
01000000
00000000
00100000
01000000
00000000
10000000
01000000
00000000
00100000
00010000
01000000
00010000
01000000
,
00001000
00000000
00000000
00010000
00000000
00000000
00001000
00000000
00000000
00000010
00000000
00000000
00000001
00000000
00001000
00000100
,
00000010
00000000
00000000
00000001
00000000
00000000
00001000
00000000
00000000
00000001
00000000
00000000
00001001
00000000
00000000
00000000
,
00000001
00000000
00000100
00000010
00000000
00000100
00000001
00000000
00000100
00000010
00000000
00000100
00000010
00001000
00000010
00000100
,
00000010
00000000
00010000
00001000
00000000
00010000
00000010
00000000
00010000
00001000
00000000
00010000
00001000
00100000
00010000
00100000
,
01000000
00000000
10000000
01000000
00000000
00100000
01000000
00000000
10000000
01000000
00000000
00100000
00010000
00000000
01000000
00000000
,
00100000
00000000
10000000
00010000
00000000
10000000
01000000
00000000
10000000
00010000
00000000
00100000
00001000
00000000
00010000
00000000
,
00000010
00000000
00001000
00000001
00000000
00001000
00000100
00000000
00001000
00000001
00000000
00001000
00000100
00000010
00000001
00000100
,
00000010
00000000
00001000
00000010
00000000
00000100
00000010
00000000
00001000
00000010
00000000
00000100
00000010
00010000
00001000
00100000
,
00010000
00000000
00000000
00010000
00000000
00000000
01000000
00000000
00000000
01000000
00000000
00000000
00100000
00000000
10100000
00000000
,
00000000
01100000
00000000
01010000
00000000
00001000
00011000
00010000
,
00000000
00001000
00000100
00000001
00000010
00001000
00000010
00000000
,
00000010
00001000
00000000
00010000
01000000
10000000
00000000
00010000
,
00000000
00010000
01000000
00100000
10000000
01000000
00100000
00000000
,
00100000
00000000
00010000
00000000
00000000
00000000
00001000
00000000
00000100
00000000
00000010
00000000
00000000
00000000
00000001
00000100
,
00000010
00001000
00000100
00000000
00001000
00000000
00000001
00000010
00000100
00001000
00000001
00000000
00000010
00000000
00000001
00000000
,
00001000
00000000
00000100
00000000
00010000
00000000
00001000
00100000
00010000
10000000
00100000
00000000
01000000
00000000
00010000
00000000
,
00000000
00010000
00000000
00000000
10000000
00000000
00000000
10000000
00000000
00000000
00100000
00000000
01000000
00000000
00000000
00000000
,
00100000
00000000
00000000
00000000
00000000
00000000
00000000
00000000
00010000
00000000
00000000
00000000
00000000
00000000
00000000
00000000
00001000
00000000
00000000
00000000
00000000
00000000
00000000
00000000
00010000
00000000
00000000
00000000
00001000
00000000
00000000
00000000
00010000
00000000
00000000
00000000
00000000
00000000
00000000
00000000
00000010
00000000
00000000
00000000
00001000
00000000
00000000
00000000
00000010
00000000
00000000
00000000
00000000
00000000
00000000
00000000
00000200
00000300
00000000
00000000
00000000
00000000
00000000
00000000
,
00000000
00000000
00000000
00000000
00000001
00000000
00000000
00000010
00000000
00000000
00000100
00000000
00000000
00001000
00000000
00000000
00000010
00000000
00000000
00000000
00000100
00000000
00000000
00001000
00000000
00000000
00010000
00000000
00000000
00100000
00000000
00000000
,
10000000
00000000
00000000
00000000
00010000
00000000
00000000
00010000
00000000
00000000
01000000
00000000
00000000
00100000
00000000
00000000
10000000
00000000
00000000
00000000
01000000
00000000
00000000
00010000
00000000
00000000
00001000
00000000
00000000
00000100
00000000
00000000
,
00000001
00000000
00000000
00000000
00000010
00000000
00000000
00000001
00000000
00000000
00001000
00000000
00000000
00000100
00000000
00000000
00010000
00000000
00000000
00000000
00000010
00000000
00000000
00001000
00000000
00000000
00010000
00000000
00000000
01000000
00000000
00000000
,
00100000
00000000
00000000
00000000
20000000
00000000
00000000
00000000
00000000
00000000
00000000
00000000
00000000
00000000
00000000
00000000
00000000
00000000
00000000
00000000
31000000
00000000
00000000
00100000
00000000
00000000
00010000
00000000
00000000
01000000
00000000
00000000
,
00100000
00000000
00000000
00000000
10000000
00000000
00000000
00000000
00020000
00030000
00000000
00000000
00000000
00000000
00000000
00000000
10000000
00000000
00000000
00000000
00000000
00000000
00000000
00000000
10000000
00000000
00000000
00000000
00000000
00000000
00000000
00000000
01000000
00000000
00000000
00000000
00100000
00000000
00000000
00000000
00000000
00000000
00000000
00000000
01000000
00000000
00000000
00000000
00100000
00000000
00000000
00000000
00010000
00000000
00000000
00000000
00100000
00000000
00000000
00000000
01000000
00000000
00000000
00000000
,
00100000
00000000
00001000
00010000
00000000
00001000
00100000
00000000
00001000
00010000
00000000
00001000
00010000
00000010
00001000
00000010
,
00000100
00000000
00000001
00000100
00000000
00000010
00000100
00000000
00000001
00000100
00000000
00000010
00001000
00000000
00000100
00000000
,
00000010
00000000
00000001
00001000
00000000
00000001
00000100
00000000
00000001
00001000
00000000
00000010
00010000
00000000
00001000
00000000
,
00100000
00000000
00010000
10000000
00000000
00010000
01000000
00000000
00010000
10000000
00000000
00010000
01000000
00100000
10000000
01000000
,
00100000
00000000
00010000
00100000
00000000
01000000
00100000
00000000
00010000
00100000
00000000
01000000
00100000
00001000
00010000
00000010
,
00001000
00000000
00000000
00001000
00000000
00000000
00000100
00000000
00000000
00000100
00000000
00000000
00000010
00000000
00000011
00000000
,
00000000
00000110
00000000
00001100
00000000
00010000
00011000
00001000
,
00000000
00010000
01000000
10000000
00100000
00010000
00100000
00000000
,
00100000
00010000
00000000
00001000
00000100
00000001
00000000
00001000
,
00000000
00001000
00000100
00000010
00000001
00000100
00000010
00000000
,
00000010
00000000
00001000
00000000
00000000
00000000
00010000
00000000
01000000
00000000
00100000
00000000
00000000
00000000
10000000
01000000
,
00100000
00010000
01000000
00000000
00010000
00000000
10000000
00100000
01000000
00010000
10000000
00000000
00100000
00000000
10000000
00000000
,
00010000
00000000
01000000
00000000
00001000
00000000
00010000
00000010
00001000
00000001
00000100
00000000
00000010
00000000
00001000
00000000
,
00000000
00001000
00000000
00000000
00000001
00000000
00000000
00000001
00000000
00000000
00000010
00000000
00000100
00000000
00000000
00000000
,
00000010
00000000
00001000
00000000
00010000
00000000
00001000
00100000
00010000
01000000
00100000
10000000
01000000
00000000
00100000
00000000
,
00000000
00000000
00000000
00000000
;
