
//----- song id: intb
#TITLE:In The Breeze;
#ARTIST:96 & Sota ft. Mayumi Morinaga;
#BANNER:In The Breeze.png;
#BACKGROUND:In The Breeze-bg.png;
#CDTITLE:./CDTitles/DDR (2014).png;
#MUSIC:In The Breeze.ogg;
#SAMPLESTART:58.160;
#SAMPLELENGTH:15;
#BPMS:0=123,20=142;
#NOTES:
     dance-single:
     :
     Beginner:
     3:
     :
0000
0000
0000
0000
,
0000
0000
0000
0000
,
0000
0000
0000
0000
,
0000
0000
0000
0000
,
0000
0000
0000
0000
,
0000
0000
0000
0000
,
1000
0000
0000
0000
,
1000
0000
0000
0000
,
0001
0000
0000
0000
,
0001
0000
0000
0000
,
1000
0000
0000
0000
,
0001
0000
0000
0000
,
1000
0000
0000
0000
,
1001
0000
0000
0000
,
0000
0000
0000
0000
,
0000
0000
0000
0000
,
1000
0000
0000
0000
,
1000
0000
0000
0000
,
1000
0000
1000
0000
,
1000
0000
0000
0000
,
0001
0000
0000
0000
,
0001
0000
0000
0000
,
0001
0000
0001
0000
,
0001
0000
0000
0000
,
0000
0000
0000
0000
,
0010
0000
0000
0000
,
0000
0000
0000
0000
,
0100
0000
0000
0000
,
0000
0000
0000
0000
,
1000
0000
0000
0000
,
0001
0000
0000
0000
,
0001
0000
0000
0000
,
1000
0000
0001
0000
,
1000
0000
0000
0000
,
0010
0000
0000
0000
,
0010
0000
0000
0000
,
0100
0000
0100
0000
,
0100
0000
0000
0000
,
0001
0000
0000
0000
,
0001
0000
0000
0000
,
1000
0001
1000
0001
,
1000
0000
0000
0000
,
0010
0000
0000
0000
,
0100
0000
0000
0000
,
0010
0100
0010
0100
,
0010
0000
0100
0000
,
0001
0000
0000
0000
,
1000
0000
0000
0000
,
1001
0000
0000
0000
,
0000
0000
0000
0000
,
0010
0000
0010
0000
,
0010
0000
0000
0000
,
0000
0000
0000
0000
,
0000
0000
0000
0000
,
0100
0000
0100
0000
,
0100
0000
0000
0000
,
0100
0000
0100
0000
,
0100
0000
0000
0000
,
0000
0000
0000
0000
,
0000
0000
0000
0010
0000
0000
0000
0000
,
0000
0000
0000
0000
;
#NOTES:
     dance-single:
     :
     Easy:
     5:
     :
0000
0000
0000
0000
,
0000
0000
0000
0000
,
0000
0000
0000
0000
,
0000
0000
0000
0000
,
0000
0000
0000
0000
,
0000
0000
0000
0000
,
0100
0000
0010
0000
,
0200
0000
0310
0000
,
1000
0000
0001
0000
,
2000
0000
3001
0000
,
0100
0000
0010
0000
,
0100
0100
0010
0000
,
1000
0000
0001
0000
,
1000
1000
0001
1000
,
1001
0000
0000
0000
,
0000
0000
0000
0000
,
1000
0000
0100
0000
,
0001
0000
0100
0000
,
0010
0000
0100
0000
,
0010
0000
0100
0000
,
0001
0000
0100
0000
,
1000
0000
0100
0000
,
0010
0100
0010
0100
,
0020
0000
0030
0000
,
0001
0001
0001
0000
,
0000
0010
0010
0000
,
1000
1000
1000
0000
,
0000
0100
0100
0000
,
1000
0001
1000
0000
,
0000
0010
0010
0000
,
0001
1000
0001
1000
,
0010
0100
0010
0100
,
2002
0000
0000
3003
,
0000
0000
0000
0000
,
0000
0010
0010
0000
,
0000
0010
0010
0000
,
1000
0100
0001
0100
,
1000
1000
1000
0000
,
0000
0010
0010
0000
,
0000
0100
0010
0000
,
0001
0010
1000
0010
,
0001
0001
0001
0000
,
0010
0000
0010
0000
,
0010
0001
0100
0000
,
0010
0000
0010
0000
,
0010
1000
0100
0000
,
0010
0000
0010
0100
,
0020
0000
0030
0000
,
1001
0000
0000
0000
,
1001
1001
1001
0000
,
1000
0100
0001
0100
,
0000
0010
0010
0000
,
1001
1001
1001
0000
,
0001
0010
1000
0010
,
0001
0100
1000
0100
,
0010
0010
0010
0000
,
0001
0000
1000
0000
,
0000
0000
0000
0000
,
0000
0000
0000
0000
,
0000
0000
0000
0020
0000
0000
0000
0000
,
0000
0000
0000
0000
0000
0000
0000
0030
,
0000
0000
0000
0000
;
#NOTES:
     dance-single:
     :
     Medium:
     9:
     :
0000
0000
0000
0000
,
0000
0000
0000
0000
,
0000
0000
0000
0000
,
0000
0000
0000
0000
,
0000
0000
0000
0000
,
0000
0000
0000
0000
,
0010
0010
0100
0100
,
0001
1000
0100
0000
1000
0001
0100
0000
,
1000
0000
1000
0000
0001
0100
0100
0000
,
0010
1000
1010
0000
0001
0000
0011
0000
,
0010
0010
0100
0100
,
1000
0001
0100
0000
0001
1000
0100
0000
,
0001
0000
0001
0000
1000
0100
0100
0000
,
0010
0001
0011
0000
1000
0000
1010
0000
,
0000
0100
0000
0000
0000
0000
0010
0000
,
0000
2002
0000
3003
,
0000
1000
0000
1000
,
0000
0001
0000
0001
,
0100
0000
0010
0000
1000
0001
0100
0000
,
0000
0001
0101
0000
0000
1000
1100
0000
,
0000
0001
0000
0001
,
0000
1000
0000
1000
,
0100
0000
0010
0000
0001
1000
0100
0000
,
0100
1000
0010
0000
1000
0001
0010
0000
,
0001
0101
0000
1000
1100
0000
0000
0000
,
0001
0010
1000
0100
,
1000
1100
0000
0001
0101
0000
0000
0000
,
1000
0010
0001
0100
,
1000
1100
0000
0010
0011
0000
0000
0000
,
0100
0001
0010
0000
0100
1000
0010
0000
,
1000
0000
1000
1000
0001
0000
0001
0001
,
1000
0000
0001
0100
0001
0000
1000
0100
,
0000
0020
0000
0000
0000
0000
0000
0030
,
0000
0000
0000
0000
,
1000
0000
0001
0100
0001
0000
0000
0000
,
1000
0001
0010
0001
0100
0000
0000
0000
,
0010
0010
0010
0000
0100
0100
0100
0000
,
0001
1000
0000
1100
0000
0000
0000
0000
,
0001
0000
1000
0100
1000
0000
0000
0000
,
0001
1000
0001
1000
0010
1000
0100
0000
,
0010
0010
0010
0010
0100
0010
0100
0010
,
0001
0011
0000
1010
0000
0000
0000
0000
,
0010
0010
1000
1000
0001
0001
0100
0100
,
0001
0022
0000
0000
0000
0033
0000
0000
,
0010
0010
0001
0001
1000
1000
0100
0100
,
1000
0010
0000
2020
0000
0000
3030
0000
,
0000
0100
0100
0000
0000
0010
0010
0000
,
0001
1000
0000
0000
,
0010
0010
0100
0100
,
1000
0001
0100
0001
1000
0010
0100
0000
,
0001
0000
0001
0000
1000
0000
0100
0010
,
0000
0001
0011
0000
0000
1000
1010
0000
,
0010
0000
0010
0000
0100
0000
0100
0100
,
0001
1000
0100
1000
0010
1000
0100
0000
,
1000
0000
1000
0000
0001
0000
0100
0010
,
0000
1000
1010
0000
0000
0001
0011
0000
,
0000
0100
0000
0100
0000
0100
0000
0000
,
0000
0000
2002
0000
0000
0000
0000
3003
,
0000
0110
0000
0000
0110
0000
0000
0110
,
0000
0000
0000
2002
0000
0000
0000
0000
,
0000
0000
0000
0000
0000
0000
0000
3003
,
0000
0000
0000
0000
;
#NOTES:
     dance-single:
     :
     Hard:
     11:
     :
0000
0000
0000
0000
,
0000
0000
0000
0000
,
0000
0000
0000
0000
,
1000
0001
0010
0100
1000
0010
0100
0002
,
0200
0000
0000
0000
0000
0000
0000
0303
,
0000
0000
0000
0000
,
1000
0000
0000
0000
1000
0000
0000
0000
0100
0000
0000
0100
1000
0000
0000
0000
,
0010
0000
0000
0000
1000
0000
0000
0000
0100
0010
0000
0000
0010
0000
0000
0000
,
0001
0000
0000
0000
0001
0000
0000
0000
0100
0001
0000
0000
0001
0000
0000
0000
,
0010
0000
0010
0000
0001
0000
0001
0000
0100
0010
0000
0000
0010
0000
0000
0000
,
0001
0000
0000
0000
0001
0000
0000
0000
0100
0000
0000
0100
0001
0000
0000
0000
,
0010
0000
0000
0000
0001
0000
0000
0000
0100
0010
0000
0000
0010
0000
0000
0000
,
1000
0000
0000
0000
1000
0000
0000
0000
0100
1000
0000
0000
1000
0000
0000
0000
,
0010
0000
0010
0000
1000
0000
1000
0000
0100
0010
0000
0000
0010
0000
0000
0000
,
0000
0000
0001
0000
0000
0101
0000
0000
1000
0000
0000
1100
0000
0000
0001
0000
,
0000
0000
0000
2000
0000
0000
0000
0000
0000
0000
0000
0000
3000
0000
0100
0000
,
0010
0000
0100
0000
0010
0100
0000
1000
0000
0000
0010
0000
0000
0000
0100
0000
,
0010
0000
0100
0000
0010
0100
0000
0001
0000
0000
0010
0000
0000
0000
0000
0000
,
0000
0000
1000
0000
0000
1100
0000
0000
1000
0100
0000
0001
0000
0000
0000
0000
,
0000
0000
0010
0000
0000
0011
0000
0000
0001
0100
0000
1000
0000
0000
0100
0000
,
0010
0000
0100
0000
0010
0100
0000
0001
0000
0000
0010
0000
0000
0000
0100
0000
,
0010
0000
0100
0000
0010
0100
0000
1000
0000
0000
0010
0000
0000
0000
0000
0000
,
0000
0000
0001
0000
0000
0101
0000
0000
0001
0100
0000
1000
0000
0000
0000
0000
,
0000
0000
0010
0000
0000
1010
0000
0000
1000
0100
0000
0001
0000
0000
0100
0000
,
0010
0000
0000
0010
0000
0000
0100
0000
1100
0000
0000
0000
0000
0000
0000
0000
,
0010
1000
0000
0100
0000
0000
0000
0000
0010
0001
0000
0100
0000
0000
0000
0000
,
0010
0000
0000
0010
0000
0000
0100
0000
0101
0000
0000
0000
0000
0000
0000
0000
,
1000
0001
1000
0100
1000
0001
0010
0000
,
0100
0000
0000
0100
0000
0000
1100
0000
0011
0000
0000
0000
0000
0000
0000
0000
,
0100
1000
0000
0010
0000
0000
0000
0000
0100
0001
0000
0010
0000
0000
0000
0000
,
0011
0000
0000
0001
0000
0000
0100
0000
0101
0000
0000
1000
0000
0000
0100
0000
,
1100
0000
0000
0001
0000
0000
0100
0000
0101
0000
0000
1000
0000
0000
0010
0000
,
0000
0022
0000
0000
0000
0000
0000
0000
0000
0000
0000
0000
0000
0000
0033
0000
,
0000
0000
0000
0000
0000
0000
0000
0000
0000
0000
0100
0000
1000
0010
0000
0000
,
1000
0000
0010
0000
1000
0100
0000
0000
0010
0000
0000
0000
0000
0000
0000
0000
,
0001
0000
0010
0000
0001
0100
0000
0000
0010
0000
0000
1010
0000
0000
0000
0000
,
0010
0010
0010
0010
0100
0100
0100
0001
,
0010
0000
0000
0011
0000
0000
1100
0000
0000
0000
0000
0000
0000
0000
0000
0000
,
0001
0000
0010
0000
0001
0000
1000
0000
0100
0000
0000
0010
0000
0000
0000
0000
,
0001
0000
0100
0000
1000
0000
0100
0000
0001
0000
0000
0010
0000
0000
0000
0000
,
0010
0000
0010
0000
0010
0000
0100
0010
0100
0000
0100
0000
0100
0000
0100
0000
,
0010
0000
0000
1010
0000
0000
2002
0000
0000
0000
3003
0000
0000
0000
0000
0000
,
0010
1000
0010
1000
0001
1000
0100
1000
,
0001
0000
0000
0010
0000
0000
0000
0000
0000
0000
0000
0000
0000
0000
0000
0000
,
0010
0001
0010
0001
1000
0001
0100
0001
,
0010
0000
0000
0010
0000
0000
0010
0000
0000
0000
0000
0000
0000
0000
0000
0000
,
0010
0000
0100
0000
0010
0100
0000
0010
0000
1000
0000
0100
0010
0000
0100
0000
,
0000
0001
0000
0000
0000
0000
0000
0000
,
0001
0000
0000
0000
0001
0000
0000
0000
0100
0000
0000
0100
0001
0000
0000
0000
,
0010
0000
0010
0000
0001
0000
0001
0000
0100
0010
0000
0100
0010
0000
0000
0000
,
1000
0000
0000
0000
1000
0000
0000
0000
0100
0000
0000
0100
1000
0000
0000
0000
,
0010
0000
0010
0000
1000
0000
1000
0000
0100
0010
0000
0100
0010
0000
0000
0000
,
0001
0000
0000
0000
0001
0000
0000
0000
0100
0001
0000
0100
0001
0000
0000
0000
,
0010
0000
0010
0000
0001
0000
0001
0000
0100
0010
0000
0100
0010
0000
0000
0000
,
1000
0000
0000
0000
1000
0000
0000
0000
0100
1000
0000
0100
1000
0000
0000
0000
,
0010
0000
0010
0000
0001
0000
0001
0000
0100
0010
0000
0100
0010
0000
0000
0000
,
0000
0000
0100
0000
0000
0001
0000
0000
1000
0000
0000
0010
0000
0000
0000
0000
,
0000
0000
0000
2200
0000
0000
0000
0000
0000
0000
0000
0000
0000
0000
3300
0000
,
0000
0000
0100
0010
0000
0010
0000
0000
1000
0010
0000
0010
0000
0000
0001
0010
,
0000
0010
0000
0010
0000
0100
0020
0000
0000
0000
0000
0000
0000
0000
0000
0000
,
0000
0000
0000
0000
0000
0000
0000
0030
,
0000
0000
0000
0000
;
#NOTES:
     dance-single:
     :
     Challenge:
     14:
     :
0000
0000
0000
0000
,
0000
0000
0000
0000
,
0000
0000
0000
0000
,
1000
0100
0010
0001
1000
0010
0100
0002
,
2000
0000
0000
0000
0000
0000
0000
3003
,
0000
0000
0000
0000
,
0001
0000
0000
0000
0100
0001
0000
0000
1000
0000
0000
0010
0100
0000
0010
0000
,
1000
0000
0100
0000
0010
0100
0000
0000
1000
0000
0000
0010
0100
0000
0000
0000
,
0010
0000
0000
0000
0100
0000
0000
0000
0001
0000
0000
1000
0001
0000
0010
0000
,
0100
0000
0000
0010
0100
0000
1000
0000
0000
0000
0001
0100
0001
0000
0010
0000
,
0100
0000
0000
0000
1000
0001
0000
0000
0100
0000
0000
0010
0100
0000
0001
0000
,
1000
0000
0100
0000
0010
0001
0000
0000
1000
0000
0000
0010
0100
0000
0010
0000
,
1000
0000
0000
0000
0001
0000
0000
0000
0010
0000
0000
0100
0010
0000
0001
0000
,
1001
0000
1000
0010
1000
0000
0001
1000
0001
0100
0001
0100
0010
1000
0010
1000
,
0100
0000
1000
0010
0000
0001
0010
0000
1000
0100
0000
0010
0100
0010
0001
0000
,
0000
0000
0000
2002
0000
0000
0000
0000
0000
0000
0000
0000
3003
0000
0001
0000
,
0100
0000
0001
0000
1000
0010
0000
1000
0001
0000
0100
0000
0010
0000
1000
0000
,
0001
0000
0010
0000
0001
0100
0000
0001
1000
0000
0010
0000
0100
0000
0001
0000
,
1000
0000
0100
0010
0100
0000
1000
0000
0001
0000
0100
0000
0010
0000
1000
0000
,
0001
0000
0011
0000
0000
1001
0000
0001
1000
0000
0010
0000
0100
0010
0100
0000
,
0001
0000
1000
0000
0001
0100
0000
0010
1000
0000
0001
0000
0010
0000
0001
0000
,
1000
0000
0100
0000
1000
0010
0000
0100
0001
0000
1000
0000
0010
0000
0100
0000
,
0001
0000
1001
0000
0000
1100
0000
0000
0110
0000
0000
0010
0001
0000
1000
0001
,
1000
0000
1010
0000
0000
0001
0100
0000
0001
0010
0000
0001
1000
0100
1000
0000
,
0001
0000
0000
0100
0010
0000
0100
0000
0010
0000
1000
0001
0100
0000
0001
0000
,
0010
0100
0000
0010
0001
0000
0100
0000
0010
0000
1000
0010
1000
0000
0001
0000
,
1000
0000
0000
0100
0010
0000
0100
0000
1000
0000
0001
0000
0100
0000
0001
0000
,
1000
0010
0000
0010
0100
0001
0000
0001
0010
0000
0100
0010
0100
0000
1000
0000
,
1001
0000
0000
1100
0000
0000
0011
0000
1001
0000
1000
0000
0010
0000
0100
0000
,
0001
1000
0000
0010
0100
0000
0010
0000
1000
0000
0001
0010
0001
0000
1000
0000
,
1010
0000
0000
0010
0100
0000
0001
0000
0101
0000
0000
0001
0010
0000
0100
0000
,
1100
0000
0000
1000
0001
0000
0100
0000
0110
0000
0000
1000
0001
0000
0010
0000
,
0000
2002
0000
0000
0000
0000
0000
0000
0000
0000
0000
0000
0000
0000
3003
0000
,
0000
0000
0000
0000
0000
0000
0000
0000
0000
0000
0001
0000
0010
0100
0000
0010
,
0001
0000
0100
0000
0010
1000
0010
0000
1000
0000
0000
0100
0010
0000
0100
0000
,
1000
0000
0010
0000
0100
0001
0100
0000
0001
0000
0000
1000
0010
0000
0100
0000
,
0001
0001
0001
0001
1000
1000
1000
0010
,
0100
0000
0000
0101
0000
0000
1010
0000
0000
0000
1000
0000
0100
0010
0000
0100
,
1000
0000
0010
0000
0100
0001
0100
0000
0001
0000
0000
0010
0100
0000
0010
0000
,
0001
0000
0100
0000
0010
1000
0010
0000
1000
0000
0000
0001
0100
0000
0010
0000
,
1000
0000
1000
0000
1000
0000
0001
1000
0001
0000
0001
0000
0001
0000
0001
0000
,
1000
0000
0000
0100
0001
0000
0200
0000
0000
1300
0001
0000
0100
0010
0100
0000
,
0010
0000
1000
0000
0010
0100
0001
0000
0010
0000
0001
0000
0010
0100
1000
0000
,
0001
0000
0100
0000
0010
0100
0000
0010
1000
0000
0000
0001
0010
0001
0010
0000
,
0001
0000
0100
0000
0001
0100
0010
0000
1000
0000
0100
0000
1000
0100
0010
0000
,
0011
0000
0000
0101
0000
0000
1001
0000
0000
0000
1000
0010
1000
0000
0001
0100
,
0010
0000
0100
0000
0010
0100
0000
0101
0000
1010
0000
1001
0000
0000
2000
0000
,
0000
0200
0000
0000
3300
0000
0000
0000
,
0120
0000
0000
0000
0031
1000
0100
0010
0002
0000
0000
0103
0010
0000
0200
0000
,
0000
0000
0310
0100
0010
1000
0001
0010
0100
1000
0100
1000
0001
0100
0001
0000
,
1000
0100
0010
0001
0100
0010
0000
0100
0010
1000
0010
1000
0001
0010
0100
1000
,
0002
0000
0000
0013
0100
0000
0010
0001
2000
0000
0000
0000
0000
0000
0000
0000
,
3010
0100
0010
0100
0001
1000
0001
1000
0002
0000
0000
0023
0000
0000
0130
1000
,
0010
0000
0100
0000
0001
0100
0000
0010
0000
1000
0200
0000
0000
0000
0310
0000
,
0200
0000
0000
1300
0010
0000
0200
0000
0000
0000
0000
0000
0000
0000
0301
0000
,
1000
0000
0001
0010
0001
0000
1000
0010
1000
0010
0100
0000
0001
0010
0100
1000
,
0001
0000
0011
0000
0000
0101
0000
0000
1010
0000
0000
0110
0000
0000
1001
0000
,
0000
0000
0000
0220
0000
0000
0000
0000
0000
0000
0000
0000
0000
0000
0330
0000
,
0000
0000
0001
0100
0000
0100
0000
0000
1000
0100
0000
0100
0000
0000
0001
0010
,
0000
0010
0000
1000
0000
0010
0002
0000
0000
0000
0000
0000
0000
0000
0000
0000
,
0000
0000
0000
0000
0000
0000
0000
0003
,
0000
0000
0000
0000
;
#NOTES:
     dance-double:
     :
     Easy:
     5:
     :
00000000
00000000
00000000
00000000
,
00000000
00000000
00000000
00000000
,
00000000
00000000
00000000
00000000
,
00000000
00000000
00000000
00000000
,
00000000
00000000
00000000
00000000
,
00000000
00000000
00000000
00000000
,
10000000
00000000
00100000
00000000
,
01000000
00000000
00100000
00000000
,
10000000
00000000
01000000
00000000
,
00010000
00000000
00001000
00000000
,
00000100
00000000
00000001
00000000
,
00000100
00000000
00000001
00000000
,
00000010
00000000
00001000
00000000
,
00010000
00000000
01000000
00000000
,
10010000
00000000
00000000
00000000
,
00000000
00000000
00000000
00000000
,
10000000
00000000
01000000
00000000
,
00010000
00000000
01000000
00000000
,
00100000
00000000
00010000
00000000
,
00001000
00000000
00000100
00000000
,
00000001
00000000
00000100
00000000
,
00001000
00000000
00000100
00000000
,
00000010
00000000
00001000
00000000
,
00010000
00000000
01000000
00000000
,
10000000
10000000
10000000
00000000
,
00000000
00100000
00010000
00000000
,
00001000
00001000
00001000
00000000
,
00000000
00000010
00000001
00000000
,
00000100
00001000
00010000
00000000
,
00000000
00100000
01000000
00000000
,
00010000
00010000
10000000
10000000
,
00100000
00010000
00001000
00000100
,
00000020
00000000
00000030
00000000
,
00002002
00000000
00003003
00000000
,
00000000
00000001
00000010
00000000
,
00000010
00001000
00010000
00000000
,
01000000
00000000
00100000
00000000
,
10010000
10010000
01100000
00000000
,
00000000
10000000
00100000
00000000
,
00100000
00010000
00001000
00000000
,
00000100
00000100
00000010
00000010
,
00001001
00001001
00000110
00000000
,
00001000
00000001
00000010
00001000
,
00010000
01000000
00100000
00000000
,
00010000
10000000
00100000
00010000
,
00001000
00000100
00000010
00000000
,
00001000
00000000
00000001
00001000
,
00000200
00000000
00000300
00000000
,
00000010
00000010
00000010
00000000
,
00001000
00010000
00011000
00000000
,
00100000
00100000
00100000
00000000
,
00010000
00001000
00011000
00000000
,
00000010
00000001
00000100
00001000
,
00010000
01000000
10000000
00000000
,
00100000
10000000
01000000
00010000
,
00001000
00000010
00000001
00000000
,
00000100
00000000
00001000
00000000
,
00000000
00000000
00000200
00000000
00000000
00000000
00000000
00000300
,
00000000
00000000
00000000
00000000
;
#NOTES:
     dance-double:
     :
     Medium:
     9:
     :
00000000
00000000
00000000
00000000
,
00000000
00000000
00000000
00000000
,
00000000
00000000
00000000
00000000
,
00000000
00000000
00000000
00000000
,
00000000
00000000
00000000
00000000
,
00000000
00000000
00000000
00000000
,
10000000
00000000
01010000
00000000
00001000
00010000
00001010
00000000
,
00000001
00000100
00001000
00000100
,
00000001
00000000
00001100
00000000
00010000
00001000
00110000
00000000
,
00010000
10000000
01000000
00000000
00100000
00010000
01000000
00000000
,
10000000
00000000
01010000
00000000
00001000
00010000
00001010
00000000
,
00000001
00000010
00001000
00000010
,
00000001
00000000
00001010
00000000
00010000
00001000
01010000
00000000
,
00100000
00100000
00000000
00100000
00000000
00000000
00000000
00000000
,
02000000
00000000
00000000
00000000
00200000
00000000
00000000
03300000
,
00000000
20020000
00000000
30030000
,
10000000
01000000
00010000
01000000
,
00100000
00010000
00001000
00000100
,
00000001
00000010
00001000
00000010
,
00000100
00000001
00000010
00000000
00000001
00001000
00000010
00000000
,
00000001
00000100
00001000
00000100
,
00000010
00001000
00010000
01000000
,
10000000
00100000
00010000
00100000
,
01000000
10000000
00100000
00000000
00100000
00010000
00001000
00000000
,
00001000
00011000
00000000
00001100
00000000
00000000
00000000
00000000
,
00000010
00001000
00010000
01000000
,
10000000
01010000
00000000
00010000
00000000
00000000
00000000
00000000
,
00100000
00001000
00010000
00000100
,
00001000
00001100
00000000
00000001
00000000
00000000
00000000
00000000
,
00000100
00000001
00000010
00000000
00000010
00001000
00010000
00000000
,
00100000
00000000
00100000
01000000
01010000
00000000
10000000
01000000
,
11000000
00000000
00000000
00000000
10000000
00000000
00000000
00000000
01000000
00000000
00000000
00010000
00000000
00000000
00001000
00000000
,
00000000
00000020
00000000
00000000
00000000
00000000
00000000
00000030
,
00000000
00000000
00000000
00000000
,
00001000
00000000
00000001
00000100
00000001
00000000
00000000
00000000
,
00000010
00001000
00010000
00000000
00001000
00010000
01000000
00000000
,
00100000
00100000
00100000
00000000
00010000
01000000
00001000
00010000
,
00000010
00000000
00000000
00010000
00000000
00000000
01000000
00000000
00000000
00000000
00000000
00000000
00000000
00000000
00000000
00000000
,
10000000
00010000
10000000
01000000
10000000
00000000
00000000
00000000
,
00100000
00000000
00010000
00000000
00001000
00000000
00000000
00000000
00000010
00000000
00000000
00000001
00000000
00000000
00000000
00000000
,
00000100
00000100
00000001
00000000
00001000
00000100
00010000
00001000
,
00100000
00000000
00000000
00100000
00000000
00000000
01000000
00000000
00000000
00000000
00000000
00000000
00000000
00000000
00000000
00000000
,
10000000
10000000
00100000
00000000
00010000
00001000
00000100
00000000
,
00000001
00000000
00000000
00000020
00000000
00000000
00000000
00000000
00000000
00000000
00000030
00000000
00000000
00000000
00000100
00000000
,
00001000
00000001
00000010
00000000
00001000
00010000
01000000
00000000
,
00100000
00000000
00000000
00100000
00000000
00000000
22000000
00000000
00000000
00000000
33000000
00000000
00000000
00000000
00000000
00000000
,
10000000
00000000
00100000
00000000
00010000
00001000
00000100
00000001
,
00000000
00000010
00000000
00000000
00000000
00000000
00000000
00000000
,
00000001
00000000
00001100
00000000
00010000
00001000
00110000
00000000
,
10000000
01000000
00010000
01000000
,
10000000
00000000
01010000
00000000
00001000
00010000
00001100
00000011
,
00000000
00000001
00000011
00000000
00000000
00001000
00000101
00000000
,
00001000
00000000
00001100
00000000
00010000
00001000
00010000
00110000
,
00000000
00100000
00100000
00000000
00000000
01000000
01000000
00000000
,
10000000
00000000
00110000
00000000
00001000
00010000
00001000
00001010
,
00000000
00000010
00000010
00000000
00000000
00000100
00000100
00000000
,
00000000
00000001
00000000
00001000
00000000
00000100
00000000
00000000
,
00000000
00000000
00000002
00000000
00000000
00000000
00000000
00000003
,
00000000
00001100
00000000
00000000
00011000
00000000
00000000
00110000
,
00000000
20020000
00000000
00000000
,
00000000
00000000
00000000
00000000
00000000
00000000
00000000
30030000
,
00000000
00000000
00000000
00000000
;
#NOTES:
     dance-double:
     :
     Hard:
     12:
     :
00000000
00000000
00000000
00000000
,
00000000
00000000
00000000
00000000
,
00000000
00000000
00000000
00000000
,
10000000
00010000
00100000
01000000
00010000
00001000
00000010
00000100
,
00002000
00000000
00000000
00000000
00000000
00000000
00000000
00003000
,
00000000
00000000
00000000
00000000
,
00001000
00000000
00000000
00000000
00000001
00000010
00000000
00000000
00001000
00000000
00000000
00000000
00010000
00000000
00000000
00000000
,
00100000
10000000
01000000
00000000
00100000
00010000
01000000
00000000
,
00010000
00000000
00000000
00000000
10000000
00100000
00000000
00000000
00010000
00000000
00000000
00000000
00001000
00000000
00000000
00000000
,
00000010
00001000
00010000
00000000
00010000
00001000
00000100
00000000
,
00000001
00000000
00000000
00000000
00001000
00000000
00000000
00000000
00000100
00001000
00000000
00000001
00000010
00000000
00000000
00000000
,
00001000
00010000
01000000
10000000
00100000
10000000
01000000
00000000
,
10000000
00000000
00000000
00000000
00010000
00000000
00000000
00000000
00100000
00010000
00000000
10000000
01000000
00000000
00000000
00000000
,
10000000
00100000
00010000
00001000
00000100
00000001
00000010
00000000
,
00000000
00000000
00000001
00000000
00000000
00001000
00000000
00000000
00001100
00000000
00000000
00011000
00000000
00000000
00110000
00000000
,
00000000
00000000
00000000
20020000
00000000
00000000
00000000
00000000
00000000
00000000
00000000
00000000
30030000
00000000
00000000
00000000
,
00100000
10000000
01000000
00000000
00100000
00010000
01000000
00000000
,
00100000
00010000
00001000
00000000
00010000
00001000
00000100
00000000
,
00000010
00001000
00000100
00000010
00001000
00010000
01000000
10000000
,
00100000
00010000
00001000
00010000
00100000
00010000
00001000
00000000
,
00000010
00000001
00000100
00000000
00000010
00001000
00000100
00000000
,
00000010
00001000
00010000
00000000
00001000
00010000
01000000
00000000
,
00100000
00010000
01000000
00100000
00010000
00001000
00000100
00000001
,
00000010
00001000
00010000
00001000
00000010
00001000
00010000
01000000
,
10000000
00000000
00000000
10010000
00000000
00000000
01010000
00000000
11000000
00000000
00000000
00000000
00000000
00000000
00000000
00000000
,
00100000
00010000
00001000
00000000
00010000
00001000
00000100
00000000
,
00000001
00000000
00000000
00001001
00000000
00000000
00000101
00000000
00001100
00000000
00000000
00000000
00000000
00000000
00000000
00000000
,
00010000
00001000
00100000
00010000
,
10000000
00000000
00000000
10010000
00000000
00000000
11000000
00000000
00110000
00000000
00000000
00000000
00000000
00000000
00000000
00000000
,
00001000
00010000
00001000
00010000
00001000
00000100
00000001
00000000
,
00000100
00000000
00000000
00000100
00000000
00000000
00000100
00000000
00001000
00000000
00000000
00001000
00000000
00000000
00001000
00000000
,
00010000
00000000
00000000
00001000
00000000
00000000
00010000
00000000
11000000
00000000
00000000
01010000
00000000
00000000
00011000
00000000
,
00000000
00002020
00000000
00000000
00000000
00000000
00000000
00000000
00000000
00000000
00000000
00000000
00000000
00000000
00003030
00000000
,
00000000
00000000
00000000
00000000
,
00000001
00000000
00000010
00000000
00001000
00010000
00000000
00000000
00010000
00000000
00000000
00000000
01000000
00000000
00000000
00000000
,
10000000
00000000
00100000
00000000
00010000
00001000
00000000
00000000
00001000
00000000
00000000
00000000
00000100
00000000
00000000
00000000
,
00000001
00000001
00000010
00000000
00000010
00001000
00010000
00000000
,
00011000
00000000
00000000
01010000
00000000
00000000
10100000
00000000
00000000
00000000
00000000
00000000
00000000
00000000
00000000
00000000
,
10000000
00000000
10000000
00000000
00100000
00010000
00000000
00000000
00001000
00000000
00000000
00000000
00000100
00000000
00000000
00000000
,
00000001
00000000
00000001
00000000
00000010
00001000
00000000
00000000
00010000
00000000
00000000
00000000
01000000
00000000
00000000
00000000
,
10000000
10000000
00100000
00100000
00010000
00001000
00000100
00000001
,
00000010
00000000
00000000
00000010
00000000
00000000
00000010
00000000
00000000
00000000
00000000
00000000
00000000
00000000
00000000
00000000
,
00000001
00000100
00001000
00000100
00000001
00000010
00001000
00010000
,
01000000
00000000
00000000
10000000
00000000
00000000
00000000
00000000
00000000
00000000
00000000
00000000
00000000
00000000
00010000
00000000
,
10000000
00000000
01000000
00000000
00010000
00000000
01000000
10000000
00100000
00000000
00010000
00000000
00001000
00000000
00000100
00000000
,
00000010
00000000
00000000
00000010
00000000
00000000
00000010
00000000
00000000
00000000
00000000
00000000
00000000
00000000
00000000
00000000
,
00001000
00000000
00000001
00000000
00000010
00001000
00000000
00000010
00000000
00000000
00001000
00000000
00010000
00000000
01000000
00000000
,
00000000
10000000
00000000
00000000
00000000
00000000
00000000
00000000
,
00010000
00000000
00000000
00000000
10000000
00100000
00000000
00000000
00010000
00000000
00000000
00001000
00000000
00000000
00000100
00000000
,
00000001
00001000
00000100
00000000
00000010
00000001
00000100
00000001
,
00001000
00000000
00000000
00000000
00000001
00000010
00000000
00000000
00001000
00000000
00000000
00010000
00000000
00000000
01000000
00000000
,
00100000
00010000
01000000
00000000
00010000
10000000
01000000
00000000
,
00100000
10000000
01000000
00000000
00100000
00010000
01000000
00000000
,
00100000
00010000
00001000
00010000
00001000
00000100
00000100
00000000
,
00000010
00001000
00000100
00000010
00001000
00010000
01000000
10000000
,
00100000
00010000
00001000
00010000
00100000
00010000
00001000
00000000
,
00000000
00000000
00010000
00000000
00000000
00001000
00000000
00000000
00000100
00000000
00000000
00000001
00000000
00000000
00000000
00000000
,
00000000
00000000
00000000
00000200
00000000
00000000
00000000
00000000
00000000
00000000
00000000
00000000
00000000
00000000
00000300
00000000
,
00000000
00000000
00000100
00000001
00000000
00000001
00000000
00000000
00000010
00001000
00000000
00001000
00000000
00000000
00010000
00001000
,
00000000
00001000
00000000
00001000
00000000
00010000
00002000
00000000
00000000
00000000
00000000
00000000
00000000
00000000
00000000
00000000
,
00000000
00000000
00000000
00000000
00000000
00000000
00000000
00003000
,
00000000
00000000
00000000
00000000
;
#NOTES:
     dance-double:
     :
     Challenge:
     14:
     :
00000000
00000000
00000000
00000000
,
00000000
00000000
00000000
00000000
,
00000000
00000000
00000000
00000000
,
00000001
00000100
00001000
00010000
00001000
00010000
00100000
20000000
,
00020000
00000000
00000000
00000000
00000000
00000000
00000000
30030000
,
00000000
00000000
00000000
00000000
,
10000000
00000000
00000000
00000000
01000000
00100000
00000000
00000000
00010000
00000000
00000000
10000000
01000000
00000000
00010000
00000000
,
00001000
00000000
00010000
00000000
00000010
00001000
00000000
00000000
00000001
00000000
00000000
00000010
00000100
00000000
00000000
00000000
,
00000010
00000000
00000000
00000000
00000001
00000000
00000000
00000000
00001000
00000000
00000000
00000100
00000010
00000000
00000001
00000000
,
00000100
00000000
00000000
00001000
00010000
00000000
00001000
00000000
00000000
00000000
00100000
00010000
00100000
00000000
01000000
00000000
,
10000000
00000000
00000000
00000000
00100000
01000000
00000000
00000000
00010000
00000000
00000000
00100000
00001000
00000000
00010000
00000000
,
00000010
00000000
00001000
00000000
00000100
00000010
00000000
00000000
00000001
00000000
00000000
00001000
00000010
00000000
00000100
00000000
,
00000001
00000000
00000000
00000000
00000010
00000000
00000000
00000000
00000100
00000000
00000000
00001000
00000010
00000000
00010000
00000000
,
00001000
00000000
00010000
00001000
00010000
00000000
00001000
00000000
01000000
00010000
01000000
00010000
10000000
00100000
10000000
00000000
,
01000000
00000000
10000000
00010000
00000000
00100000
00001000
00000000
00010000
00000010
00000000
00001000
00000001
00000010
00000100
00000000
,
00000000
00000000
00000000
00002002
00000000
00000000
00000000
00000000
00000000
00000000
00000000
00000000
00003003
00000000
00000001
00000000
,
00001000
00000000
00000100
00000000
00000010
00001000
00000000
00010000
00001000
00000000
00100000
00000000
00010000
00000000
10000000
00000000
,
00010000
00000000
00100000
00000000
01000000
00010000
00000000
00001000
00010000
00000000
00000100
00000000
00001000
00000000
00000001
00000000
,
00000010
00000000
00000100
00000010
00000100
00000000
00001000
00000000
00000001
00000000
00000100
00000000
00001000
00000000
00010000
00000000
,
00100000
00000000
10100000
00000000
00000000
10010000
00000000
00010000
01000000
00000000
00100000
00000000
10000000
00010000
10000000
00000000
,
01000000
00000000
00100000
00000000
00010000
10000000
00000000
01000000
00010000
00000000
00001000
00000000
00000010
00000000
00000001
00000000
,
00000100
00000000
00000010
00000000
00001000
00000001
00000000
00000100
00001000
00000000
00010000
00000000
00100000
00000000
10000000
00000000
,
00010000
00000000
01010000
00000000
00000000
01001000
00000000
00000000
00011000
00000000
00000000
00010000
00000010
00000000
00001000
00000010
,
00000100
00000000
00000101
00000000
00000000
00000001
00000010
00000000
00000001
00000100
00000000
00000010
00001000
00000100
00010000
00000000
,
00001000
00000000
00000000
00010000
01000000
00000000
00100000
00000000
01000000
00000000
10000000
00000000
00100000
00000000
00010000
00000000
,
00001000
00010000
00000000
00001000
00000100
00000000
00000010
00000000
00001000
00000000
00000100
00000000
00010000
00000000
00001000
00000000
,
00010000
00000000
00000000
00001000
00000010
00000000
00000100
00000000
00000010
00000000
00000001
00000000
00000100
00000000
00001000
00000000
,
00010000
00100000
00000000
00100000
10000000
00010000
00000000
00010000
00100000
00000000
01000000
00000000
10000000
00000000
00010000
00000000
,
00110000
00000000
00000000
00101000
00000000
00000000
00011000
00000000
00010010
00000000
00000010
00000000
00001000
00000000
00000100
00000000
,
00000010
00000001
00000000
00000100
00000010
00000000
00001000
00000000
00000001
00000000
00000010
00000000
00000100
00000000
00001000
00000000
,
00001100
00000000
00000000
00000100
00010000
00000000
00001000
00000000
00011000
00000000
00000000
00010000
01000000
00000000
10000000
00000000
,
11000000
00000000
00000000
01000000
00100000
00000000
00010000
00000000
00110000
00000000
00000000
00100000
00001000
00000000
00010000
00000000
,
00000000
00022000
00000000
00000000
00000000
00000000
00000000
00000000
00000000
00000000
00000000
00000000
00000000
00000000
00033000
00000000
,
00000000
00000000
00000000
00000000
00000000
00000000
00000000
00000000
00000000
00000000
00010000
00000000
00000100
00001000
00000000
00000100
,
00000010
00000000
00000001
00000000
00001000
00000000
00000010
00000000
00010000
00000000
00000000
00001000
00000100
00000000
00000010
00000000
,
00001000
00000000
00000100
00000000
00010000
00000000
00001000
00000000
00100000
00000000
00000000
00010000
01000000
00000000
00100000
00000000
,
10000000
01000000
00010000
00001000
00010000
00001000
00000010
00000001
,
00000100
00000000
00000000
00000101
00000000
00000000
00001010
00000000
00000000
00000000
00000001
00000000
00000100
00000010
00000000
00001000
,
00000100
00000000
00000010
00000000
00001000
00000000
00010000
00000000
01000000
00000000
00000000
10000000
00010000
00000000
01000000
00000000
,
00100000
00000000
00010000
00000000
00001000
00000000
00000100
00000000
00000010
00000000
00000000
00001000
00000100
00000000
00000010
00000000
,
00000001
00000100
00001000
00010000
00001000
00010000
00100000
10000000
,
00010000
00000000
00000000
10000000
01000000
00000000
00020000
00000000
00000000
00031000
00010000
00000000
00000010
00000000
00001000
00000000
,
00000001
00000000
00000010
00000000
00000100
00001000
00000100
00000000
00010000
00000000
00001000
00000000
00100000
00010000
00100000
00000000
,
00001000
00000000
00010000
00000000
00100000
01000000
00000000
00010000
10000000
00000000
00000000
01000000
00100000
00000000
00010000
00000000
,
10000000
00000000
01000000
00000000
00100000
00010000
00100000
00000000
00001000
00000000
00010000
00000000
00000100
00001000
00000100
00000000
,
00001100
00000000
00000000
00000110
00000000
00000000
00000011
00000000
00000000
00000000
00000001
00001000
00000001
00000000
00001000
00000100
,
00010000
00000000
00001000
00000000
01000000
00010000
00000000
01000000
00000000
00100000
00000000
10000000
00000000
00000000
00020000
00000000
,
00000000
02000000
00000000
00000000
03030000
00000000
00000000
00000000
,
20010000
00000000
00000000
00000000
31000000
00100000
00010000
00100000
00002000
00000000
00000000
00013000
00001000
00000000
00020000
00000000
,
00000000
00000000
00030010
00001000
00000010
00000000
00000100
00000001
00000100
00000000
00000001
00000010
00000001
00000000
00000010
00000000
,
00000001
00001000
00000100
00001000
00000100
00010000
00000000
00001000
00010000
00001000
00100000
00010000
00100000
00000000
00010000
00000000
,
02000000
00000000
00000000
03100000
10000000
00000000
01000000
00100000
00020000
00000000
00000000
00000000
00000000
00000000
00000000
00000000
,
10030000
00100000
10000000
00100000
01000000
00000000
00100000
00000000
00020000
00000000
00000000
00032000
00000000
00000000
00003100
00000000
,
00000010
00000000
00001000
00000000
00000100
00000010
00000000
00000001
00000000
00000100
00000020
00000000
00000000
00000000
00000130
00000000
,
00002000
00000000
00000000
00013000
00100000
00000000
20000000
00000000
00000000
00000000
00000000
00000000
00000000
00000000
30100000
00000000
,
10000000
00000000
00010000
01000000
00010000
00000000
01000000
00001000
01000000
00001000
00010000
00000000
00000100
00001000
00000100
00001000
,
00000001
00000000
00000011
00000000
00000000
00001100
00000000
00000000
00010100
00000000
00000000
00011000
00000000
00000000
01001000
00000000
,
00000000
00000000
00000000
02020000
00000000
00000000
00000000
00000000
00000000
00000000
00000000
00000000
00000000
00000000
03030000
00000000
,
00000000
00000000
10000000
01000000
00000000
01000000
00000000
00000000
00010000
00001000
00000000
00001000
00000000
00000000
00000100
00000001
,
00000000
00000001
00000000
00001000
00000000
00000100
00020000
00000000
00000000
00000000
00000000
00000000
00000000
00000000
00000000
00000000
,
00000000
00000000
00000000
00000000
00000000
00000000
00000000
00030000
,
00000000
00000000
00000000
00000000
;
