#TITLE:IX;
#ARTIST:dj TAKA VS DJ TOTTO feat.藍;
#TITLETRANSLIT:9;
#ARTISTTRANSLIT:dj TAKA VS DJ TOTTO feat.Ai;
#BANNER:IX.png;
#BACKGROUND:IX-bg.png;
#CDTITLE:./CDTITLES/DDR (2014).png;
#MUSIC:IX.ogg;
#SAMPLESTART:72.412;
#SAMPLELENGTH:15;
#BPMS:0=99,20=198,215=99,217=396,341=198,369=99,371=396;
#STOPS:47.5=0.152,48=0.152,337=0.101,337.666667=0.101,338.333333=0.101,339=0.101,339.666667=0.101,340.333333=0.101;
#NOTES:
     dance-single:
     :
     Beginner:
     5:
     :
0000
0000
0000
0000
,
0000
0000
0000
0000
,
0000
0000
0000
0000
,
1000
0000
0001
0000
,
1000
1000
0001
0001
,
0200
0000
0000
0000
,
0000
0000
0000
0300
,
0200
0000
0000
0000
,
0000
0000
0000
0300
,
0002
0000
0000
0000
,
0000
0000
0000
0003
,
2000
0000
0000
0000
,
0000
0000
3000
1000
,
1000
1000
0000
0001
,
0001
0001
0000
0100
,
0100
0100
0000
0010
,
0010
1000
0001
0100
,
0100
0100
0000
0001
,
0001
0001
0000
1000
,
1000
1000
0000
1001
,
0000
0000
0000
0100
,
0100
0000
0100
0001
,
0001
0000
0001
1000
,
1000
0000
1000
0010
,
0010
0000
0010
0100
,
0100
0000
0100
1000
,
1000
0000
1000
0010
,
0010
0000
0010
0002
,
0000
0003
0001
0200
,
0000
0000
0300
0020
,
0030
0200
0300
0002
,
0003
2000
3000
0010
,
0010
0010
0000
2000
,
3000
0002
0003
0020
,
0030
0200
0300
0110
,
0000
0000
0000
1000
0000
0001
0000
0000
,
0000
0000
0000
0010
,
0000
0100
0000
0001
,
0001
0001
0000
1000
,
0000
0010
0000
0100
,
0100
0100
0000
0001
,
0000
0100
0000
1000
,
1000
1000
0000
0001
,
0000
1000
0000
0010
,
0010
0010
0000
0100
,
0100
0000
0001
0100
,
0100
0000
0010
0100
,
0100
0000
1000
0100
,
0100
0100
0000
0001
,
0000
0001
0000
1000
,
0000
1000
0000
0001
,
0001
0001
0000
1000
,
1000
1000
0000
0001
,
0001
1000
1000
1001
,
0000
0010
0000
0000
,
0000
0001
0000
0001
,
0000
1000
0000
0000
,
0000
1000
0000
0000
,
0000
0001
0000
0001
,
0000
0100
0000
0100
,
0000
0100
0000
0000
,
0000
0001
0000
0000
,
0000
1000
0000
1000
,
0000
1000
0000
0000
,
0000
0100
0000
0100
,
0000
0100
0000
0000
,
0000
0010
0000
0010
,
0000
0010
0000
0010
,
0000
1001
0000
0000
,
0000
0000
0000
0000
,
0000
0100
0000
0000
,
0000
0001
0000
0000
,
0000
1000
0000
1000
,
0000
1000
0000
0000
,
0000
0001
0000
0001
,
0000
0010
0000
0010
,
0000
0010
0000
0000
,
0000
1000
0000
0000
,
0000
0001
0000
0001
,
0000
0001
0000
0000
,
0000
1000
0000
1000
,
0000
1000
0000
0000
,
0000
0001
0000
0001
,
0000
1000
0000
1000
,
0000
0020
0000
0000
,
0000
0030
0000
0100
0000
0000
0000
0000
0000
0000
0000
0000
,
0000
0001
0000
0000
,
0000
1000
0000
0000
,
0000
0010
0000
0100
,
0000
0010
0000
0000
,
0000
1000
0000
0000
,
0000
0100
0100
0100
,
0000
1001
0000
1000
,
0000
0000
0000
0100
,
0000
0100
0000
0010
,
0000
0010
0000
0010
,
0000
0000
0000
0001
,
0000
0001
0000
1000
,
0000
1000
0000
1000
,
0000
0000
0000
0010
,
0000
0000
0000
0100
,
0000
0100
0000
0001
,
0000
0000
0000
0100
,
0000
0100
0000
1000
,
0000
0000
0000
0100
,
0000
0100
0000
0100
,
0000
0100
0000
0010
,
0000
0010
0000
0010
,
0000
0010
0000
1000
,
0000
0000
0000
1000
,
0000
0000
0000
1000
,
0000
1000
0000
1000
,
0000
0000
0000
0001
,
0000
0000
0000
0001
,
0000
0000
0000
0001
,
0000
0001
0000
0001
,
0000
0000
0000
1000
,
0000
0000
0000
0001
,
0000
0000
0000
1000
,
0000
0001
0000
1000
,
0000
0001
0000
0020
,
0000
0000
0000
0000
,
0030
0000
1001
0000
,
0000
0000
0000
0000
;
#NOTES:
     dance-single:
     :
     Easy:
     11:
     :
0000
0000
0000
0000
,
0000
0000
0000
0000
,
0000
0000
0000
0000
,
0010
0001
1000
0010
,
0100
0001
1000
0010
,
0200
0000
0000
0000
,
0000
0000
0000
0300
,
0020
0000
0000
0000
,
0000
0000
0000
0030
0000
0010
0000
0000
,
2000
0000
0000
0000
,
0000
0000
0000
3000
,
0002
0000
0000
0000
0000
0003
0000
0100
,
0100
0020
0000
0000
0000
0000
1030
0000
,
1000
0000
0001
1000
0001
0000
1000
0000
,
1000
0000
0100
0010
0001
0000
1000
0000
,
1000
0000
0001
0100
0001
0000
1000
0000
,
0001
1000
0100
0001
,
0001
0000
1000
0001
1000
0000
0001
0000
,
0001
0000
0100
0010
1000
0000
0001
0100
,
0001
0000
1000
0100
1000
0000
1001
0000
,
0000
0000
0000
0100
,
0001
0000
1000
0001
1000
0000
0010
0000
,
0100
0001
0100
0010
,
1000
0000
0001
1000
0001
0000
0010
0000
,
0100
1000
0001
0100
,
0010
0000
1000
0100
1000
0000
0001
0000
,
0100
0010
1000
0010
,
0100
0000
0001
0010
0001
0000
0011
0000
,
0000
1001
0000
0000
1100
0000
0002
0000
,
1000
1000
1003
2000
,
3100
0020
0130
2000
,
3001
0200
0301
0020
,
0032
2003
3020
0230
,
0301
0020
1030
0200
,
0302
0000
2003
0000
3001
0000
0100
0100
,
0000
0000
0000
0110
0000
2002
0000
0000
,
0000
3003
0000
0100
,
0100
0100
0010
0000
0000
0000
1000
0000
,
0001
1000
0000
0010
,
0001
0001
0010
0000
0000
0000
0001
0000
,
0010
0100
1000
0010
,
0100
0100
0010
0000
0000
0000
0001
0000
,
1000
0100
0000
1000
,
1000
1000
0001
0000
0000
0000
0010
0000
,
0001
1000
0000
0100
,
0100
0100
0100
0010
,
0010
0010
0010
1000
,
0100
0010
0001
1000
,
1000
0001
0001
1000
,
1001
1001
1000
0010
,
0110
0110
0100
0001
,
0101
0101
0001
1000
,
1100
1100
1000
1001
,
1001
1001
1001
0020
,
0000
0030
1000
0000
0000
0000
1000
0000
,
0000
1000
0001
1000
,
0000
0010
0000
0100
,
0000
0001
0100
0001
,
0000
1000
0000
0100
,
0000
0010
0000
0100
,
0000
1000
0000
1000
,
0000
0001
1000
0001
,
0000
1000
0100
1000
,
0000
0100
0000
1000
,
0000
0001
0100
0001
,
0000
0100
0000
0010
,
0000
1000
0001
1000
,
0001
1000
0001
1000
,
0000
0100
0100
0000
,
0010
0000
2002
0000
,
3003
0100
0000
0010
,
0000
0100
0000
0001
,
0000
1000
0001
1000
,
0000
0100
0000
0010
,
0000
0001
0000
0100
,
0000
0001
0000
0010
,
0000
0001
0010
0001
,
0000
1000
0100
1000
,
0000
0001
0000
0100
,
0000
1000
0100
0001
,
0000
1000
0000
0100
,
0000
0001
0100
1000
,
0000
0001
0000
1000
,
0000
0001
1000
0001
,
0000
0000
0000
0020
0000
0000
0000
0030
0000
0200
0000
0000
,
0000
0300
0000
2000
0000
0000
0000
0000
0000
0000
0000
0000
,
0000
3002
0000
0000
,
0000
1003
0000
0010
,
0000
0100
0000
0001
,
0000
0010
0000
1000
,
0000
0100
0000
0001
,
0000
0100
0100
0100
,
0100
0000
0020
0000
0000
0030
1000
0000
,
0000
1000
0000
1000
,
0010
1000
0000
0001
,
0000
0001
0000
0001
,
0010
0001
0000
1000
,
0001
0100
0000
0010
,
1000
0100
0000
1000
,
0000
0001
1000
0001
,
1000
0001
0000
0100
,
0010
0100
0010
1000
,
0100
1000
0000
0010
,
0100
0010
0100
0001
,
0010
0001
0000
1000
,
0001
1000
0000
0001
,
1000
0001
0000
1000
,
0010
1000
0010
0100
,
0001
0100
0001
1000
,
0000
1010
0000
1010
,
0000
1000
0000
0001
,
0000
0100
0000
0010
,
0100
0001
0000
0100
,
0000
0101
0000
0101
,
0000
0100
0000
0010
,
1000
0001
0000
1000
,
0001
0100
0000
0010
,
0000
0110
0000
0110
,
0000
0010
0000
1000
,
0010
1000
0000
0001
,
0010
0001
0000
0200
,
0000
0000
0000
0310
,
0110
0000
2002
0000
,
0000
3003
0000
0000
,
0000
0000
0000
0000
;
#NOTES:
     dance-single:
     :
     Medium:
     14:
     :
0000
0000
0000
0000
,
0000
0000
0000
0000
,
0000
0000
0000
0000
,
0100
0010
1000
0001
,
1000
0000
0100
0000
0010
0000
0001
0000
0100
0000
0000
0000
0010
0100
0010
0100
,
2002
0000
0000
0000
,
0000
0000
0000
3003
,
2200
0000
0000
0000
,
0000
0000
0000
3300
0000
1100
0000
0000
,
2002
0000
0000
0000
,
0000
0000
0000
3003
,
0202
0000
0000
0000
0000
0000
0303
0010
,
0100
0001
0010
0100
2000
0000
3001
1000
,
0100
1000
0001
1000
0100
1000
0001
0100
,
0010
0100
0001
0100
0100
0000
0010
1000
,
0010
0100
0010
1000
0010
0100
0010
1000
,
0001
0001
0010
0100
0010
0000
0001
0100
,
0010
0100
0001
0100
0010
0100
0001
1000
,
0100
0010
0100
1000
0100
0010
0001
1000
,
0010
0000
0100
0000
0001
1000
0001
1000
0001
0000
0000
0000
1001
0000
0000
0000
,
0000
0000
0000
0000
0100
0000
0001
0100
,
0001
0000
0010
0000
0010
0000
0001
0100
,
0010
0000
1000
0100
0001
0000
1000
0001
,
1000
0000
0010
0000
0010
0000
1000
0010
,
1000
0000
1000
0100
0010
0000
0001
1000
,
0001
0000
0010
0000
0010
0000
0001
1000
,
0010
0000
0001
0010
0100
0000
1000
0100
,
1000
0000
0001
0000
0001
0000
1001
0100
,
0000
0010
0100
0100
0010
0000
0002
0000
,
0100
0000
0103
0010
1000
0010
2000
0000
,
0010
0000
3002
0000
0013
0100
2000
0000
,
0100
0000
3020
0000
0130
0000
1000
0010
,
1000
0010
0100
0001
0020
0000
0230
0000
,
1300
0020
0130
0002
,
0103
0010
2000
0000
3100
0000
1000
1001
,
0020
0000
0000
0130
0000
0202
0000
0000
,
0000
0000
0303
1001
,
0100
0100
0110
0000
1000
0000
0001
0000
,
0001
0000
1001
0000
0000
0010
0100
0000
,
0001
0001
1001
0000
0100
0000
1000
0100
,
1000
0001
1000
0000
0010
0100
0001
0000
,
0100
0100
0110
0000
0100
0000
0001
1000
,
0001
0000
1001
0000
0100
0000
0010
0100
,
0010
0100
0010
0000
0000
1000
0001
0000
,
0100
0100
0010
0100
0110
0000
1000
1000
,
0100
1000
0000
0100
1000
0000
0010
0100
,
0100
0001
0000
0100
0001
0000
1000
0100
,
0010
0100
0010
0001
0100
1000
0100
0010
,
0100
0010
1000
0001
0010
0000
0001
1000
,
1000
0001
1000
1000
0001
1000
0010
0100
,
0100
0010
0100
0100
0010
0100
0001
0010
,
0010
0001
1000
1000
0001
0100
0010
1000
,
1000
0001
1000
1000
0100
0010
0001
0100
,
0010
1000
0001
0010
0100
1000
0002
0000
,
0000
1003
0010
0000
1000
0000
0010
0000
,
1000
0000
0100
1000
,
0001
0000
0001
0010
,
0001
0100
0001
0100
,
0010
1000
0100
1000
,
0001
0010
0001
1000
,
0020
0000
0000
0000
0030
0000
1000
0010
,
1000
0001
0100
0010
,
1000
0000
0001
0000
0100
0010
0100
0000
,
0000
0100
0020
0000
,
1030
0000
0001
0000
0100
0010
0100
0000
,
0000
0100
0020
0000
,
0130
0001
0100
1000
,
0100
0001
0100
1000
,
0100
0010
0010
0000
,
1100
0000
0022
0000
,
0033
1000
0001
1000
,
0002
0000
0103
0010
,
0100
0001
1000
0010
,
1000
0000
0100
1000
0100
0000
0010
0000
,
0010
0001
0100
0001
,
0010
0100
1000
0010
,
1000
0000
0100
0000
0000
1000
0000
0000
,
0001
0000
0000
0100
0000
0000
0010
0000
,
1000
0001
0010
0100
,
1000
0000
0001
1000
0001
0000
1000
0000
,
0000
1000
0100
0010
,
0001
0000
1000
0001
1000
0000
0001
0000
,
0000
0010
1000
1001
,
0000
0010
0001
1001
,
0000
0000
0000
1000
0000
0100
0000
0010
0000
0001
0000
0100
,
0000
0010
0000
2000
0000
0000
0000
0000
0000
0000
0000
0000
,
0000
3002
0000
0000
,
0000
0203
0000
0010
,
0000
0301
1000
0010
,
0100
0001
0000
0010
,
0000
1000
0000
0100
,
0000
0001
0010
0100
,
1000
0000
2002
0000
0000
3003
0100
0000
,
0010
1000
0010
0100
,
0001
1000
0002
0000
,
0103
0100
0001
1000
,
0001
0010
0000
0001
,
0100
0010
1000
0010
,
0100
0001
2000
0000
,
3100
0000
1000
0001
1000
0000
0010
0000
,
0100
0001
0000
0001
,
1000
0100
2000
0000
0000
0000
3001
0000
,
0100
0010
0100
0001
,
1000
0010
2000
0000
0000
0000
3100
0000
,
0010
0001
0010
0001
,
1000
0001
0000
1000
0001
0000
0100
0010
,
0000
0100
0010
0000
1000
0000
0001
0100
,
0001
0000
1000
0010
1000
0000
0001
1000
,
0001
1000
0001
0000
0000
0000
1001
0000
,
0100
0001
0000
0001
,
0100
0001
0000
0001
,
0100
0010
0100
1000
,
0100
0010
0000
1001
,
0100
1000
0000
1000
,
0100
1000
0000
1000
,
0100
0010
0100
0001
,
0100
0010
0001
1000
,
1001
0100
0010
1000
,
0001
0000
1000
0001
1000
0000
0010
0000
,
1000
0100
1000
0000
0001
1000
0001
0000
,
0100
0001
0100
0001
0100
0000
0020
0000
,
0000
0000
0000
0130
,
0110
0000
2002
0000
,
0000
3003
0000
0000
,
0000
0000
0000
0000
;
#NOTES:
     dance-single:
     :
     Hard:
     17:
     :
0000
0000
0000
0000
,
0000
0000
0000
0000
,
0000
0000
0000
0000
,
0010
0000
1000
0000
0100
0000
1000
0001
0010
0000
0001
0000
1000
0000
0010
1000
,
0001
0000
0000
0000
0100
0000
0000
0000
0010
0000
0000
0000
1000
0000
0001
0000
1001
0000
0000
0000
0000
0000
0000
0000
1000
0001
1000
0001
0010
0100
0010
0100
,
2000
0000
0000
0000
,
0000
0000
0000
3000
,
0012
0000
0000
0000
,
0000
0000
0000
0003
0000
1010
0000
0000
,
0102
1000
1000
1003
,
2100
0001
0001
3001
,
0012
0000
1000
0000
1000
0000
1003
1100
,
0101
0000
0100
0001
1000
0010
1000
0010
0100
0001
0100
0001
1000
0000
0001
0000
,
1000
0100
1000
0000
0001
0000
0010
0000
0100
1000
0100
0000
1000
0000
0010
0000
,
0100
0010
1000
0100
0010
0001
1000
0001
,
0010
0001
0010
0000
0001
0000
1000
0000
0001
0010
0001
0000
1000
0000
0100
1000
,
0100
1000
0001
0000
0100
0000
0010
1000
0010
1000
0001
0000
0100
0000
0010
0000
,
1000
0000
0001
0000
1000
0000
0010
0000
0100
0000
0001
1000
0001
0000
0100
0000
,
0001
0000
1000
0000
0001
0000
0100
0001
0100
0000
0010
0000
1000
0010
1000
0010
,
0100
0001
0100
0001
1000
0100
1000
0100
0010
0001
0010
0001
1000
0000
0000
0000
,
0001
0000
0100
0010
0100
0000
0001
1000
,
0100
1000
0010
0100
0001
1000
0001
0100
,
0010
1000
0001
0010
0100
1000
0001
0100
,
0010
0100
0001
1000
0100
1000
0001
0100
,
0001
0000
1000
0000
0010
0000
1000
0001
1000
0001
0100
0001
0100
0000
0010
0000
,
1000
0010
0100
0001
0010
0100
0010
0001
,
1000
0000
0001
0000
1000
0000
0100
0000
0001
0000
0100
0000
1000
0000
0100
1000
,
0100
0000
1000
0000
0001
0000
0100
0000
0010
0000
1000
0000
0001
0000
0100
0001
,
0100
0000
0010
0000
1000
0100
1000
0000
0001
0000
0000
0000
1000
0000
0100
0000
,
0010
0100
0010
0001
1000
0010
0100
0001
,
0010
0001
1000
0010
0100
0010
1000
0100
,
0010
0000
0100
0000
1000
0000
0010
0000
0100
0000
0001
1000
0001
0000
0100
0000
,
0010
0000
1000
0100
1000
0000
0100
0000
0010
0000
0001
0000
1001
0000
0000
0000
,
0100
0000
0001
0000
1000
0000
0010
0100
0010
0000
1000
0000
0100
0000
0010
0000
,
0001
0000
0100
0000
0010
0000
1000
0001
1000
0001
1000
0000
0010
0000
0100
0000
,
0010
0100
0010
0100
0010
0100
0010
0000
0000
0000
2100
0000
0000
0000
3001
0000
,
0100
0001
0100
0000
0010
0000
1000
0000
0010
0100
0001
1000
0020
0000
0000
0000
,
0100
0000
0130
0000
0001
0000
0000
0000
0100
0000
0100
0001
2000
0000
0000
0000
,
0001
0000
3001
0000
0100
0000
0000
0010
0100
0000
0001
0000
1000
0000
0000
0010
,
1000
0000
0010
0000
0100
0000
0000
0010
0100
0000
0001
0000
2000
0000
0000
0000
,
3001
0000
0010
0100
0010
0100
2000
0000
,
3001
0020
0001
0031
1000
0001
0200
0000
,
0310
0000
2000
0000
0100
0000
3100
0000
0010
0000
0001
0000
1000
0001
1000
0000
,
0100
1000
0100
0000
0010
0100
0010
0000
0001
0010
0001
0000
1000
0000
0001
0000
,
0100
0020
0000
0130
0001
1000
1001
0100
,
0100
0010
0100
0100
0010
0100
0001
1000
,
1000
0000
0001
0000
1000
0000
1000
0000
0001
0000
1000
0000
0010
1000
0010
1000
,
0002
0000
0000
0000
1003
0010
1000
0010
0100
0001
0100
0000
0010
0000
1000
0010
,
1000
0000
0010
0100
0010
0000
0100
0001
0100
0000
0001
0000
1001
0000
1000
0000
,
0100
0001
0001
0100
1000
0100
0110
0010
,
0001
0010
0010
1000
0010
0001
1001
1000
,
0100
0010
0010
0001
0100
0010
0110
0001
,
0001
0000
0010
0000
0100
0000
0100
0000
1000
0000
0010
0000
0100
0001
1000
0001
,
0100
0010
1000
0010
0100
0001
1000
0001
1000
0100
0010
0001
2000
0000
0000
0000
,
0000
3100
0010
0000
0001
0000
0100
0001
,
0000
1000
0001
0000
0100
0000
0010
0000
,
1000
0000
0010
0000
0100
0000
0010
1000
,
0000
0001
1000
0000
0100
0000
0010
0000
,
0001
0010
0001
0000
1000
0000
0100
0000
,
1000
0010
1000
0000
0001
0000
0100
0000
,
0020
0000
1000
0000
0000
0000
0130
0001
,
0100
0010
1000
0010
1000
0001
1000
0001
,
0100
0000
0010
0000
1000
0001
1000
0000
,
0100
0000
1000
0001
1000
0000
0001
1000
,
0001
0000
0010
0000
0001
1000
0001
0000
,
0010
0000
0001
1000
0001
0000
0010
0000
,
0100
1000
0100
0001
,
0100
0000
1000
0000
0100
0000
0001
0100
,
1000
0100
0010
0000
0110
0000
0000
0000
,
0011
0000
2200
0000
,
3300
0010
1000
0001
,
0010
0001
0100
0010
,
1000
0010
0100
0001
,
1000
0000
0001
0010
0001
0000
1000
0010
,
1000
0001
0010
1000
,
0010
0100
1000
0010
,
1000
0000
0001
0000
1000
0010
0000
1000
,
0001
0000
1000
0100
0000
0010
0100
0000
,
0010
0001
0010
0000
0001
0000
0100
0000
,
0001
0000
1000
0010
0100
0001
1000
0000
,
0100
0010
0001
0100
,
0010
0000
1000
0100
0010
0001
1000
0000
,
0010
0100
0101
1001
,
0000
0100
1100
1001
,
0000
0000
0000
1010
0000
0101
0000
0011
0000
1100
0000
1010
,
0000
0110
0000
2002
0000
0000
0000
0000
0000
0000
0000
0000
,
3003
0220
0000
0330
,
1100
0012
0000
0103
,
0100
0000
1010
0000
0000
0001
0101
0000
,
1000
0010
1000
0100
,
0010
0001
0100
0001
,
1000
0000
0000
0000
0001
0000
0010
0000
0100
0000
1000
0000
0001
1000
0001
1000
,
0010
0100
0010
0100
0001
0000
0000
0000
0200
0000
0320
0000
1030
0000
0000
0000
,
0100
0000
1000
0010
0000
1000
0100
0000
,
0010
0011
1000
0001
,
0100
0000
0010
1000
0000
0001
1000
0000
,
0001
0000
1000
0100
1000
0100
0010
0000
,
0001
0000
1000
0000
0001
0100
0001
0000
,
1000
0000
0010
1000
0020
0000
0100
0000
,
0000
0000
1030
0001
1000
0010
0100
0010
,
1000
0100
1000
0001
0100
0001
1000
0000
,
0010
0100
0010
0000
1000
0000
0100
0000
,
1000
0001
0100
0001
,
0010
0100
0010
0000
0001
0000
0100
0000
,
1000
0100
0010
1000
,
0001
0100
0000
0010
1000
0000
1000
0100
,
0000
0010
0001
0000
0100
0000
0010
1000
,
0010
0100
0001
1000
0001
0100
0010
1000
,
0100
1000
0001
0100
0010
0000
0100
0000
,
0010
0110
0000
0100
,
0010
0100
0100
0001
,
0010
0001
0001
1000
,
0010
1000
1000
0010
,
0100
0110
0000
0010
,
1000
0010
0010
0100
,
0001
0100
1000
0100
,
0010
0000
0100
0010
0100
0000
0001
0000
,
1000
0000
0001
0100
0001
0000
1000
0000
,
0100
0000
0010
0001
0010
0001
0010
0000
,
0001
1000
0001
0000
1000
0010
1000
0010
,
0100
0001
0100
0001
1000
0000
1000
0001
,
0010
0100
1000
0100
0010
0001
1000
0000
,
0010
0100
0010
0100
0020
0000
0000
0000
,
0000
0030
0000
0000
,
0000
0000
0000
0000
;
#NOTES:
     dance-single:
     :
     Challenge:
     18:
     :
0000
0000
0000
0000
,
0000
0000
0000
0000
,
0000
0000
0000
0000
,
0202
0000
0000
0303
2200
0000
0000
3300
,
0010
0000
0000
0000
0010
0000
0000
0000
0100
0000
0000
0000
0100
0000
0000
0000
2002
0000
0000
0000
0000
0000
3003
0000
0100
1000
0001
0100
0010
1000
0100
0010
,
0002
0000
0000
0000
,
0000
0000
0000
0003
,
2000
0000
0000
0000
,
0000
0000
0000
3000
0000
0110
0000
0000
,
2002
0000
0000
0000
,
0000
0000
0000
3003
,
0220
0000
0000
0000
0000
0000
0330
1001
,
0110
0000
1000
0010
0100
0001
1000
0010
1000
0001
0010
0001
1000
0000
0001
0100
,
0001
0000
0100
0000
0001
0000
1000
0100
1000
0000
0100
0000
1000
0000
0010
0000
,
0001
0000
0010
0100
0010
0000
0200
0000
0000
0000
0301
0000
1000
0000
0010
1000
,
0010
0000
0100
0000
0001
0000
0010
0001
0010
0000
0100
0000
1000
0000
0001
1000
,
0001
1000
0100
0010
0001
1000
0001
1000
0010
0100
0001
1000
0010
0000
0010
0000
,
1000
0000
1000
0000
0100
0000
0100
0000
0001
0000
0001
1000
0010
0000
0010
0000
,
0001
0000
0001
0000
0100
0000
0100
0001
1000
0000
1000
0010
0100
0001
0100
0001
,
1000
0010
1000
0001
0010
0001
0010
0100
1000
0001
1000
0001
0010
0000
0000
0000
,
0000
0000
0100
1001
,
0010
0000
0100
0001
1000
0000
0100
0000
0000
0000
1000
0000
1000
0000
0010
0000
,
0100
0000
0001
1000
0001
0000
0011
0000
,
1000
0000
0010
0100
0001
0000
1000
0000
0000
0000
0010
0000
0100
0000
0100
0000
,
0010
0000
0000
0000
0001
0000
1000
0000
0100
1000
0010
0100
0001
0000
0010
0000
,
0100
0000
1000
0010
0001
0000
0010
0001
,
1000
0000
0010
0000
1000
0000
0001
0000
0100
0000
0010
0000
1000
0000
0100
1000
,
0001
0000
0100
0000
0010
0000
0010
0000
0100
0000
0000
0000
1001
0000
0001
0100
,
0001
0100
0010
0000
1000
0100
1000
0100
0010
0000
0001
1000
0020
0000
1000
0000
,
0000
0100
0000
0130
0101
0101
0020
1000
,
0000
0130
0002
1000
0000
0013
0200
1000
,
0000
0310
0002
1000
0000
0103
0120
1000
,
0230
0001
0320
1000
0130
0001
2001
0001
,
0000
0000
3100
0000
0002
0000
1003
0100
0010
0000
0100
0000
2000
0000
0010
0000
,
3002
0000
0010
0000
0103
0000
0010
1000
0010
1000
0001
0000
1000
0000
1001
0000
,
0001
0100
1000
0100
0001
0100
1000
0000
0000
0000
0102
0000
0000
0000
1003
0000
,
0001
1000
0001
0000
0100
0001
0010
0001
0100
0010
1000
0100
2000
0000
0000
0000
,
0000
0000
0000
0000
0000
0000
0000
0000
0000
0000
3001
0100
0020
0000
0000
0000
,
0000
0000
0230
0000
0302
0000
0000
0023
0000
0000
0230
0000
2300
0000
0000
3020
,
0000
0000
0230
0000
0302
0000
0000
0023
0000
0000
0130
0000
2001
0000
0000
0000
,
0000
0000
0000
3010
1000
0001
2001
0000
,
3010
0210
0000
0301
0010
0100
1200
0000
,
0310
0000
0012
0000
0000
0000
0103
0000
0010
0000
1000
0000
0001
0100
0010
0000
,
1000
0100
0010
0000
0001
0010
0100
0000
1000
0010
0100
0000
0001
0000
0010
0000
,
0100
2000
0000
3010
0100
0010
1001
0000
,
1010
0001
0000
0011
1000
0010
0011
0000
,
1010
0000
0001
0000
0000
0000
1010
0000
0001
0000
0010
0000
0100
1000
0100
1000
,
0002
0000
0000
1003
0010
1000
0010
0000
0100
0001
0100
0000
1001
0000
0001
0010
,
0100
1000
0001
0100
1000
0100
0010
1000
0001
1000
0100
0010
0001
0000
1000
0000
,
0001
0101
0100
0010
1001
0100
0110
0100
,
0001
0000
0011
0000
1000
0000
0001
0000
1010
0000
0010
0000
1000
0100
1000
0100
,
0010
0001
0100
0010
1000
0010
1000
0010
0100
0001
1000
0010
0100
0001
0100
0010
,
0100
0001
0100
0010
1000
0010
0100
0010
1000
0010
0100
0010
1000
0001
0100
0010
,
1000
0001
1000
0100
0010
0001
1000
0001
0100
0010
0100
0001
2000
0000
0000
0000
,
0000
3001
0100
0000
0010
0000
1000
0010
,
0000
0100
0001
0000
0010
0000
1000
0000
,
0010
0000
0001
0000
1000
0000
0100
1000
,
0000
0001
0100
0000
0010
0000
1000
0000
,
0001
0100
0001
0000
0010
0000
0100
0000
,
1000
0001
1000
0000
0010
0000
0100
0001
,
1000
0000
0010
0000
1000
0000
0001
0100
,
0010
1000
0001
1000
0001
1000
0100
0010
,
0001
1000
0001
0000
1000
0100
2000
0000
,
0000
0000
3100
1000
0100
0000
1000
0100
,
1000
0000
0001
0000
0001
0100
0002
0000
,
0000
0000
0103
0001
0100
0000
0100
0010
,
1000
1010
1000
1001
,
0001
0000
0011
0000
0010
0000
0010
0100
,
1000
0001
0100
0000
0101
0000
0000
0000
,
1010
0000
2002
0000
,
3003
0100
0001
0010
,
1000
0001
0100
1000
,
0010
0100
0001
1000
,
0001
0000
1000
0001
1000
0000
0001
1000
,
0001
0010
0100
1000
,
0010
1000
0100
0010
,
0001
0000
1000
0010
1000
0001
0010
0001
,
1000
0100
1000
0001
0100
0001
1000
0010
,
1000
0001
0100
0000
0010
0000
1000
0000
,
0001
0000
1000
0100
1000
0100
0010
0001
,
0010
0001
1000
0000
0001
0000
0100
0000
,
0010
0000
1000
0010
1000
0010
0100
0001
,
0100
0001
1000
0000
1001
0000
0101
0000
,
0000
0001
1001
1100
,
0000
0000
0000
0101
0000
0011
0000
1010
0000
1100
0000
0101
,
0000
0011
0000
2020
0000
0000
0000
0000
0000
0000
0000
0000
,
3030
0022
0000
0030
,
1003
2200
0000
0000
,
3300
0000
0000
0000
0102
0000
0000
0000
0000
0000
1000
0000
1003
0000
0000
0010
,
0000
0010
0001
0000
0000
0000
0100
0000
,
0000
1000
0000
0010
,
1000
0000
0000
0000
0001
0000
0100
0000
0010
0000
1000
0000
0001
0010
0100
0010
,
0001
0000
1000
0000
0010
0000
1000
0000
0002
0000
0000
0000
0000
0000
0000
0000
0103
0010
1000
0001
0010
0001
0100
0010
1000
0000
0000
0000
0000
0000
0000
0000
,
1010
0000
1000
0010
0000
0001
0010
0000
,
0100
0101
1000
0100
,
0110
0000
0001
0100
0000
1000
0100
0000
,
0010
0000
0100
0001
1000
0010
0100
0000
,
0001
0000
0010
0000
0001
1000
0100
0000
,
1000
0000
0010
1000
0001
0000
0100
0000
,
0010
0000
0100
0001
0100
0010
1000
0100
,
0010
0001
1000
0001
0100
0010
1000
0000
,
0001
1000
0010
0000
1000
0000
0001
0010
,
0100
1000
0100
0010
0001
0000
1000
0000
,
0001
1000
0100
0000
1000
0000
0001
0100
,
0010
1000
0010
0100
0001
0000
1000
0100
,
0010
0001
1000
0010
0100
0010
0001
0010
,
1000
0001
0010
0100
0010
0001
0100
1000
,
0100
0001
0100
0010
1000
0001
1000
0100
,
0001
0100
1000
0001
0010
0100
0110
0000
,
0100
0101
0000
0011
,
0100
1100
0000
1010
,
0010
0101
0001
0011
,
0100
1100
1000
1001
,
0100
0110
0000
0110
,
0001
1001
0000
0101
,
0010
1100
0010
0110
,
0001
0000
1000
0100
0010
0000
0011
0000
,
0001
1001
0001
1010
,
1000
0000
0001
0010
0100
1000
0001
0000
,
0010
1000
0010
0000
0100
0001
1000
0001
,
1000
0000
0010
1000
0010
0000
0100
0001
,
1000
0010
1000
0100
0010
0001
1001
0000
,
0001
1000
0001
1000
0001
1000
0020
0000
0000
0000
0000
0000
,
0000
0030
0000
0000
,
0000
0000
0000
0000
;
#NOTES:
     dance-double:
     :
     Easy:
     10:
     :
00000000
00000000
00000000
00000000
,
00000000
00000000
00000000
00000000
,
00000000
00000000
00000000
00000000
,
10000000
01000000
00100000
00010000
,
00001000
00000100
00000010
00000001
,
00002002
00000000
00000000
00000000
,
00000000
00000000
00000000
00003003
,
00000200
00000000
00000000
00000000
,
00000000
00000000
00000000
00000300
00000000
00000010
00000000
00000000
,
00002000
00000000
00000000
00000000
,
00000000
00000000
00000000
00003000
,
00020000
00000000
00000000
00000000
00000000
00030000
00000000
00001000
,
00010000
00002000
00000000
00000000
00000000
00000000
00013000
00000000
,
00010000
00000000
00001000
00100000
00010000
00000000
10000000
00000000
,
10000000
01000000
00010000
00001000
,
00001000
00000000
00010000
00000100
00001000
00000000
00000001
00000000
,
00001000
00000010
00000100
00001000
,
00001000
00000000
00000010
00010000
00001000
00000000
00010000
00000000
,
00010000
00000000
00001000
01000000
00010000
00000000
01000000
00000000
,
00100000
00000000
10000000
01000000
10000000
01000000
10000000
00000000
,
00000000
00000000
00000000
01000000
,
00010000
01000000
00001000
00100000
,
00010000
00100000
00001000
00010000
,
00000010
00001000
00000100
00001000
,
00000010
00000100
00000001
00000100
,
00001000
00000000
00010000
00001000
00010000
00000000
01000000
00000000
,
00100000
01000000
10000000
00010000
,
01000000
00000000
00010000
00000000
00100000
00000000
01000000
10000000
,
00000000
01000000
00010000
00000000
00011000
00000000
00002000
00000000
,
00010000
00010000
00013000
00000200
,
00001300
00000020
00000130
00000002
,
00000013
00000200
00001300
00000001
,
00000100
00001000
00010000
02000000
,
03010000
02000000
13000000
00010000
,
01000000
00000000
00100000
00000000
10000000
00000000
01000000
01000000
,
00000000
00000000
00000000
01100000
00000000
20020000
00000000
00000000
,
00000000
30030000
00000000
01000000
,
00010000
00100000
10000000
01000000
,
00010000
00001000
00010000
00001000
,
00000010
00000001
00000100
00002000
,
00010000
00010000
00013000
00001000
,
00000100
00000001
00000010
00000001
,
00000100
00001000
00010000
00100000
,
10000000
01000000
00010000
00100000
,
01000000
10000000
00010000
10010000
,
01000000
01000000
00100000
01100000
,
10000000
10000000
00010000
10010000
,
01000000
00100000
00010000
00001000
,
00001000
00010000
00010000
00011000
,
00000100
00000100
00001000
00001001
,
00000010
00000010
00000100
00000110
,
00000001
00000001
00001000
00001001
,
00000010
00000010
00000100
00001000
,
00010000
00100000
01000000
20000000
,
00000000
30000000
01000000
00000000
00000000
00000000
00100000
00000000
,
00000000
00000000
00000000
00100000
,
00000000
10000000
00000000
00010000
,
00000000
10000000
01000000
10000000
,
00000000
01000000
00000000
00100000
,
00000000
00010000
00000000
01000000
,
00000000
00001000
00000000
00010000
,
00000000
00001000
00010000
00001000
,
00000000
00010000
00000000
00000100
,
00000000
00000010
00000000
00000100
,
00000000
00010000
00000000
00000010
,
00000000
00000100
00000000
00000010
,
00000000
00001001
00000000
00001001
,
00000000
00001001
00000000
00001001
,
00000000
00000010
00000100
00000000
,
00001000
00000000
00020000
00000000
,
00000000
00031000
00000000
00100000
,
00000000
01000000
00000000
00100000
,
00000000
00001000
00000000
01000000
,
00000000
00100000
00000000
01000000
,
00000000
00010000
00000000
00100000
,
00000000
01000000
00000000
10000000
,
00000000
00010000
01000000
00010000
,
00000000
10000000
00100000
10000000
,
00000000
00010000
00000000
00100000
,
00000000
00001000
00010000
00001000
,
00000000
00010000
00000000
00000010
,
00000000
00001000
00000010
00001000
,
00000000
00000100
00000000
00001001
,
00000000
00000100
00000000
00001001
,
00000000
00000000
00000000
00000020
00000000
00000000
00000000
00000030
00000000
00000200
00000000
00000000
,
00000000
00000300
00000000
00000002
00000000
00000000
00000000
00000000
00000000
00000000
00000000
00000000
,
00000003
00002000
00000000
00000000
,
00003000
00000100
00000000
00000010
,
00000000
00001000
00000000
00010000
,
00000000
00100000
00010000
00100000
,
00010000
10000000
01000000
10000000
,
01000000
00010000
00001000
00010000
,
00001000
00000000
00020000
00000000
00000000
00030000
00001000
00000000
,
00000000
00001000
00000000
00010000
,
00001000
00010000
00000000
00000100
,
00000000
00000100
00000000
00001000
,
00000001
00001000
00000000
00000010
,
00000000
00000100
00000000
00000001
,
00000000
00000010
00000000
00000100
,
00000000
00001000
00000001
00001000
,
00000001
00001000
00000000
00000010
,
00000000
00000010
00000000
00000100
,
00001000
00010000
00000000
00001000
,
00000000
00001000
00000000
00010000
,
00100000
01000000
00000000
00010000
,
00000000
00010000
00000000
00100000
,
01000000
10000000
00000000
10000000
,
00100000
10000000
00100000
01000000
,
00010000
01000000
00010000
00100000
,
00000000
01100000
00000000
00100000
,
00000000
01100000
00000000
00100000
,
00000000
00010000
00000000
00100000
,
00001000
00010000
00000000
00001000
,
00000000
00011000
00000000
00010000
,
00000000
00011000
00000000
00010000
,
00000000
00000100
00000000
00001000
,
00000000
00000010
00000000
00000100
,
00000000
00001001
00000000
00000100
,
00000000
00001001
00000000
00000010
,
00000100
00000010
00000000
00000001
,
00001000
00000001
00000000
00000200
,
00000000
00000000
00000000
00001300
,
00010000
00000000
00022000
00000000
,
00000000
00033000
00000000
00000000
,
00000000
00000000
00000000
00000000
;
#NOTES:
     dance-double:
     :
     Medium:
     14:
     :
00000000
00000000
00000000
00000000
,
00000000
00000000
00000000
00000000
,
00000000
00000000
00000000
00000000
,
00000010
00001000
00010000
01000000
,
10000000
00000000
00010000
00000000
00100000
00000000
00001000
00000000
00010000
00000000
00000000
00000000
00001000
00010000
00001000
00010000
,
00000020
00000000
00000000
00000000
,
00000000
00000000
00000000
00000030
,
00000002
00000000
00000000
00000000
,
00000000
00000000
00000000
00000003
00000000
00000110
00000000
00000000
,
00002000
00000000
00000000
00000000
,
00000000
00000000
00000000
00003000
,
00022000
00000000
00000000
00000000
00000000
00000000
00033000
00100000
,
01000000
10000000
01000000
00010000
00002000
00000000
00013000
00000010
,
00010000
00001000
00010000
00000100
00010000
00001000
00010000
00000010
,
00001000
00000100
00000010
00000001
00000100
00000000
00000010
00001000
,
00000010
00010000
00000010
00001000
00000010
00000100
00000010
00001000
,
00000010
00010000
00001000
01000000
00010000
00000000
00100000
00010000
,
00100000
00001000
00100000
00010000
00100000
01000000
00100000
00010000
,
01000000
00001000
01000000
00010000
01000000
00100000
01000000
10000000
,
01000000
00000000
00010000
00000000
10000000
00000000
00010000
00000000
10000000
00010000
10000000
00000000
01000000
00000000
00000000
00000000
,
00010000
00000000
00001000
00000000
00000100
00000000
00000001
00000100
,
00001000
00000000
00010000
00000000
00001000
00000000
00010000
00001000
,
00000100
00000000
00000001
00001000
00000001
00000000
00000001
00000010
,
00001000
00000000
00010000
00000000
00001000
00000000
00010000
00001000
,
00000010
00000000
00001000
00000000
00010000
00000000
00010000
01000000
,
10000000
00000000
00010000
00000000
10000000
00000000
10000000
00100000
,
00010000
00000000
00001000
00000000
00010000
00000000
00001000
00010000
,
01000000
00000000
10000000
01000000
00010000
00000000
00001000
00010000
,
00010000
00001000
00000100
00000100
00000010
00000000
00002000
00000000
,
00000010
00000000
00003001
00000010
00000001
00000000
00000200
00000000
,
00000001
00000000
00000310
00001000
00000001
00000000
00000020
00000000
,
00001000
00020030
00001000
00230000
,
00001000
00000000
01300000
00100000
01000000
00000000
01100000
00000000
,
10000000
01000000
00010000
00011000
,
00001000
00000000
00000100
00000000
00000010
00000000
00001000
00000001
,
00000020
00000000
00000000
00000130
00000000
00000022
00000000
00000000
,
00000000
00000000
00000033
00000100
,
00000010
00001000
00010000
00000000
00001000
00000000
00100000
00000000
,
00010000
00000000
00011000
00000000
00001000
00010000
01000000
00000000
,
00100000
01000000
10000000
00000000
00010000
00000000
00100000
10000000
,
00000000
00100000
00010000
00000000
00001000
01000000
00100000
00000000
,
10000000
00100000
00010000
00000000
01000000
00000000
00100000
00000000
,
00010000
00100000
00001000
00000000
00010000
00000000
00000100
00000010
,
00000100
00001000
00000100
00000010
00000001
00001000
00000001
00000000
,
00000010
00000001
00001000
00000000
00001001
00000000
00000110
00000100
,
00000010
00001000
00000000
00000100
00010000
00000000
00011000
00010000
,
00001000
00100000
00000000
00010000
01000000
00000000
00100000
01000000
,
00100000
10000000
00010000
10000000
01000000
00010000
00001000
00010000
,
00001000
00100000
00010000
01000000
00100000
00000000
10000000
01000000
,
01000000
00010000
00000000
00001000
00010000
00001000
00000100
00000010
,
00000010
00000100
00000000
00000001
00000100
00000100
00000010
00000100
,
00000100
00001000
00000000
00001000
00010000
01000000
00100000
01000000
,
01000000
10000000
00000000
00100000
01000000
01000000
00010000
00100000
,
00001000
00010000
00000100
00001000
00000010
00000100
00000002
00000000
,
00000000
00000013
00000001
00000100
,
00000001
00000000
00000001
00000010
,
00000100
00000000
00000001
00000100
,
00001000
00000100
00000010
00000001
,
00000100
00000010
00001000
00000100
,
00010000
00001000
01000000
00100000
,
00200000
00000000
00000000
00000000
00300000
00000000
01000000
00100000
,
01000000
00010000
00100000
01000000
,
10000000
00000000
00010000
00000000
10000000
00100000
10000000
00000000
,
00000000
01000000
00020000
00000000
,
00031000
00000000
00100000
00000000
00001000
00100000
00001000
00000000
,
00000000
00010000
00002000
00000000
,
00003100
00000001
00000100
00001000
,
00000100
00000001
00000100
00001000
,
00010000
00100000
00100000
00000000
,
10100000
00000000
20020000
00000000
,
30030000
10000000
01000000
00100000
,
00020000
00000000
00130000
01000000
,
00010000
00001000
00010000
00000100
,
00001000
00000000
00000001
00001000
00000001
00000000
00001000
00000000
,
00000001
00000010
00000100
00001000
,
00000100
00010000
00001000
00000100
,
00000010
00000000
00000100
00000000
00000000
00000100
00000000
00000000
,
00001000
00000000
00000000
00010000
00000000
00000000
00001000
00000000
,
00010000
00001000
00100000
00010000
,
01000000
00000000
00010000
10000000
00010000
00000000
10000000
00000000
,
00000000
10000000
01000000
00100000
,
00010000
00000000
01000000
00001000
01000000
00000000
00001000
00000000
,
00000000
00010000
00001000
00011000
,
00000000
00000100
00000010
00000110
,
00000000
00000000
00000000
00000001
00000000
00000100
00000000
00000010
00000000
00001000
00000000
00000100
,
00000000
00010000
00000000
00002000
00000000
00000000
00000000
00000000
00000000
00000000
00000000
00000000
,
00000000
00023000
00000000
00000000
,
00000000
02030000
00000000
10000000
,
00000000
03010000
01000000
10000000
,
00100000
00010000
00000000
00001000
,
00000000
00000100
00000000
00000001
,
00000000
00000010
00000100
00001000
,
00010000
00000000
00022000
00000000
00000000
00033000
00010000
00000000
,
00100000
10000000
00100000
01000000
,
00010000
10000000
01000000
00100000
,
00001000
00010000
00000100
00001000
,
00000001
00000100
00000010
00001000
,
00000010
00001000
00000010
00000001
,
00000010
00000100
00000001
00001000
,
00000100
00000000
00010000
00001000
00010000
00000000
00001000
00000000
,
00010000
00001000
00000000
00100000
,
00010000
00100000
00020000
00000000
00000000
00000000
10030000
00000000
,
01000000
00010000
00000000
00001000
,
00010000
00001000
00020000
00000000
00000000
00000000
00031000
00000000
,
00000100
00000001
00000000
00000100
,
00000000
00000010
00000000
00000000
00010000
00000000
00000000
00001000
,
00000000
01000000
00100000
10000000
,
00010000
01000000
00010000
00000000
10000000
01000000
10000000
00000000
,
00010000
10000000
00010000
10000000
00010000
00000000
10000000
00000000
,
01000000
00010000
00000000
00010000
,
01000000
10000000
00000000
10000000
,
01000000
00010000
01000000
10000000
,
01000000
00010000
00000000
00001000
,
00000100
00000001
00000000
00000001
,
00000100
00001000
00000000
00001000
,
00000100
00000001
00000100
00001000
,
00000100
00000001
00000000
00000100
,
00001000
00010000
00000000
00001000
,
00010000
01000000
00000000
10000000
,
00010000
01000000
00010000
00000000
10000000
01000000
10000000
00000000
,
01000000
00100000
01000000
00100000
01000000
00100000
02000000
00000000
,
00000000
00000000
00000000
03010000
,
00001000
00000000
00022000
00000000
,
00000000
00033000
00000000
00000000
,
00000000
00000000
00000000
00000000
;
#NOTES:
     dance-double:
     :
     Hard:
     17:
     :
00000000
00000000
00000000
00000000
,
00000000
00000000
00000000
00000000
,
00000000
00000000
00000000
00000000
,
00100000
00000000
01000000
00000000
00010000
00000000
00001000
00010000
00001000
00000000
00000100
00000000
00000010
00000000
00001000
00000001
,
00001000
00000000
00000000
00000000
00000001
00000000
00000000
00000000
00000010
00000000
00000000
00000000
00000100
00000000
00000010
00000000
00000100
00000000
00000000
00000000
00000000
00000000
00000000
00000000
00010000
00001000
00010000
00001000
00010000
00001000
00010000
00001000
,
00020000
00000000
00000000
00000000
,
00000000
00000000
00000000
00030000
,
02100000
00000000
00000000
00000000
,
00000000
00000000
00000000
03000000
00000000
10010000
00000000
00000000
,
01200000
10000000
10000000
10300000
,
02010000
00001000
00001000
03001000
,
00102000
00000000
00010000
00000000
00010000
00000000
00013000
00011000
,
00001100
00000000
00001000
00000100
00001000
00000100
00000010
00000001
00000010
00000001
00001000
00000010
00000100
00000000
00000001
00000000
,
00000100
00000000
00000010
00000000
00001000
00000000
00000100
00000000
00001000
00000001
00001000
00000000
00000010
00000000
00001000
00000000
,
00000100
00010000
00001000
00000010
00001000
00010000
00001000
00100000
,
00010000
00000000
01000000
00000000
00010000
00000000
10000000
00000000
00010000
01000000
00010000
00000000
10000000
00000000
01000000
00100000
,
01000000
00000000
00100000
00000000
00010000
00000000
10000000
00010000
10000000
00000000
00000000
00000000
01000000
00000000
10000000
00000000
,
01000000
00000000
00100000
00000000
00010000
00000000
01000000
00000000
00010000
10000000
00010000
00000000
00100000
00000000
00010000
00000000
,
01000000
00000000
00001000
00000000
00100000
00000000
00010000
00000000
00100000
00000000
00001000
00000000
00010000
00000000
00000100
00001000
,
00000100
00000000
00000010
00000000
00000001
00000000
00000100
00000001
00000100
00000001
00001000
00000000
00000001
00000000
00000000
00000000
,
00000010
00000000
00001000
00010000
00100000
00000000
10000000
00000000
,
11000000
00000000
00100000
01000000
10000000
00100000
01000000
00100000
,
00010000
00001000
00010000
00100000
01000000
00000000
00010000
00000000
,
00110000
00000000
10000000
00100000
00010000
00001000
00010000
00000100
,
00000010
00000000
00000100
00000000
00001000
00000000
00000001
00000000
00001000
00000100
00001000
00000000
00000001
00000000
00000000
00000000
,
00000101
00000000
00000001
00000010
00000100
00001000
00000001
00000100
,
00000010
00000000
00001000
00000000
00000001
00000000
00000100
00000000
00000001
00000000
00000010
00000000
00000100
00000000
00001000
00000100
,
00001000
00000000
00000100
00000000
00010000
00000000
00001000
00000000
01000000
00000000
00001000
00000000
00001000
00000000
00100000
00001000
,
00100000
00000000
00010000
00000000
01000000
00010000
01000000
00000000
00100000
00000000
00000000
00000000
10000000
00000000
01000000
00000000
,
10000000
01000000
00100000
00010000
00100000
00010000
00001000
00000100
,
00001000
00000100
00000010
00000001
00000010
00000001
00000100
00000001
,
00000100
00000000
00001000
00000000
00000100
00000000
00001000
00000000
00000100
00000000
00000010
00001000
00000010
00000000
00001000
00000000
,
00000100
00010000
00001000
01000000
00010000
10000000
00100000
00000000
,
01000000
00000000
00100000
00000000
10000000
00000000
00010000
01000000
00010000
00000000
10000000
00000000
00100000
00000000
10000000
00000000
,
00010000
10000000
01000000
00000000
00110000
00000000
00001000
00001000
,
00010000
00001000
00010000
00001000
00010000
00000000
00011000
00000000
00000000
00000000
00010010
00000000
00000000
00000000
00001000
00000000
,
00000010
00000100
00000010
00000000
00001000
00000000
00000001
00000000
00001000
00000000
00000001
00000000
00000020
00000000
00000000
00000000
,
00001030
00000000
00001000
00000000
00010000
00000000
00000000
00000000
00001000
00000000
00010000
00001000
00020000
00000000
00000000
00000000
,
00001000
00000000
01030000
00000000
10000000
00010000
10000000
00000000
,
10000000
00100000
00010000
00000000
00001000
00001000
00020000
00000000
,
00031000
00000000
00000100
00000010
00000100
00001000
00020000
00000000
,
00030100
00000010
00000000
00000001
00000010
00000001
00002000
00000000
,
00003001
00000000
00000100
00000000
00000000
00000000
00001000
00000000
00000100
00000000
00000010
00000000
00001000
00000100
00000000
00000000
,
00010000
00001000
00000000
00000000
00100000
00010000
00000000
00000000
01000000
00100000
00000000
00000000
10000000
00000000
01000000
00000000
,
00100000
00020000
00000000
01000000
01030000
00000000
00100000
10000000
,
10000000
00010000
01000000
01000000
00100000
10000000
01000000
00010000
,
00010000
00000000
00001000
00000000
00010000
00000000
00010000
00000000
00001000
00000000
00000100
00000000
00000010
00001000
00000010
00001000
,
00000020
00000000
00000000
00000000
00000130
00000000
00000001
00000000
00001000
00000000
00000000
00000000
00000100
00000000
00001000
00000100
,
00001000
00000000
00000001
00001000
00000001
00000000
00000100
00000001
00000100
00000000
00000000
00000000
00000001
00000000
00001000
00000000
,
00001000
00000001
00000100
00000100
00000010
00001000
00010000
00100000
,
00100000
00010000
01000000
01000000
00100000
10000000
00010000
01000000
,
01000000
00100000
10000000
10000000
01000000
00100000
00010000
00100000
,
00100000
00000000
00001000
00000000
00100000
00000000
00100000
00000000
00001000
00000000
00001000
00000000
00010000
00001000
00010000
00001000
,
00010000
00000100
00010000
00000100
00001000
00000010
00001000
00000010
00000100
00000001
00000100
00000001
00000020
00000000
00000000
00000000
,
00000000
00000130
00000001
00000000
00001000
00000000
00000001
00000000
,
00000010
00001000
00000010
00000001
,
00001000
00000100
00000010
00000100
,
00010000
00001000
00100000
00010000
,
00100000
00001000
00100000
00000000
00010000
00000000
01000000
00000000
,
00100000
10000000
00100000
00000000
01000000
00000000
00010000
00000000
,
00100000
00000000
00100000
00000000
00000000
00000000
00010000
00100000
,
01000000
00000000
00100000
01000000
10000000
00000000
01000000
10000000
,
01000000
10000000
00010000
00000000
01000000
00010000
10000000
00000000
,
00000000
00000000
10000000
00100000
10000000
00000000
00010000
00000000
,
00100000
00000000
00001000
00000000
00010000
00000100
00001000
00000000
,
00000000
00000000
00001000
00000100
00001000
00000000
00000010
00000000
,
00000100
00000110
00001000
00001001
,
00000010
00000000
00000001
00000000
00000100
00000000
00001000
00010000
,
00001000
00100000
00010000
00000000
01000000
00000000
00000000
00000000
,
01010000
00000000
20200000
00000000
,
30300000
10000000
01000000
00100000
,
00010000
00010000
01000000
00100000
,
10000000
00010000
01000000
00001000
,
00100000
00000000
00001000
00010000
00001000
00000000
00010000
00001000
,
00010000
00001000
00000100
00001000
,
00000100
00000010
00001000
00000010
,
00000001
00000000
00000010
00000000
00001000
00000100
00000000
00000010
,
00000001
00000000
00000100
00000010
00000000
00001000
00000100
00000000
,
00010000
00001000
00100000
00010000
,
10000000
00000000
00010000
00100000
00010000
00100000
00010000
00000000
,
10000000
00010000
01000000
00100000
,
10000000
00000000
00010000
01000000
00010000
01000000
00010000
00000000
,
00100000
01000000
00010000
00011000
,
00000000
00001000
00000100
00000110
,
00000000
00000000
00000000
00000101
00000000
00001010
00000000
00000101
00000000
00001010
00000000
00010100
,
00000000
00001010
00000000
00020200
00000000
00000000
00000000
00000000
00000000
00000000
00000000
00000000
,
00030300
00202000
00000000
00303000
,
00010000
02020000
00000000
00000000
,
03030000
00000000
20100000
00000000
00000000
01000000
31000000
00000000
,
10000000
00100000
01000000
00010000
,
00100000
00001000
00010000
00000100
,
00001000
00000000
00000000
00000000
00000010
00000000
00001000
00000000
00000001
00000000
00000100
00000000
00000010
00000100
00000010
00000100
,
00000001
00001000
00000001
00001000
00000010
00000000
00000000
00000000
00020000
00000000
00032000
00000000
00103000
00000000
00000000
00000000
,
00010000
10000000
01000000
00010000
,
01000000
00100000
01000000
10000000
,
00010000
00000000
00100000
00000000
00010000
00100000
00010000
00000000
,
10000000
00000000
00010000
01000000
00010000
01000000
00010000
00000000
,
00100000
00000000
00001000
00000000
00010000
00001000
00010000
00000000
,
00000100
00000000
00001000
00000100
00002000
00000000
00000001
00000000
,
00000000
00000000
00003010
00000100
00000001
00000000
00000001
00000100
,
00000001
00000100
00000010
00001000
00000010
00001000
00000100
00000000
,
00010000
00001000
00010000
00000000
00000000
00000000
00010000
00000000
,
00100000
10000000
00010000
01000000
,
00100000
01000000
00100000
00000000
00000000
00000000
00100000
00000000
,
10000000
01000000
10000000
00010000
,
10000000
00100000
00000000
01000000
00010000
00000000
00100000
00001000
,
00000000
00010000
00000100
00000000
00001000
00000000
00000010
00001000
,
00000010
00001000
00000001
00000100
00000001
00000100
00000001
00001000
,
00000001
00001000
00000100
00001000
00000100
00010000
00001000
00000000
,
00010000
00001000
00010000
00100000
,
01000000
00100000
10000000
01000000
,
00010000
00001000
00010000
00000010
,
00000001
00000010
00000100
00001000
,
00010000
00001000
00010000
00000100
,
00000010
00000100
00000001
00001000
,
00000010
00000001
00000100
00001000
,
00010000
00001000
00010000
00001000
00010000
00000000
01000000
00000000
,
00100000
00000000
01000000
00100000
01000000
00000000
00100000
00000000
,
00010000
00000000
10000000
00010000
10000000
00010000
10000000
00000000
,
00010000
00100000
00010000
00100000
00001000
00100000
00001000
00100000
,
00001000
00010000
00001000
00000000
00010000
00000000
00001000
00010000
,
00000010
00010000
00001000
00010000
00000010
00010000
00001000
00000000
,
00010000
00000100
00001000
00000010
00000200
00000000
00000000
00000000
,
00000000
00000300
00000000
00000000
,
00000000
00000000
00000000
00000000
;
#NOTES:
     dance-double:
     :
     Challenge:
     18:
     :
00000000
00000000
00000000
00000000
,
00000000
00000000
00000000
00000000
,
00000000
00000000
00000000
00000000
,
00002020
00000000
00000000
00000030
00020000
00000000
00000000
00033000
,
01000000
00000000
00000000
00000000
00100000
00000000
00000000
00000000
10000000
00000000
00000000
00000000
00010000
00000000
00000000
00000000
20020000
00000000
00000000
00000000
00000000
00000000
30030000
00000000
01000000
10000000
01000000
10000000
00010000
00100000
00010000
00100000
,
00020000
00000000
00000000
00000000
,
00000000
00000000
00000000
00000000
,
00002000
00000000
00000000
00000000
,
00000000
00000000
00000000
00033000
00000000
00011000
00000000
00000000
,
00000220
00000000
00000000
00000000
,
00000000
00000000
00000000
00000330
,
00002002
00000000
00000000
00000000
00000000
00000000
00003003
00000010
,
00011000
00000000
00100000
00001000
00010000
00001000
00100000
00001000
00010000
00001000
00100000
00001000
00010000
00000000
00001000
00000000
,
01000000
00000000
00100000
00000000
10000000
00000000
00010000
10000000
00010000
00000000
01000000
00000000
00100000
00000000
10000000
00000000
,
01000000
00100000
00010000
00002000
00000000
00013000
00100000
00001000
,
00100000
00000000
00010000
00000000
01000000
00000000
00010000
10000000
00010000
00000000
00100000
00000000
01000000
00000000
00010000
00001000
,
00010000
00001000
00000010
00000001
00000100
00000000
00001000
00010000
,
00000100
00000000
00000010
00000000
00000001
00000000
00001000
00000001
00001000
00000000
00000100
00000000
00000010
00000000
00000001
00000000
,
00000100
00000000
00000010
00000000
00001000
00000000
00020000
00000000
00000000
00000000
00031000
00000000
00000010
00000000
00000010
00001000
,
00000100
00000000
00000100
00010000
00001000
00000000
00001000
00100000
00010000
00100000
00010000
00100000
00010000
00000000
00000000
00000000
,
00000000
00000000
01000000
10010000
,
01000000
00000000
10000000
01000000
10000000
00000000
00100000
00000000
00000000
00000000
10000000
00000000
01000000
00000000
00000000
00000000
,
00010000
00000000
01000000
00100000
00010000
00000000
00101000
00000000
,
00010000
00000000
00000100
00001000
00000100
00000000
00000010
00000000
00000000
00000000
00000001
00000000
00000010
00000000
00000000
00000000
,
00000001
00000000
00000010
00000100
00000010
00001000
00010000
00000000
,
00011000
00000000
00000010
00000100
00001000
00000000
00000100
00001000
,
00010000
00000000
00001000
00000000
00100000
00000000
00010000
00000000
01000000
00000000
00000000
00000000
00100000
00000000
10000000
00100000
,
10000000
00000000
00010000
00000000
10000000
00000000
00100000
00000000
01000000
00000000
00000000
00000000
00100000
00000000
10000000
01000000
,
10000000
01000000
00100000
00000000
00001000
00010000
00001000
00010000
00001000
00000000
00010000
00000000
00002000
00000000
00000100
00000000
,
00000000
00010000
00000000
00003100
00000001
00001000
00000200
00000001
,
00000000
00001300
00000020
00000001
00000000
00010030
00002000
00000010
,
00000000
00013000
00200000
01000000
00000000
10300000
01000000
00010000
,
00001000
00010000
01000000
10000000
00010000
00000000
10020000
10000000
,
00000000
00000000
00130000
00000000
01000000
00000000
00010000
00001000
00010000
00000000
00001000
00000000
00000010
00000000
00000001
00000000
,
00000000
00000101
00000100
00000010
00001000
00000100
00010000
00010000
,
00001000
01000000
00010000
01000000
00001000
01000000
00010000
00000000
00000000
00000000
10010000
00000000
00000000
00000000
00100000
00000000
,
01000000
00000000
00000000
00000000
10000000
01000000
10000000
01000000
00100000
00001000
00010000
00001000
00200000
00000000
00000000
00000000
,
00000000
00000000
00000000
00000000
00000000
00000000
00000000
00000000
00000000
00000000
00301000
00010000
00002000
00000000
00000000
00000000
,
00000000
00000000
00003200
00000000
00000302
00000000
00000000
00000023
00000000
00000000
00002030
00000000
00023000
00000000
00000000
02030000
,
00000000
00000000
23000000
00000000
30020000
00000000
00000000
02030000
00000000
00000000
03200000
00000000
20300000
00000000
00000000
00000000
,
00000000
00000000
00000000
32000000
03020000
00032000
00003200
00000000
,
00002300
00023000
00000000
00230000
00320000
00032000
00003020
00000000
,
00000032
00000000
00002003
00000000
00000000
00000000
00003100
00000000
00000010
00000000
00000001
00000000
00000100
00000010
00000100
00000000
,
00001000
00010000
00001000
00000000
00010000
00001000
00010000
00000000
01000000
00100000
01000000
00000000
00100000
00000000
01000000
00000000
,
00100000
00020000
00000000
10030000
01000000
00000000
11000000
01000000
,
00100000
00010000
00000000
00100000
00101000
00010000
00011000
00001000
,
00010000
00000000
00000100
00000000
00000000
00000000
00001000
00000000
00001010
00000000
00000100
00000000
00000010
00000100
00000010
00000100
,
00000020
00000000
00000000
00000130
00001000
00000000
00010000
00000000
00001000
00000000
01000000
00000000
00010000
00000000
00100000
00001000
,
00100000
00001000
00010000
00001000
00010000
00001000
00100000
00010000
01000000
00000000
00100000
00000000
01000000
00000000
10000000
00000000
,
10000000
01000000
00010000
00010000
00100000
00001000
00011000
00000010
,
00000010
00000000
00000100
00000000
00000001
00000000
00000001
00000000
00001000
00000000
00001000
00000000
00000001
00000100
00000001
00000100
,
00000010
00000100
00000001
00000100
00000001
00000100
00000010
00001000
00000100
00010000
00000100
00010000
00001000
00100000
00010000
00100000
,
00010000
00100000
00001000
00100000
00010000
00100000
00010000
00100000
00001000
00100000
00001000
00100000
00010000
00100000
00010000
00100000
,
01000000
10000000
01000000
10000000
00100000
01000000
00100000
01000000
00010000
00100000
00010000
00100000
00002000
00000000
00000000
00000000
,
00000000
00003100
00000010
00000000
00000100
00000000
00000001
00000100
,
00000000
00001000
00000100
00000000
00000001
00000000
00001000
00000000
,
00000100
00000000
00000010
00000000
00000001
00000000
00001000
00000001
,
00000000
00001000
00000010
00000000
00000100
00000000
00001000
00000000
,
00010000
00001000
00010000
00000000
00001000
00000000
00100000
00000000
,
00010000
10000000
00010000
00000000
00100000
00000000
00010000
10000000
,
00010000
00000000
01000000
00000000
00100000
00000000
10000000
00010000
,
10000000
00010000
00100000
00000000
01000000
00000000
00100000
00010000
,
00100000
00001000
00100000
00000000
00001000
00010000
00002000
00000000
,
00000000
00000000
00013000
00000100
00001000
00000000
00000010
00000000
,
00000100
00000000
00000001
00000000
00001000
00000001
00002000
00000000
,
00000000
00000000
00003010
00000100
00000001
00000000
00001000
00000000
,
00000100
00000000
00000110
00000000
00000001
00000010
00000000
00000100
,
00001000
00000000
00010000
00100000
00000000
01000000
10000000
00000000
,
00010000
10000000
10010000
00000000
,
01100000
00000000
00022000
00000000
,
00033000
00000100
00000010
00000100
,
00000001
00000010
00000100
00000010
,
00000001
00000100
00001000
00010000
,
00000010
00001000
00010000
00100000
,
10000000
00100000
00010000
10000000
,
01000000
00100000
00001000
00010000
,
00001000
00000000
00100000
00000000
00010000
00100000
00000000
01000000
,
10000000
00010000
10000000
00000000
00010000
01000000
00000000
00001000
,
01000000
00001000
00010000
00000000
00001000
00000000
00000100
00000000
,
00000010
00000000
00000100
00000010
00000100
00000010
00000100
00000010
,
00000100
00001000
00010000
01000000
,
00100000
00000000
01000000
00100000
01000000
00100000
01000000
00100000
,
01000000
10000000
01000000
11000000
,
00000000
00010000
01000000
01010000
,
00000000
00000000
00000000
01001000
00000000
00100000
00000000
00001000
00000000
00010010
00000000
00001000
,
00000000
00100000
00000000
02200000
00000000
00000000
00000000
00000000
00000000
00000000
00000000
00000000
,
03300000
10020000
00000000
00000000
,
00130000
00022000
00000000
00000000
,
00033000
00000000
00000000
00000000
00002100
00000000
00000000
00000000
00000000
00000000
00000001
00000000
00003001
00000000
00000000
00000100
,
00000000
00000010
00001000
00000000
00000000
00000000
00000001
00000000
,
00000000
00000100
00000000
00000010
,
00001000
00000000
00000000
00000000
00010000
00000000
00010000
00000000
00001000
00000000
00001000
00000000
00100000
00010000
10000000
00010000
,
00100000
00000000
00010000
00000000
10000000
00000000
00010000
00000000
00200000
00000000
00000000
00000000
00000000
00000000
00000000
00000000
00310000
10000000
00010000
10000000
01000000
00100000
01000000
00100000
00010000
00000000
00000000
00000000
00000000
00000000
00000000
00000000
,
10000000
00000000
01000000
10000000
00000000
00010000
01000000
00000000
,
00100000
10000000
00010000
00100000
,
01000000
00000000
00100000
00001000
00000000
00010000
00000100
00000000
,
00001000
00000000
00000001
00001000
00000001
00000000
00000010
00000000
,
00001000
00000000
00000010
00000000
00000001
00000010
00000001
00000000
,
00000100
00000010
00001000
00000001
,
00000000
00000000
00001000
00000001
00000100
00000001
00001000
00000010
,
00001000
00000100
00010000
00001000
00010000
00000000
00001000
00000000
,
00010000
00001000
01000000
00000000
00000000
00000000
01000000
00010000
,
01000000
00000000
00100000
10000000
00100000
00000000
10000000
00000000
,
00010000
01000000
00001000
00000000
00000000
00000000
00001000
00010000
,
00001000
00000000
00010000
00000000
00001000
00000000
00010000
00001000
,
00010000
00000100
00001000
00000100
00000010
00000001
00001000
00000010
,
00000100
00000001
00001000
00000001
00000100
00001000
00010000
00001000
,
00100000
00010000
10000000
00100000
01000000
00010000
10000000
00010000
,
10000000
01000000
00010000
00001000
00100000
00001000
00010000
00000000
,
00001000
00011000
00000000
00010000
,
00000100
00001100
00000000
00000011
,
00000010
00000001
00000100
00000010
,
00000100
00000010
00000100
00001000
,
00010000
00011000
00000000
00001000
,
00100000
00110000
00000000
01100000
,
01000000
00100000
00010000
00100000
,
01000000
00000000
10000000
00010000
10000000
00000000
10010000
00000000
,
00010000
10000000
10000000
11000000
,
01000000
00000000
10000000
01000000
00100000
00010000
00100000
00000000
,
00010000
00100000
00010000
00000000
00100000
00001000
00010000
00001000
,
00010000
00000000
00000100
00010000
00000100
00000000
00001000
00000100
,
00010000
00000010
00001000
00000100
00010000
00000010
00001000
00000000
,
00000010
00001000
00000001
00001000
00000001
00001000
00000002
00000000
00000000
00000000
00000000
00000000
,
00000000
00000003
00000000
00000000
,
00000000
00000000
00000000
00000000
;
