#TITLE:IMANOGUILTS;
#ARTIST:Mystic Moon;
#BANNER:IMANOGUILTS.png;
#BACKGROUND:IMANOGUILTS-bg.png;
#CDTITLE:./CDTitles/DDR (2014).png;
#MUSIC:IMANOGUILTS.ogg;
#SAMPLESTART:14.348;
#SAMPLELENGTH:15;
#BPMS:0=184;
#STOPS:36.5=0.163,37=0.163,37.5=0.163,208.5=0.326,261.5=0.163,262=0.163,262.5=0.163;
#NOTES:
     dance-single:
     :
     Beginner:
     4:
     :
0000
0000
0000
0000
,
0000
0000
0000
0000
,
0000
0000
0000
0000
,
0000
0000
0000
0000
,
0000
0000
0000
0000
,
0010
0000
1000
0000
,
0100
0000
1000
0000
,
0010
0000
0001
0000
,
0100
0000
0001
0000
,
0000
0000
0000
0000
0000
1000
0000
0000
,
0000
0001
0000
0000
0000
2000
0000
0000
,
0000
3000
0000
0000
0000
0010
0000
0010
,
0000
0010
0000
0000
0000
0002
0000
0000
,
0000
0003
0000
0000
0000
0010
0000
0010
,
0000
0010
0000
0000
0000
2000
0000
0000
,
0000
3000
0000
0000
0000
0100
0000
0100
,
0000
0100
0000
0000
0000
0002
0000
0000
,
0000
0003
0000
0000
0000
0100
0000
0100
,
0000
0100
0000
0000
0000
0000
0000
0010
,
0000
0000
0000
1000
0000
0000
0000
0001
,
0000
0000
0000
0100
0000
0000
0000
0010
,
0000
0000
0000
1000
0000
0001
0000
0001
,
0000
0001
0000
0000
0000
1000
0000
0000
,
0000
0100
0000
0000
0000
0010
0000
0010
,
0000
0010
0000
0000
0000
0001
0000
0000
,
0000
0100
0000
0000
0000
0010
0000
0010
,
0000
0010
0000
0000
0000
1000
0000
0000
,
0000
0001
0000
0000
0000
0100
0000
0100
,
0000
0100
0000
0000
0000
0001
0000
0000
,
0000
1000
0000
0000
0000
0100
0000
0100
,
0000
0100
0000
0000
0000
0001
0000
0001
,
0000
0001
0000
0000
0000
0010
0000
0000
,
0000
0000
0000
0000
0000
1000
0000
0000
,
0000
0010
0000
0000
0000
0001
0000
0000
,
0000
0010
0000
0000
0000
1000
0000
1000
,
0000
1000
0000
0000
0000
0010
0000
0000
,
0000
0000
0000
0000
0000
0001
0000
0000
,
0000
0010
0000
0000
0000
1000
0000
0000
,
0000
0010
0000
0000
0000
0001
0000
0000
,
0000
0100
0000
0000
0000
1000
0000
0000
,
0000
0100
0000
0000
0000
0001
0000
0000
,
0000
1000
0000
0000
0000
2002
0000
0000
,
0000
3003
0000
0000
0000
2000
0000
0000
,
0000
3000
0000
0000
0000
0010
0000
0000
,
0000
1000
0000
0000
0000
0002
0000
0000
,
0000
0003
0000
0000
0000
0010
0000
0000
,
0000
0001
0000
0000
0000
0100
0000
0000
,
0000
0010
0000
0000
0000
1000
0000
0000
,
0000
0001
0000
0000
0000
0010
0000
0010
,
0000
0010
0000
0000
0000
0100
0000
0100
,
0000
0100
0000
0000
0000
1000
0000
0000
,
0000
0001
0000
0000
0000
1000
0000
0001
,
0000
1001
0000
0000
0000
0000
0000
0000
,
0000
0000
0000
0000
,
0000
0000
0000
0000
,
0000
0000
0000
0000
,
0000
0000
0000
1000
0000
1000
0000
0100
,
0000
0000
0000
0001
0000
0001
0000
0100
,
0000
0000
0000
1000
0000
1000
0000
0010
,
0000
0000
0000
0001
0000
0000
0000
0000
,
0000
0000
0000
1000
0000
0000
0000
0001
,
0000
0000
0000
0010
0000
0000
0000
0100
,
0000
0000
0000
2000
0000
0000
0000
3000
,
0000
0000
0000
0010
0000
0010
0000
0010
,
0000
0000
0000
0002
0000
0000
0000
0003
,
0000
0000
0000
0010
0010
0010
0000
0000
,
1000
0000
0100
0000
,
1000
1000
1000
0000
,
0001
0000
0100
0000
,
0001
0001
0001
0000
,
1000
0001
1000
0000
,
0020
0000
0030
0000
,
0001
1000
0001
0000
,
0020
0000
0030
0000
,
1000
0001
1000
0000
,
0200
0000
0300
0000
,
0001
1000
0001
0000
,
0200
0000
0300
0000
,
0010
0000
1000
0000
,
0100
0000
0001
0000
,
0010
0000
0001
0000
,
0000
2002
0000
0000
,
0000
0000
3003
0000
,
0000
0000
0000
0000
;
#NOTES:
     dance-single:
     :
     Easy:
     8:
     :
0000
0000
0000
0000
,
0000
0000
0000
0000
,
0000
0000
0000
0000
,
0000
0000
0000
0000
,
0000
0000
0000
0000
,
0001
0010
0100
1000
,
1000
0010
0100
0001
,
0010
0001
0100
0001
,
0010
1000
0100
1000
,
0000
0001
0010
0100
1000
0100
0000
0110
,
0000
0001
0000
1001
0000
1000
0000
0010
,
0000
0100
0000
0010
0000
1000
0000
1000
,
0000
0100
0000
0100
0000
0001
0000
0010
,
0000
0100
0000
0010
0000
0002
0000
0003
,
0000
0200
0000
0300
0000
0001
0000
0010
,
0000
1000
0000
0010
0000
0001
0000
0001
,
0000
0100
0000
0100
0000
1000
0000
0010
,
0000
0001
0000
0010
0000
1000
0000
1000
,
0000
0200
0000
0300
0000
0010
0000
1001
,
0000
0100
0000
1001
0000
0010
0000
1001
,
0000
0100
0000
1001
0000
0010
0000
1001
,
0000
0110
0000
1001
0000
0010
0000
0001
,
0000
0100
0100
0100
0000
0001
0000
0010
,
0000
0100
0000
0010
0000
0001
0000
0001
,
0000
0100
0000
0100
0000
1000
0000
0010
,
0000
0100
0000
0010
0000
2000
0000
3000
,
0000
0200
0000
0300
0000
1000
0000
0010
,
0000
0001
0000
0010
0000
1000
0000
1000
,
0000
0100
0000
0100
0000
0001
0000
0010
,
0000
1000
0000
0010
0000
0001
0000
0001
,
0000
0200
0000
0300
0000
0010
0010
0010
,
0010
0010
0000
0000
0000
1000
0000
0100
,
0000
0010
0000
0001
0000
1000
0000
1100
,
0000
0001
0000
0011
0000
1000
0000
1010
,
0000
0001
0000
0101
0000
1000
1000
1000
,
1000
1000
0000
0000
0000
0001
0000
0100
,
0000
0010
0000
1000
0000
0001
0000
0101
,
0000
1000
0000
1010
0000
0001
0000
0011
,
0000
1000
0000
1100
0000
0001
0000
0010
,
0000
0100
0000
1000
0000
0010
0010
1000
,
0000
0100
0100
1000
0000
0010
0010
0001
,
0000
0100
0100
0001
0000
2002
0000
0000
,
0000
0000
0000
3003
0000
0001
0000
0100
,
0000
0000
0000
0100
0000
0010
0000
1000
,
0000
0000
0000
1000
0000
0001
0000
0100
,
0000
0010
0000
1000
0000
0001
0000
1000
,
0000
0001
0000
0000
0000
0100
0000
0001
,
0000
0010
0000
0100
0000
1000
0000
0001
,
0000
0100
0000
0010
0000
1000
0000
0100
,
0000
1100
0000
0000
0000
0001
0000
0100
,
0000
0101
0000
0000
0000
1001
0000
0000
,
0000
0110
0000
0000
0000
1001
0000
0110
,
0000
1001
0000
2000
0000
0000
0000
0000
,
0000
3000
0000
0020
0000
0000
0000
0000
,
0000
0030
0000
0002
0000
0000
0000
0000
,
0000
0003
0000
0200
0000
0000
0000
0010
,
0000
0310
0000
1000
0000
0010
0000
0100
,
0000
0001
0000
0001
0000
0010
0000
0100
,
0000
1000
0000
0010
0000
1000
0000
0100
,
0000
1000
0000
0010
0000
0001
0000
0100
,
0000
0001
0000
0010
0000
0110
0000
1000
,
0000
1001
0000
0100
0000
0110
0000
0001
,
0000
1001
0000
1000
0000
0100
0000
0000
,
0000
0100
0000
0001
0000
0010
0000
1000
,
0000
0010
0000
0001
0000
0100
0000
0000
,
0000
0100
0000
0010
0010
1000
1000
0000
,
0001
0010
1000
0010
,
0001
0001
0100
0100
,
1000
0010
0001
0010
,
1000
1000
0200
0300
,
0010
0001
0100
0001
,
2200
3300
0202
0303
,
0010
1000
0001
0010
,
0220
0330
2002
3003
,
0010
1000
0100
1000
,
0202
0303
2200
3300
,
0010
0001
1000
0010
,
0220
0330
2002
3003
,
1000
1100
0001
0101
,
1000
1010
0001
0011
,
0100
0110
1000
1001
,
0000
0220
0000
0000
,
0000
0000
0330
0000
,
0000
0000
0000
0000
;
#NOTES:
     dance-single:
     :
     Medium:
     11:
     :
0000
0000
0000
0000
,
0000
0000
0000
0000
,
0000
0000
0000
0000
,
0000
0000
0000
0000
,
0000
0000
0000
0000
,
1000
0010
0100
0010
0000
1001
0000
1100
,
0000
0010
0001
0100
0000
1100
0000
0101
,
0000
1000
0100
0010
0000
0001
0100
0010
,
1000
0100
1000
0000
0010
0001
0010
0001
,
0000
1000
0010
0100
0001
0100
0010
0100
,
0000
1000
0001
1000
0000
0001
0010
0100
,
0000
0010
0000
0000
0001
0000
0100
0000
0000
0000
0010
0000
1000
0000
0100
0000
,
0000
0010
0001
0100
0000
0001
1000
0010
,
0000
0100
0000
0000
0001
0000
1000
0000
0000
0000
0001
0000
0010
0000
0001
0000
,
0000
1000
0010
1000
0000
1000
0010
0100
,
0000
0010
0000
0000
1000
0000
0100
0000
0000
0000
0010
0000
0001
0000
0100
0000
,
0000
0010
1000
0100
0000
1000
0001
0010
,
0000
0100
0000
0000
1000
0000
0001
0000
0000
0000
1000
0000
0010
0000
1000
0000
,
0000
0001
0010
0001
0000
0010
0000
1100
,
0000
0010
0000
0101
0000
0010
0000
1001
,
0000
0100
0000
1001
0000
0010
0000
0100
,
0000
1000
0000
0010
0000
0001
0000
1000
,
0000
0100
0100
0100
0000
1000
0010
0100
,
0000
0010
0000
0000
1000
0000
0100
0000
0000
0000
0010
0000
0001
0000
0100
0000
,
0000
0010
1000
0100
0000
1000
0001
0010
,
0000
0100
0000
0000
1000
0000
0001
0000
0000
0000
1000
0000
0010
0000
1000
0000
,
0000
0001
0010
0001
0000
0001
0010
0100
,
0000
0010
0000
0000
0001
0000
0100
0000
0000
0000
0010
0000
1000
0000
0100
0000
,
0000
0010
0001
0100
0000
0001
1000
0010
,
0000
0100
0000
0000
0001
0000
1000
0000
0000
0000
0001
0000
0010
0000
0001
0000
,
0000
1000
0010
1000
0000
0010
0010
1000
,
0001
1000
0000
0000
0000
1001
0000
0100
,
0000
0010
1000
0100
0000
0011
0000
1100
,
0000
1010
0000
0101
0000
0011
0000
1010
,
0000
1100
0000
0101
0000
0010
0010
0001
,
1000
0001
0000
0000
0000
1001
0000
0100
,
0000
0010
0001
0100
0000
1010
0000
0101
,
0000
0011
0000
1100
0000
1010
0000
0011
,
0000
0101
0000
1100
0000
1010
0000
1100
,
0000
0101
0000
0011
0000
0010
0001
0100
,
0000
0010
1000
0100
0000
0010
0001
0010
,
0001
1000
0010
0100
0001
2000
0000
0002
,
0000
0000
0000
3003
0000
1000
0000
0100
,
0000
0000
0010
0100
0000
0010
0000
0001
,
0000
0000
1000
0001
0000
1000
0001
0100
,
0000
0010
1000
0001
0000
1000
0000
0000
,
0100
1000
0000
0001
0010
0100
0000
0000
,
1000
0010
0000
0100
0000
0001
0000
1000
,
0001
0010
0000
0100
0000
0010
0000
0001
,
0100
0010
0000
0100
0000
0001
0000
1000
,
0010
0100
0000
0010
0000
1000
0000
0000
,
0001
1000
0000
0000
0100
0010
0001
0010
,
0100
0010
0000
0001
0000
0001
0000
0010
,
0000
0010
0000
1000
0000
1000
0000
0100
,
0000
0100
0000
0001
0000
0010
0000
1000
,
0000
0100
0000
0001
0000
0010
0000
1000
,
0100
0001
0000
1000
0010
0100
0010
0000
,
1001
0000
1100
0000
0010
0001
0100
0000
,
1100
0000
0101
0000
1000
0100
0010
0001
,
0100
0010
0000
1000
0000
0000
0001
0000
,
0000
1001
0000
0010
0100
0010
0000
1000
,
0001
1000
0000
0100
0010
0100
0000
1000
,
0001
1000
0000
0001
0010
0100
0000
0000
,
0000
0100
0000
1000
0100
0001
0000
0001
,
0100
1000
0000
1000
0001
0100
0000
0000
,
0000
0100
0000
0010
0100
0110
0001
0000
,
1000
0000
0010
0000
0100
0000
0000
0010
0000
0000
1000
0000
0100
0000
0000
0000
,
0010
0001
0100
0000
0010
1000
0100
0000
,
1000
0000
0001
0000
0010
0000
0000
0100
0000
0000
1000
0000
0001
0000
0000
0000
,
1000
0010
1000
0000
0001
0010
0001
0000
,
1000
0000
0100
0000
0010
0000
0000
0100
0000
0000
1000
0000
0100
0000
0010
0000
,
0001
0000
0000
0001
0000
0000
0001
0000
1000
0000
0000
1000
0000
0000
1000
0000
,
0010
0000
0100
0000
0001
0000
0000
1000
0000
0000
0100
0000
0010
0000
0001
0000
,
1000
0000
0000
1000
0000
0000
1000
0000
0001
0000
0000
0001
0000
0000
0001
0000
,
1000
0000
0100
0000
0001
0000
0000
0100
0000
0000
1000
0000
0100
0000
0010
0000
,
0001
0000
0000
0001
0000
0000
0001
0000
0100
0000
0000
0100
0000
0000
0100
0000
,
0010
0000
1000
0000
0001
0000
0000
0010
0000
0000
1000
0000
0010
0000
0001
0000
,
0010
0000
0000
0010
0000
0000
0010
0000
0100
0000
0000
0100
0000
0000
0100
0000
,
1000
0100
1000
0000
0001
0100
0001
0000
,
1000
0010
1000
0000
0001
0010
0001
0000
,
0010
0100
0010
0000
0001
1000
0001
0000
,
0000
0220
0000
0000
,
0000
0000
0330
0000
,
0000
0000
0000
0000
;
#NOTES:
     dance-single:
     :
     Hard:
     14:
     :
0000
0000
0000
0000
,
0000
0000
0000
0000
,
0000
0000
0000
0000
,
0000
0000
0000
0000
,
0000
0000
0000
0000
,
0001
0010
0100
0010
0000
1001
0000
0101
,
0000
0010
1000
0100
0000
0101
0000
1100
,
0000
0001
0100
0010
0000
1000
0100
0010
,
0100
0010
0100
0010
0001
0010
0001
0010
,
0000
0000
0011
0000
1100
0000
0101
0000
1010
0000
0100
0010
0100
0010
0100
0000
,
0000
0000
0001
1000
0001
1000
0001
0000
0000
0000
1000
0000
0010
0000
0100
0010
,
0000
0100
0010
0000
1000
0000
0100
0000
0010
0000
0001
0000
0010
0000
0100
0000
,
1000
0000
0010
0000
0100
0000
0001
0000
1000
0000
0001
0000
0010
0000
0100
0010
,
0000
0100
0010
0000
0001
0000
0100
0000
0010
0000
1000
0000
1000
0000
0001
0000
,
0001
0000
0100
0000
0100
0000
0010
0000
0000
0000
1000
0000
0100
0000
0010
0100
,
0000
0010
0100
0000
0001
0000
0100
0000
1000
0000
0001
0000
0100
0000
0010
0000
,
1000
0000
0001
0000
0010
0000
0100
0000
1000
0000
0001
0000
0100
0000
0010
0100
,
0000
0010
0100
0000
1000
0000
0100
0000
0001
0000
1000
0000
1000
0000
0100
0000
,
0100
0010
0010
0001
0001
0010
0000
1100
,
0000
0010
0000
0101
0000
0010
0000
1001
,
0000
0010
0000
1100
0000
0010
0000
0101
,
0000
0011
0000
1010
0000
0101
0000
1100
,
0000
0000
0101
0000
1100
0000
0101
0000
0000
0000
0001
0000
0010
0000
0100
0010
,
0000
0100
0010
0000
0001
0000
0100
0000
0010
0000
1000
0000
0010
0000
0100
0000
,
0001
0000
0010
0000
0100
0000
1000
0000
0001
0000
1000
0000
0010
0000
0100
0010
,
0000
0100
0010
0000
1000
0000
0100
0000
0010
0000
0001
0000
0001
0000
1000
0000
,
1000
0000
0100
0000
0100
0000
0010
0000
0000
0000
0001
0000
0100
0000
0010
0100
,
0000
0010
0100
0000
1000
0000
0100
0000
0001
0000
1000
0000
0100
0000
0010
0000
,
0001
0000
1000
0000
0010
0000
0100
0000
0001
0000
1000
0000
0100
0000
0010
0100
,
0000
0010
0100
0000
0001
0000
0100
0000
1000
0000
0001
0000
0001
0000
0100
0000
,
0100
0010
0010
1000
0000
0001
0001
0100
,
0001
0101
0000
0000
0000
1001
0000
0100
,
0010
0000
0001
0000
0100
0000
0010
0000
0000
0000
1010
0000
0000
0010
0100
0000
,
0000
0100
0001
0000
0000
0001
0100
0000
0000
0100
1000
0000
0000
1000
0100
0000
,
0000
0100
0010
0000
0000
0010
1000
0000
0000
1000
0001
0000
0001
0000
0010
0000
,
0001
0011
0000
0000
0000
1001
0000
0100
,
0010
0000
1000
0000
0100
0000
0010
0000
0000
0000
0011
0000
0000
0010
0100
0000
,
0000
0100
1000
0000
0000
1000
0100
0000
0000
0100
0001
0000
0000
0001
0100
0000
,
0000
0100
0010
0000
0000
0010
0001
0000
0000
0001
1000
0000
0000
1000
0010
0000
,
0000
0010
0001
0000
0000
0001
0010
0000
0000
0010
1000
0000
0100
0000
0010
0000
,
0100
1000
0100
0010
0100
1000
0100
0001
,
0100
1000
0010
0001
0010
2000
0000
0002
,
0000
0000
0000
3003
0000
1000
0000
0100
,
0000
0000
0010
0001
1000
0001
0000
0100
,
0000
0000
0010
1000
0001
1000
0100
0010
,
0100
1000
0001
0100
0010
1000
0000
0000
,
0001
1000
0001
0000
0100
0000
1000
0000
0010
0000
0100
0000
0000
0000
0000
0000
,
0001
0010
0100
1000
0001
0100
0000
0001
,
1000
0010
0100
0001
0100
0010
0000
1000
,
0000
0100
0010
0100
1000
0100
0000
0010
,
0000
0000
0001
0000
0100
0000
0010
0000
0100
0000
0001
0000
0000
0000
0000
1000
,
0001
1000
0001
0000
0000
0000
0000
0100
0010
0100
0010
0000
1000
0000
0100
0000
,
0010
0001
0010
0000
0000
0000
1000
0000
0000
0000
1000
0000
0000
0000
0010
0000
,
0000
0010
0000
0001
0000
0001
0000
0100
,
0000
0100
0000
1000
0000
0010
0000
0001
,
0000
0100
0000
1000
0010
0001
0100
0010
,
1000
0100
0010
0001
0010
0100
0010
0000
,
1001
0000
0101
0000
0010
1000
0100
0000
,
0101
0000
1100
0000
0001
0100
0010
1000
,
0100
0010
0001
1000
0001
1000
0010
0100
,
0010
0000
1000
0000
0100
0000
0010
0100
0010
0100
0010
0000
0000
0000
0001
1000
,
0001
1000
0001
0000
0000
0000
0100
0010
0100
0010
0100
0000
0000
0000
0001
1000
,
0001
1000
0001
0000
0000
0000
1000
0000
0010
0000
0100
0010
0000
0100
0000
0000
,
0001
0010
0100
1000
0100
0001
0100
0010
,
1000
0000
0010
0000
0000
0000
0001
0000
1000
0000
0100
1000
0000
0100
0000
0000
,
0010
0000
0001
0000
1000
0000
0010
0000
0100
0000
0110
0000
0001
1000
0001
1000
,
0001
0000
0100
0000
0010
0100
0000
0010
0100
0000
1000
0000
0100
0000
0001
0000
,
1000
0100
0010
0001
1000
0010
0100
0001
,
1000
0000
0100
0000
0010
0100
0000
0010
0100
0000
0001
0000
0100
0000
1000
0000
,
0001
0001
0100
0100
0010
0010
1000
1000
,
0001
0000
0100
0000
0010
1000
0000
0010
0100
0000
0001
0000
0100
0000
0010
0000
,
1000
0000
0010
1000
0000
0100
1000
0000
0001
0000
0010
0001
0000
0100
0001
0000
,
0010
0000
0100
0000
1000
0010
0000
0100
0010
0000
1000
0000
0001
0000
0100
0000
,
0010
0000
0100
1000
0000
0100
0001
0000
0100
0000
0010
1000
0000
0001
0100
0000
,
1000
0000
0010
0000
0100
0001
0000
0100
0010
0000
1000
0000
0010
0000
0100
0000
,
0001
0000
0100
0001
0000
0010
0001
0000
1000
0000
0100
1000
0000
0010
1000
0000
,
0100
0000
0010
0000
0001
0100
0000
0010
0100
0000
0001
0000
1000
0000
0010
0000
,
0100
0000
0010
0001
0000
0010
1000
0000
0010
0000
0100
0001
0000
1000
0010
0000
,
1000
0100
1000
0100
1000
0000
0000
0000
0001
0100
0001
0100
0001
0000
0000
0000
,
1000
0010
1000
0010
1000
0000
0000
0000
0001
0010
0001
0010
0001
0000
0000
0000
,
0010
0100
1000
0100
0010
0000
0000
0000
0001
1000
0100
1000
0001
0000
0000
0000
,
0000
0220
0000
0000
,
0000
0000
0330
0000
,
0000
0000
0000
0000
;
#NOTES:
     dance-single:
     :
     Challenge:
     15:
     :
0000
0000
0000
0000
,
0000
0000
0000
0000
,
0000
0000
0000
0000
,
0000
0000
0000
0000
,
0000
0000
0000
0000
,
1000
0010
0100
0010
0000
1001
0000
1100
,
0000
0010
0001
0100
0000
1100
0000
0101
,
0000
1000
0100
0010
0000
0001
0100
0010
,
0100
0000
0010
0000
0100
0000
0010
0000
1000
0001
0010
0100
1000
0010
0100
0001
,
0000
0000
0011
0000
1100
0000
0101
0000
1010
0000
0100
0001
1000
0001
0100
0000
,
0000
0000
0001
1000
0010
1000
0001
0000
0000
0000
1000
0000
0010
0000
0100
0010
,
0000
0100
0010
0000
1000
0000
0100
0000
0010
0000
0001
0000
0010
0000
0100
0000
,
1000
0000
0010
0000
0100
0000
0001
0000
1000
0000
0001
0000
0010
0000
0100
0010
,
0000
0100
0010
0000
0001
0000
0100
0000
0000
0000
0010
0000
0010
0000
1000
0000
,
1000
0000
0001
0000
0001
0000
0100
0000
0100
0000
0001
0000
0100
0000
0010
0100
,
0000
0010
0100
0000
1000
0000
0100
0000
0001
0000
1000
0000
0100
0000
0010
0000
,
0001
0000
1000
0000
0010
0000
0100
0000
0001
0000
1000
0000
0100
0000
0010
0100
,
0000
0010
0100
0000
0001
0000
0100
0000
0000
0000
1000
0000
1000
0000
0001
0000
,
0001
0100
0100
0010
0010
1000
0010
0101
,
0000
0001
0010
1100
0000
0010
0100
1001
,
0000
0100
0010
1001
0000
0010
0100
1100
,
0000
1010
0000
0011
0000
1100
0000
0101
,
1000
0000
1100
0000
0101
0000
1100
0000
0000
0000
0001
0000
0010
0000
0100
0010
,
0000
0100
0010
0000
0001
0000
0100
0000
0010
0000
1000
0000
0010
0000
0100
0000
,
0001
0000
0010
0000
0100
0000
1000
0000
0001
0000
1000
0000
0010
0000
0100
0010
,
0000
0100
0010
0000
1000
0000
0100
0000
0000
0000
0010
0000
0010
0000
0001
0000
,
0001
0000
1000
0000
1000
0000
0100
0000
0100
0000
1000
0000
0100
0000
0010
0100
,
0000
0010
0100
0000
0001
0000
0100
0000
1000
0000
0001
0000
0100
0000
0010
0000
,
1000
0000
0001
0000
0010
0000
0100
0000
1000
0000
0001
0000
0100
0000
0010
0100
,
0000
0010
0100
0000
1000
0000
0100
0000
0000
0000
0001
0000
0001
0000
1000
0000
,
1000
0100
0100
0010
0010
0011
0011
0011
,
0011
0011
0000
0000
0000
1001
0000
0100
,
0010
0000
1000
0000
0100
0000
0010
0000
0001
0000
0011
0000
0000
0010
0100
0000
,
0000
0100
1000
0000
0000
1000
0100
0000
0000
0100
0001
0000
0000
0001
0010
0000
,
0000
0010
1000
0000
0000
1000
0001
0000
0000
0000
1010
0000
1010
0000
1010
0000
,
1010
1010
0000
0000
0000
1001
0000
0100
,
0010
0000
0001
0000
0100
0000
0010
0000
1000
0000
1010
0000
0000
0010
0100
0000
,
0000
0100
0001
0000
0000
0001
0100
0000
0000
0100
1000
0000
0000
1000
0010
0000
,
0000
0010
0001
0000
0000
0001
0100
0000
0000
0100
0001
0000
0000
0001
0010
0000
,
0000
0010
1000
0000
0000
1000
0100
0000
0000
0100
1000
0000
0100
0000
0010
0000
,
0100
0001
0100
0010
0100
1000
0100
0010
,
0100
0000
1000
0001
0100
0010
1000
0100
0010
0001
2000
0000
0000
0000
0002
0000
,
0000
0000
0000
3003
0000
0001
0000
0100
,
0000
0000
0010
1000
0001
1000
0000
0100
,
0000
0000
0010
0001
1000
0001
0100
0010
,
0100
0001
1000
0100
0010
0001
0000
0000
,
1000
0001
1000
0000
0100
0000
0001
0000
0010
0000
0100
0000
0000
0000
0000
0000
,
1000
0010
0100
0001
1000
0100
0000
1000
,
0001
0010
0100
0100
1000
1000
0001
0010
,
0100
0010
0001
0001
1000
1000
0001
0100
,
0010
0000
0100
0000
0010
0000
1000
0000
0001
0000
1000
0000
0000
0000
0000
0001
,
0100
0001
1000
0000
0000
0000
0000
0100
0010
0100
1000
0001
0100
0010
1000
0100
,
0010
0001
0010
0000
0000
0000
0001
0000
0000
0000
0001
0000
0000
0000
0010
0000
,
0000
0010
0000
1000
0000
1000
0000
0100
,
0000
0100
0000
0001
0000
0010
0000
1000
,
0000
0100
0000
0001
0010
1000
0100
0010
,
0001
0100
0010
1000
0010
0100
0010
0000
,
1001
0000
1100
0000
0010
0001
0100
0000
,
1100
0000
0101
0000
1000
0100
0010
0001
,
0100
0010
1000
0001
0001
0001
0010
0010
,
0010
0000
0100
0000
0010
0000
0001
1000
0100
1000
0001
0000
0000
0000
0100
0010
,
1000
0010
0100
0000
0000
0000
0001
0010
0100
0010
0001
0000
0000
0000
1000
0100
,
0010
0100
1000
0000
0000
0000
0001
0000
0010
0000
0100
0010
0000
0100
0000
0000
,
1000
0010
0100
0001
0100
1000
0100
0010
,
0001
0000
0010
0000
0000
0000
1000
0000
0001
0000
0100
0001
0000
0100
0000
0000
,
0010
0000
1000
0000
0001
0000
0011
0000
1100
0000
0110
0000
1000
0001
1000
0001
,
1000
0000
0100
0000
0010
0100
0000
0010
0100
0000
0001
0000
0100
0000
1000
0000
,
0001
0100
0010
1000
0001
0010
0100
1000
,
0001
0000
0100
0000
0010
0100
0000
0010
0100
0000
1000
0000
0100
0000
0001
0000
,
1000
0000
1000
0000
0100
0000
0100
0000
0010
0001
0100
0010
1000
0100
0010
0001
,
1000
0000
0100
0000
0010
0100
0000
0001
0100
0000
1000
0000
0100
0000
0010
0000
,
0001
0000
0010
0001
0000
0100
0001
0100
0010
0000
1000
0100
0000
0010
0001
1000
,
0010
0000
0100
0000
0001
0010
0000
0001
0100
0000
0001
0000
1000
0000
0100
0000
,
0010
0000
0100
0001
0000
0100
1000
0001
0100
0000
0010
1000
0000
0001
0100
0010
,
1000
0000
0010
0000
0100
0010
0000
1000
0010
0000
1000
0000
0100
0000
0010
0000
,
0001
0000
1000
0100
0000
1000
0010
0100
0001
0000
1000
0001
0000
0010
0001
1000
,
0010
0000
0100
0000
1000
0100
0000
0010
0100
0000
0001
0000
0010
0000
0001
0000
,
1000
0000
0010
1000
0000
0001
0010
0100
1000
0000
0001
0100
0000
0010
1000
0001
,
1000
0001
0100
0001
1000
0000
0000
0000
0001
1000
0100
1000
0001
0000
0000
0000
,
1000
0010
0100
0010
1000
0000
0000
0000
0001
0010
0100
0010
0001
0000
0000
0000
,
0010
0001
0100
0010
1000
0000
0000
0000
0001
0010
0100
1000
0010
0100
0001
1000
,
0000
0220
0000
0000
,
0000
0000
0330
0000
,
0000
0000
0000
0000
;
#NOTES:
     dance-double:
     :
     Easy:
     8:
     :
00000000
00000000
00000000
00000000
,
00000000
00000000
00000000
00000000
,
00000000
00000000
00000000
00000000
,
00000000
00000000
00000000
00000000
,
00000000
00000000
00000000
00000000
,
10000000
00100000
01000000
00010000
,
00100000
01000000
00010000
00001000
,
00000010
00000001
00001000
00000100
,
00000001
00000100
00001000
00010000
,
00000000
00001000
00001000
00010000
00010000
00001000
00000000
00011000
,
00000000
00010000
00000000
00011000
00000000
00100000
00000000
10000000
,
00000000
00100000
00000000
01000000
00000000
00010000
00000000
00010000
,
00000000
10000000
00000000
10000000
00000000
01000000
00000000
00010000
,
00000000
00001000
00000000
00000010
00000000
00000002
00000000
00000003
,
00000000
00002000
00000000
00003000
00000000
00000001
00000000
00000010
,
00000000
00001000
00000000
00000010
00000000
00000100
00000000
00000100
,
00000000
00001000
00000000
00001000
00000000
00010000
00000000
01000000
,
00000000
10000000
00000000
00100000
00000000
10000000
00000000
10000000
,
00000000
02000000
00000000
03000000
00000000
00100000
00000000
10000000
,
00000000
01000000
00000000
10010000
00000000
00100000
00000000
00010000
,
00000000
00001000
00000000
00011000
00000000
00000100
00000000
00000001
,
00000000
00000010
00000000
00001001
00000000
00000010
00000000
00001000
,
00000000
00000100
00000100
00000100
00000000
00000010
00000000
00000001
,
00000000
00000010
00000000
00000100
00000000
00001000
00000000
00001000
,
00000000
00000001
00000000
00000001
00000000
00000100
00000000
00001000
,
00000000
00010000
00000000
00100000
00000000
20000000
00000000
30000000
,
00000000
00020000
00000000
00030000
00000000
10000000
00000000
00100000
,
00000000
00010000
00000000
00100000
00000000
01000000
00000000
01000000
,
00000000
00010000
00000000
00010000
00000000
00001000
00000000
00000100
,
00000000
00000001
00000000
00000010
00000000
00000001
00000000
00000001
,
00000000
00000200
00000000
00000300
00000000
00000010
00000010
00000010
,
00000010
00000010
00000000
00000000
00000000
00001000
00000000
00010000
,
00000000
01000000
00000000
00100000
00000000
10000000
00000000
10100000
,
00000000
00010000
00000000
00110000
00000000
01000000
00000000
11000000
,
00000000
00010000
00000000
01010000
00000000
10000000
10000000
10000000
,
10000000
10000000
00000000
00000000
00000000
01000000
00000000
00010000
,
00000000
00001000
00000000
00000100
00000000
00000010
00000000
00001001
,
00000000
00000100
00000000
00001001
00000000
00000010
00000000
00000101
,
00000000
00000010
00000000
00001100
00000000
00000001
00000000
00000100
,
00000000
00001000
00000000
00010000
00000000
00100000
00100000
10000000
,
00000000
00010000
00010000
01000000
00000000
00010000
00010000
00100000
,
00000000
01000000
01000000
00100000
00000000
20020000
00000000
00000000
,
00000000
00000000
00000000
30030000
00000000
10000000
00000000
01000000
,
00000000
00000000
00000000
01000000
00000000
00010000
00000000
00001000
,
00000000
00000000
00000000
00001000
00000000
00000010
00000000
00000001
,
00000000
00000100
00000000
00000010
00000000
00001000
00000000
00000001
,
00000000
00001000
00000000
00000000
00000000
00000010
00000000
00010000
,
00000000
00001000
00000000
01000000
00000000
00010000
00000000
10000000
,
00000000
01000000
00000000
00100000
00000000
00010000
00000000
01000000
,
00000000
01010000
00000000
00000000
00000000
00001000
00000000
00010000
,
00000000
00011000
00000000
00000000
00000000
00001001
00000000
00000000
,
00000000
00000110
00000000
00000000
00000000
00001001
00000000
00000110
,
00000000
00001001
00000000
00000020
00000000
00000000
00000000
00000000
,
00000000
00000030
00000000
00000002
00000000
00000000
00000000
00000000
,
00000000
00000003
00000000
00000200
00000000
00000000
00000000
00000000
,
00000000
00000300
00000000
00002000
00000000
00000000
00000000
00010000
,
00000000
00013000
00000000
00001000
00000000
00100000
00000000
01000000
,
00000000
10000000
00000000
10000000
00000000
00100000
00000000
01000000
,
00000000
00010000
00000000
00100000
00000000
00001000
00000000
00010000
,
00000000
00000100
00000000
00001000
00000000
00000010
00000000
00000100
,
00000000
00001000
00000000
00000010
00000000
00011000
00000000
00100000
,
00000000
00011000
00000000
00000100
00000000
00011000
00000000
01000000
,
00000000
00011000
00000000
00010000
00000000
01000000
00000000
00000000
,
00000000
01000000
00000000
10000000
00000000
00100000
00000000
00010000
,
00000000
00001000
00000000
00000010
00000000
00000100
00000000
00000000
,
00000000
00000100
00000000
00000010
00000010
00000001
00000001
00000000
,
00001000
00000010
00000100
00000010
,
00001000
00001000
00010000
00010000
,
01000000
00100000
10000000
00100000
,
00010000
00010000
02000000
03000000
,
00100000
10000000
01000000
10000000
,
02020000
03030000
00022000
00033000
,
00000010
00000001
00001000
00000010
,
00000220
00000330
00002002
00003003
,
00000100
00001000
00010000
00001000
,
00022000
00033000
00202000
00303000
,
01000000
00010000
00001000
00010000
,
00022000
00033000
00020020
00030030
,
00001000
00000101
00000010
00001100
,
00000001
00000110
00001000
00000110
,
00010000
00011000
00100000
10010000
,
00000000
02200000
00000000
00000000
,
00000000
00000000
03300000
00000000
,
00000000
00000000
00000000
00000000
;
#NOTES:
     dance-double:
     :
     Medium:
     11:
     :
00000000
00000000
00000000
00000000
,
00000000
00000000
00000000
00000000
,
00000000
00000000
00000000
00000000
,
00000000
00000000
00000000
00000000
,
00000000
00000000
00000000
00000000
,
00000001
00000010
00000100
00001000
00000000
00001100
00000000
00011000
,
00000000
01000000
10000000
00010000
00000000
01100000
00000000
10010000
,
00000000
00100000
10000000
01000000
00000000
00010000
00001000
00000100
,
00000010
00001000
00000100
00000000
00000010
00000001
00000010
00000001
,
00000000
00001000
00000001
00001000
00000001
00000100
00000010
00000100
,
00000000
00001000
00010000
00001000
00000000
00010000
00100000
10000000
,
00000000
00100000
00000000
00000000
01000000
00000000
00010000
00000000
00000000
00000000
10000000
00000000
01000000
00000000
00100000
00000000
,
00000000
00010000
01000000
00100000
00000000
10000000
01000000
00010000
,
00000000
00001000
00000000
00000000
00000100
00000000
00000001
00000000
00000000
00000000
00000010
00000000
00000100
00000000
00001000
00000000
,
00000000
00000010
00000100
00000001
00000000
00001000
00000010
00000100
,
00000000
00000010
00000000
00000000
00010000
00000000
00001000
00000000
00000000
00000000
00100000
00000000
00010000
00000000
10000000
00000000
,
00000000
00100000
10000000
00010000
00000000
01000000
00010000
00100000
,
00000000
01000000
00000000
00000000
10000000
00000000
00100000
00000000
00000000
00000000
00010000
00000000
00001000
00000000
00010000
00000000
,
00000000
00001000
00000100
00000001
00000000
00000010
00000000
00001100
,
00000000
00000010
00000000
00000101
00000000
00000010
00000000
00011000
,
00000000
00100000
00000000
00011000
00000000
00001000
00000000
00010000
,
00000000
00100000
00000000
10000000
00000000
00010000
00000000
10000000
,
00000000
01000000
01000000
01000000
00000000
10000000
00100000
10000000
,
00000000
01000000
00000000
00000000
00100000
00000000
00010000
00000000
00000000
00000000
10000000
00000000
00100000
00000000
01000000
00000000
,
00000000
00010000
00100000
01000000
00000000
10000000
00100000
00010000
,
00000000
00001000
00000000
00000000
00000010
00000000
00000001
00000000
00000000
00000000
00000100
00000000
00000010
00000000
00001000
00000000
,
00000000
00000100
00000010
00000001
00000000
00001000
00000100
00000010
,
00000000
00000100
00000000
00000000
00010000
00000000
00001000
00000000
00000000
00000000
01000000
00000000
00010000
00000000
10000000
00000000
,
00000000
01000000
10000000
00010000
00000000
00100000
00010000
01000000
,
00000000
00100000
00000000
00000000
10000000
00000000
01000000
00000000
00000000
00000000
00010000
00000000
00001000
00000000
00010000
00000000
,
00000000
00001000
00000010
00000001
00000000
00000010
00000010
00000001
,
00001000
00000001
00000000
00000000
00000000
00001001
00000000
00000010
,
00000000
00000100
00001000
00010000
00000000
00010010
00000000
00011000
,
00000000
01001000
00000000
00011000
00000000
00110000
00000000
10100000
,
00000000
11000000
00000000
01010000
00000000
00100000
00100000
10000000
,
00010000
10000000
00000000
00000000
00000000
10010000
00000000
00100000
,
00000000
01000000
00010000
00001000
00000000
00101000
00000000
00011000
,
00000000
00010100
00000000
00011000
00000000
00001010
00000000
00000011
,
00000000
00000101
00000000
00001100
00000000
00010010
00000000
00000110
,
00000000
00010010
00000000
00011000
00000000
00100000
00010000
01000000
,
00000000
00100000
10000000
01000000
00000000
00100000
01000000
00100000
,
01000000
00100000
00010000
01000000
00100000
20000000
00000000
00020000
,
00000000
00000000
00000000
30030000
00000000
01000000
00000000
00010000
,
00000000
00000000
00001000
00000010
00000000
00000100
00000000
00000010
,
00000000
00000000
00000001
00000100
00000000
00000001
00001000
00000100
,
00000000
00000010
00000001
00001000
00000000
00000010
00000000
00000000
,
00010000
00001000
00000000
00010000
01000000
00100000
00000000
00000000
,
00010000
01000000
00000000
00100000
00000000
10000000
00000000
00100000
,
01000000
00010000
00000000
10000000
00000000
01000000
00000000
00100000
,
01000000
00100000
00000000
00001000
00000000
00010000
00000000
00001000
,
00000100
00001000
00000000
00000010
00000000
00001000
00000000
00000000
,
00000001
00001000
00000000
00000000
00000100
00000010
00000001
00000010
,
00000100
00001000
00000000
00000001
00000000
00000001
00000000
00000100
,
00000000
00000100
00000000
00001000
00000000
00001000
00000000
00010000
,
00000000
00010000
00000000
01000000
00000000
10000000
00000000
01000000
,
00000000
00010000
00000000
01000000
00000000
10000000
00000000
00100000
,
00000000
01000000
00000000
10000000
00100000
01000000
00010000
00000000
,
01010000
00000000
00011000
00000000
00000100
00000001
00001000
00000000
,
00000110
00000000
00001001
00000000
00000010
00000001
00000100
00001000
,
00010000
00001000
00000000
00010000
00000000
00000000
01000000
00000000
,
00000000
11000000
00000000
00100000
00010000
00100000
00000000
01000000
,
10000000
01000000
00000000
10000000
00100000
10000000
00000000
00010000
,
01000000
00010000
00000000
00100000
00001000
00010000
00000000
00000000
,
00000000
00010000
00000000
00000100
00000010
00000001
00000000
00000100
,
00000010
00001000
00000000
00000001
00001000
00000100
00000000
00000000
,
00000000
00000100
00000000
00000010
00000100
00000110
00000001
00000000
,
00001000
00000000
00000010
00000000
00000001
00000000
00000000
00000010
00000000
00000000
00000100
00000000
00001000
00000000
00000000
00000000
,
00000001
00000100
00000010
00000000
00001000
00000100
00000010
00000000
,
00000001
00000000
00000100
00000000
00001000
00000000
00000000
00010000
00000000
00000000
01000000
00000000
10000000
00000000
00000000
00000000
,
00100000
01000000
00010000
00000000
00100000
01000000
10000000
00000000
,
00010000
00000000
00100000
00000000
01000000
00000000
00000000
00100000
00000000
00000000
00001000
00000000
00010000
00000000
00100000
00000000
,
00010000
00000000
00000000
00010000
00000000
00000000
00010000
00000000
00001000
00000000
00000000
00001000
00000000
00000000
00001000
00000000
,
00000100
00000000
00000001
00000000
00001000
00000000
00000000
00000100
00000000
00000000
00000010
00000000
00000001
00000000
00000100
00000000
,
00001000
00000000
00000000
00001000
00000000
00000000
00001000
00000000
00010000
00000000
00000000
00010000
00000000
00000000
00010000
00000000
,
00001000
00000000
00010000
00000000
01000000
00000000
00000000
00100000
00000000
00000000
00010000
00000000
10000000
00000000
00100000
00000000
,
01000000
00000000
00000000
01000000
00000000
00000000
01000000
00000000
00001000
00000000
00000000
00001000
00000000
00000000
00001000
00000000
,
00010000
00000000
00100000
00000000
10000000
00000000
00000000
01000000
00000000
00000000
00100000
00000000
00010000
00000000
01000000
00000000
,
00100000
00000000
00000000
00100000
00000000
00000000
00100000
00000000
01000000
00000000
00000000
01000000
00000000
00000000
01000000
00000000
,
00001000
00010000
00001000
00000000
00100000
00010000
00100000
00000000
,
00001000
01000000
00001000
00000000
00010000
00001000
00010000
00000000
,
00000010
00000100
00000010
00000000
00001000
00000001
00001000
00000000
,
00000000
00000220
00000000
00000000
,
00000000
00000000
00000330
00000000
,
00000000
00000000
00000000
00000000
;
#NOTES:
     dance-double:
     :
     Hard:
     14:
     :
00000000
00000000
00000000
00000000
,
00000000
00000000
00000000
00000000
,
00000000
00000000
00000000
00000000
,
00000000
00000000
00000000
00000000
,
00000000
00000000
00000000
00000000
,
10000000
01000000
00100000
00010000
00000000
00011000
00000000
00001100
,
00000000
00000010
00000001
00001000
00000000
00001010
00000000
00000101
,
00000000
00001000
00000001
00000010
00000000
00001000
00010000
00100000
,
10000000
01000000
00100000
01000000
10000000
00010000
01000000
00100000
,
00000000
00000000
00110000
00000000
00011000
00000000
00001100
00000000
00000011
00000000
00001000
00000001
00001000
00000001
00001000
00000000
,
00000000
00000000
00000010
00000100
00000010
00000100
00000010
00000000
00000000
00000000
00001000
00000000
00000100
00000000
00000010
00000100
,
00000000
00000010
00000100
00000000
00010000
00000000
00001000
00000000
00100000
00000000
00010000
00000000
01000000
00000000
00100000
00000000
,
10000000
00000000
01000000
00000000
00100000
00000000
00010000
00000000
10000000
00000000
00010000
00000000
01000000
00000000
00100000
01000000
,
00000000
00100000
01000000
00000000
00001000
00000000
00010000
00000000
00000100
00000000
00010000
00000000
00001000
00000000
00000010
00000000
,
00001000
00000000
00010000
00000000
00001000
00000000
00000100
00000000
00000000
00000000
00000001
00000000
00001000
00000000
00000010
00000100
,
00000000
00000010
00000100
00000000
00000001
00000000
00000010
00000000
00001000
00000000
00010000
00000000
01000000
00000000
10000000
00000000
,
00100000
00000000
01000000
00000000
00010000
00000000
00100000
00000000
01000000
00000000
10000000
00000000
00010000
00000000
00100000
01000000
,
00000000
00100000
01000000
00000000
10000000
00000000
00100000
00000000
00010000
00000000
00001000
00000000
00000100
00000000
00000001
00000000
,
00000010
00000100
00001000
00000010
00000000
00000100
00000000
00000101
,
00000000
00000010
00000000
00001010
00000000
00010000
00000000
00011000
,
00000000
00100000
00000000
01100000
00000000
10000000
00000000
11000000
,
00000000
00110000
00000000
01010000
00000000
10100000
00000000
00110000
,
00000000
00000000
00101000
00000000
00110000
00000000
00101000
00000000
00000000
00000000
00010000
00000000
01000000
00000000
00100000
01000000
,
00000000
00100000
01000000
00000000
00001000
00000000
00010000
00000000
00000010
00000000
00001000
00000000
00000100
00000000
00000010
00000000
,
00000001
00000000
00000100
00000000
00000010
00000000
00001000
00000000
00000001
00000000
00001000
00000000
00000100
00000000
00000010
00000100
,
00000000
00000010
00000100
00000000
00010000
00000000
00001000
00000000
01000000
00000000
00001000
00000000
00010000
00000000
00100000
00000000
,
00010000
00000000
00001000
00000000
00010000
00000000
01000000
00000000
00000000
00000000
10000000
00000000
00010000
00000000
00100000
01000000
,
00000000
00100000
01000000
00000000
10000000
00000000
00100000
00000000
00010000
00000000
00001000
00000000
00000100
00000000
00000001
00000000
,
00000010
00000000
00000100
00000000
00001000
00000000
00000010
00000000
00000100
00000000
00000001
00000000
00001000
00000000
00000010
00000100
,
00000000
00000010
00000100
00000000
00000001
00000000
00000010
00000000
00001000
00000000
00010000
00000000
01000000
00000000
10000000
00000000
,
00100000
01000000
00010000
00100000
00000000
01000000
01000000
00100000
,
01000000
01100000
00000000
00000000
00000000
10010000
00000000
00100000
,
01000000
00000000
00001000
00000000
00010000
00000000
00000100
00000000
00001000
00000000
00001100
00000000
00000000
00000100
00010000
00000000
,
00000000
00010000
00001000
00000000
00000000
00001000
00000010
00000000
00000000
00000010
00000001
00000000
00000000
00000001
00000100
00000000
,
00000000
00000100
00001000
00000000
00000000
00001000
00010000
00000000
00000000
00010000
00001000
00000000
00001000
00000000
00010000
00000000
,
00001000
00011000
00000000
00000000
00000000
01100000
00000000
10000000
,
00010000
00000000
00100000
00000000
01000000
00000000
10000000
00000000
00100000
00000000
10100000
00000000
00000000
00100000
00010000
00000000
,
00000000
00010000
00001000
00000000
00000000
00001000
00000010
00000000
00000000
00000010
00000001
00000000
00000000
00000001
00000100
00000000
,
00000000
00000100
00001000
00000000
00000000
00001000
00010000
00000000
00000000
00010000
01000000
00000000
00000000
01000000
10000000
00000000
,
00000000
10000000
00100000
00000000
00000000
00100000
00010000
00000000
00000000
00010000
00001000
00000000
00010000
00000000
00100000
00000000
,
00010000
00001000
00010000
00100000
00010000
00001000
00000010
00000001
,
00001000
00000010
00000100
00000001
00000010
00000200
00000000
00002000
,
00000000
00000000
00000000
00003300
00000000
00000100
00000000
00000001
,
00000000
00000000
00000010
00001000
00010000
00100000
00000000
10000000
,
00000000
00000000
00100000
00010000
00001000
00000010
00000001
00001000
,
00000001
00000100
00000001
00000010
00001000
00010000
00000000
00000000
,
00001000
00010000
00001000
00000000
01000000
00000000
00010000
00000000
10000000
00000000
00100000
00000000
00000000
00000000
00000000
00000000
,
10000000
01000000
00010000
00001000
00000010
00000001
00000000
00001000
,
00000010
00000100
00000001
00001000
00000001
00000100
00000000
00000010
,
00000000
00000100
00001000
00010000
00100000
10000000
00000000
00010000
,
00000000
00000000
01000000
00000000
00100000
00000000
10000000
00000000
00010000
00000000
10000000
00000000
00000000
00000000
00000000
00100000
,
01000000
00100000
01000000
00000000
00000000
00000000
00000000
00010000
10000000
00010000
10000000
00000000
00010000
00000000
01000000
00000000
,
00001000
00011000
00000000
00000100
00000000
00000100
00000000
00000001
,
00000000
00000001
00000000
00000010
00000000
00000010
00000000
00001000
,
00000000
00001000
00000000
00010000
00000000
00010000
00000000
00100000
,
00000000
00100000
00000000
10000000
01000000
00100000
00010000
00001000
,
00000100
00000010
00000001
00001000
00000010
00000100
00000010
00000000
,
00001100
00000000
00000101
00000000
00000010
00000100
00001000
00000000
,
00011000
00000000
00110000
00000000
00001000
00010000
00000010
00001000
,
00010000
01000000
00100000
10000000
01000000
10000000
01000000
00100000
,
01000000
00000000
00100000
00000000
00010000
00000000
01000000
00010000
01000000
00010000
01000000
00000000
00000000
00000000
00001000
00010000
,
00001000
00010000
00001000
00000000
00000000
00000000
00010000
00000010
00010000
00000010
00010000
00000000
00000000
00000000
00000010
00000100
,
00000010
00000100
00000010
00000000
00000000
00000000
00001000
00000000
00000100
00000000
00000010
00000100
00000000
00000010
00000000
00000000
,
00000001
00000100
00000010
00000100
00001000
00010000
01000000
10000000
,
00010000
00000000
01000000
00000000
00000000
00000000
00100000
00000000
10000000
00000000
00010000
01000000
00000000
00100000
00000000
00000000
,
10000000
00000000
01000000
00000000
00100000
00000000
00010000
00000000
00001000
00000000
00011000
00000000
00000010
00001000
00000010
00001000
,
00000010
00000000
00000100
00000000
00000010
00000100
00000000
00000010
00000100
00000000
00000001
00000000
00001000
00000000
00000100
00000000
,
00000010
00001000
00010000
01000000
00100000
00010000
01000000
00100000
,
10000000
00000000
01000000
00000000
00100000
01000000
00000000
00100000
01000000
00000000
10000000
00000000
01000000
00000000
00100000
00000000
,
00001000
00010000
01000000
00010000
00001000
00000100
00000001
00000000
,
00001000
00000000
00000001
00000000
00000010
00000001
00000000
00000010
00000100
00000000
00001000
00000000
00010000
00000000
00100000
00000000
,
01000000
00000000
10000000
00100000
00000000
10000000
00010000
00000000
01000000
00000000
00100000
10000000
00000000
00100000
01000000
00000000
,
00010000
00000000
00100000
00000000
00001000
00010000
00000000
00001000
00010000
00000000
00000100
00000000
00001000
00000000
00000010
00000000
,
00000100
00000000
00000010
00001000
00000000
00000001
00000010
00000000
00000100
00000000
00001000
00000001
00000000
00000100
00000010
00000000
,
00000100
00000000
00001000
00000000
00010000
00001000
00000000
00010000
00100000
00000000
10000000
00000000
00010000
00000000
01000000
00000000
,
00100000
00000000
10000000
01000000
00000000
00100000
00010000
00000000
10000000
00000000
01000000
00010000
00000000
00001000
00010000
00000000
,
00001000
00000000
00000100
00000000
00000010
00000100
00000000
00000001
00000100
00000000
00000010
00000000
00001000
00000000
00000100
00000000
,
00000010
00000000
00000100
00001000
00000000
00000001
00000100
00000000
00000010
00000000
00001000
00000100
00000000
00010000
00001000
00000000
,
00100000
00010000
00100000
00010000
00100000
00000000
00000000
00000000
00001000
01000000
00001000
01000000
00001000
00000000
00000000
00000000
,
00010000
00000010
00010000
00000010
00010000
00000000
00000000
00000000
00000100
00001000
00000100
00001000
00000100
00000000
00000000
00000000
,
00010000
00001000
00010000
00001000
00010000
00000000
00000000
00000000
00100000
01000000
00100000
01000000
00100000
00000000
00000000
00000000
,
00000000
20020000
00000000
00000000
,
00000000
00000000
30030000
00000000
,
00000000
00000000
00000000
00000000
;
#NOTES:
     dance-double:
     :
     Challenge:
     15:
     :
00000000
00000000
00000000
00000000
,
00000000
00000000
00000000
00000000
,
00000000
00000000
00000000
00000000
,
00000000
00000000
00000000
00000000
,
00000000
00000000
00000000
00000000
,
00000001
00000010
00000100
00001000
00000000
00011000
00000000
00110000
,
00000000
01000000
10000000
00010000
00000000
01010000
00000000
10100000
,
00000000
00010000
10000000
01000000
00000000
00010000
00001000
00000100
,
00000001
00000000
00000010
00000000
00000100
00000000
00001000
00000000
00000001
00000100
00000010
00001000
00000100
00000010
00000001
00000100
,
00000000
00000000
00001100
00000000
00011000
00000000
00110000
00000000
11000000
00000000
00010000
10000000
01000000
10000000
00010000
00000000
,
00000000
00000000
01000000
00100000
10000000
00100000
01000000
00000000
00000000
00000000
00010000
00000000
00100000
00000000
01000000
00100000
,
00000000
01000000
00100000
00000000
00001000
00000000
00010000
00000000
00000100
00000000
00001000
00000000
00000010
00000000
00000100
00000000
,
00000001
00000000
00000010
00000000
00000100
00000000
00001000
00000000
00000001
00000000
00001000
00000000
00000010
00000000
00000100
00000010
,
00000000
00000100
00000010
00000000
00010000
00000000
00001000
00000000
00100000
00000000
00001000
00000000
00010000
00000000
01000000
00000000
,
00010000
00000000
00001000
00000000
00010000
00000000
00100000
00000000
00000000
00000000
10000000
00000000
00010000
00000000
01000000
00100000
,
00000000
01000000
00100000
00000000
10000000
00000000
01000000
00000000
00010000
00000000
00001000
00000000
00000010
00000000
00000001
00000000
,
00000100
00000000
00000010
00000000
00001000
00000000
00000100
00000000
00000010
00000000
00000001
00000000
00001000
00000000
00000100
00000010
,
00000000
00000100
00000010
00000000
00000001
00000000
00000100
00000000
00001000
00000000
00010000
00000000
00100000
00000000
10000000
00000000
,
01000000
00100000
00010000
01000000
00000000
00100000
10000000
10100000
,
00000000
01000000
00010000
01010000
00000000
00001000
00010000
00011000
,
00000000
00000100
00000010
00000110
00000000
00000001
00000010
00000011
,
00000000
00001100
00000000
00001010
00000000
00000101
00000000
00001100
,
00000000
00000000
00010100
00000000
00001100
00000000
00010100
00000000
00000000
00000000
00001000
00000000
00000010
00000000
00000100
00000010
,
00000000
00000100
00000010
00000000
00010000
00000000
00001000
00000000
01000000
00000000
00010000
00000000
00100000
00000000
01000000
00000000
,
10000000
00000000
00100000
00000000
01000000
00000000
00010000
00000000
10000000
00000000
00010000
00000000
00100000
00000000
01000000
00100000
,
00000000
01000000
00100000
00000000
00001000
00000000
00010000
00000000
00000010
00000000
00010000
00000000
00001000
00000000
00000100
00000000
,
00001000
00000000
00010000
00000000
00001000
00000000
00000010
00000000
00000000
00000000
00000001
00000000
00001000
00000000
00000100
00000010
,
00000000
00000100
00000010
00000000
00000001
00000000
00000100
00000000
00001000
00000000
00010000
00000000
00100000
00000000
10000000
00000000
,
01000000
00000000
00100000
00000000
00010000
00000000
01000000
00000000
00100000
00000000
10000000
00000000
00010000
00000000
01000000
00100000
,
00000000
01000000
00100000
00000000
10000000
00000000
01000000
00000000
00010000
00000000
00001000
00000000
00000010
00000000
00000001
00000000
,
00000100
00000010
00001000
00000100
00000000
00000110
00000110
00000110
,
00000110
00000110
00000000
00000000
00000000
00001001
00000000
00000100
,
00000010
00000000
00010000
00000000
00001000
00000000
00100000
00000000
00010000
00000000
00110000
00000000
00000000
00100000
00001000
00000000
,
00000000
00001000
00010000
00000000
00000000
00010000
01000000
00000000
00000000
01000000
10000000
00000000
00000000
10000000
00100000
00000000
,
00000000
00100000
00010000
00000000
00000000
00010000
00001000
00000000
00000000
00000000
00011000
00000000
00011000
00000000
00011000
00000000
,
00011000
00011000
00000000
00000000
00000000
00000110
00000000
00000001
,
00001000
00000000
00000100
00000000
00000010
00000000
00000001
00000000
00000100
00000000
00000101
00000000
00000000
00000100
00001000
00000000
,
00000000
00001000
00010000
00000000
00000000
00010000
01000000
00000000
00000000
01000000
10000000
00000000
00000000
10000000
00100000
00000000
,
00000000
00100000
00010000
00000000
00000000
00010000
00001000
00000000
00000000
00001000
00000010
00000000
00000000
00000010
00000001
00000000
,
00000000
00000001
00000100
00000000
00000000
00000100
00001000
00000000
00000000
00001000
00010000
00000000
00001000
00000000
00000100
00000000
,
00001000
00010000
00001000
00000100
00001000
00010000
01000000
10000000
,
00010000
00000000
01000000
00100000
10000000
01000000
00100000
00010000
01000000
00100000
20000000
00000000
00000000
00000000
00020000
00000000
,
00000000
00000000
00000000
30030000
00000000
00100000
00000000
10000000
,
00000000
00000000
01000000
00010000
00001000
00000100
00000000
00000010
,
00000000
00000000
00000100
00001000
00010000
01000000
10000000
01000000
,
00100000
01000000
00010000
01000000
00100000
00001000
00000000
00000000
,
00010000
00001000
00010000
00000000
00000010
00000000
00001000
00000000
00000001
00000000
00000100
00000000
00000000
00000000
00000000
00000000
,
00000001
00000010
00001000
00010000
01000000
10000000
00000000
00010000
,
01000000
00100000
10000000
10000000
00010000
00010000
00100000
01000000
,
10000000
00100000
01000000
01000000
00010000
00010000
00001000
00000010
,
00000100
00000000
00000001
00000000
00000010
00000000
00000001
00000000
00001000
00000000
00000001
00000000
00000000
00000000
00000000
00001000
,
00000100
00001000
00000001
00000000
00000000
00000000
00000000
00000100
00000010
00000100
00000001
00001000
00000100
00010000
00001000
00100000
,
00010000
01000000
00010000
00000000
00000000
00000000
00100000
00000000
00000000
00000000
00100000
00000000
00000000
00000000
10000000
00000000
,
00000000
10000000
00000000
01000000
00000000
01000000
00000000
00010000
,
00000000
00010000
00000000
00001000
00000000
00001000
00000000
00000100
,
00000000
00000100
00000000
00000001
00000010
00000100
00001000
00000010
,
00000100
00000001
00001000
00000001
00000010
00000100
00001000
00000000
,
00011000
00000000
00110000
00000000
01000000
10000000
00010000
00000000
,
01010000
00000000
10100000
00000000
00010000
10000000
01000000
00010000
,
00001000
00000100
00000001
00001000
00001000
00001000
00000010
00000010
,
00000010
00000000
00000100
00000000
00000010
00000000
00010000
00000010
00001000
00000010
00010000
00000000
00000000
00000000
00001000
00100000
,
00010000
00100000
00001000
00000000
00000000
00000000
00010000
00000100
00001000
00000100
00010000
00000000
00000000
00000000
00001000
01000000
,
00010000
01000000
00001000
00000000
00000000
00000000
00010000
00000000
00001000
00000000
00010000
00001000
00000000
01000000
00000000
00000000
,
00100000
10000000
01000000
00100000
00010000
00100000
00010000
00001000
,
00000010
00000000
00001000
00000000
00000000
00000000
00000001
00000000
00001000
00000000
00000100
00001000
00000000
00000100
00000000
00000000
,
00000010
00000000
00000001
00000000
00001000
00000000
00001010
00000000
00011000
00000000
01010000
00000000
00100000
01000000
00100000
01000000
,
00010000
00000000
00100000
00000000
01000000
00100000
00000000
01000000
00100000
00000000
00001000
00000000
00010000
00000000
00000100
00000000
,
00001000
00000010
00000100
00000001
00000010
00000100
00001000
00000001
,
00001000
00000000
00000010
00000000
00000100
00000010
00000000
00000100
00000010
00000000
00010000
00000000
00001000
00000000
00100000
00000000
,
00001000
00010000
01000000
00010000
00001000
00010000
00100000
10000000
,
00010000
00000000
10000000
00000000
01000000
10000000
00000000
01000000
00100000
00000000
00010000
00000000
00001000
00000000
00000100
00000000
,
00000010
00000000
00000001
00000100
00000000
00000001
00001000
00000001
00000010
00000000
00000100
00001000
00000000
00000001
00000100
00000010
,
00001000
00000000
00000100
00000000
00010000
00001000
00000000
00010000
00001000
00000000
00100000
00000000
00010000
00000000
01000000
00000000
,
00100000
00000000
01000000
00010000
00000000
10000000
01000000
00100000
00010000
00000000
10000000
00010000
00000000
01000000
00010000
00000000
,
00100000
00000000
00001000
00000000
00000100
00000010
00000000
00001000
00000010
00000000
00000100
00000000
00000010
00000000
00001000
00000000
,
00000100
00000000
00000010
00000001
00000000
00001000
00000010
00001000
00000001
00000000
00000100
00000010
00000000
00010000
00001000
00010000
,
00001000
00000000
00100000
00000000
00010000
00100000
00000000
00010000
10000000
00000000
00100000
00000000
01000000
00000000
00010000
00000000
,
10000000
00000000
01000000
00100000
00000000
00010000
00100000
00010000
01000000
00000000
00100000
01000000
00000000
00100000
10000000
00000000
,
00010000
10000000
01000000
10000000
00010000
00000000
00000000
00000000
01000000
00001000
00010000
00001000
01000000
00000000
00000000
00000000
,
00001000
00010000
00000010
00010000
00001000
00000000
00000000
00000000
00010000
00000010
00001000
00000010
00010000
00000000
00000000
00000000
,
00000010
00001000
00000100
00000010
00000001
00000000
00000000
00000000
00000100
00000010
00010000
00001000
01000000
00010000
10000000
00100000
,
00000000
02200000
00000000
00000000
,
00000000
00000000
03300000
00000000
,
00000000
00000000
00000000
00000000
;
