
//----- song id: home
#TITLE:ホメ猫☆センセーション;
#ARTIST:P*Light feat. mow*2;
#TITLETRANSLIT:Homeneko☆sensation;
#BANNER:Homeneko sensation.png;
#BACKGROUND:Homeneko sensation-bg.png;
#CDTITLE:./CDTitles/DDR (2014).png;
#MUSIC:Homeneko sensation.ogg;
#SAMPLESTART:54.898;
#SAMPLELENGTH:15;
#BPMS:0=200;
#BGCHANGES:-1=Homeneko sensation.avi=1=0=0=0;
#NOTES:
     dance-single:
     :
     Beginner:
     4:
     :
0000
0000
0000
0000
,
0000
0000
0000
0000
,
0000
0000
0000
0000
,
0000
0000
0000
0000
,
0000
0000
0000
0000
,
0000
0000
0000
0000
,
1000
0000
0000
0000
,
0001
0000
0000
0000
,
1001
0000
0000
0000
,
0010
0000
0000
0000
,
1000
1000
0000
0100
,
0000
0001
0000
0100
,
0000
1000
0000
0000
,
0001
0001
0001
0000
,
1000
0000
0000
0000
,
1000
1000
1000
0000
,
0001
0000
0000
0000
,
0010
0000
0000
0000
,
0000
0000
0000
0000
,
1000
1000
1000
0000
,
1000
0000
0000
0000
,
0001
0001
0001
0000
,
1000
0000
0000
0000
,
0100
0000
0000
0000
,
0001
0001
0001
0000
,
1000
1000
1000
0000
,
1000
0000
0000
0000
,
0001
0001
0001
0000
,
0001
0000
0000
0000
,
1000
1000
1000
0000
,
0001
0000
0000
0000
,
0100
0000
0000
0000
,
1000
1000
1000
0000
,
0001
0000
0001
0000
,
1000
0000
0000
0000
,
0100
0100
0000
0000
,
0001
0000
0000
0000
,
0100
0100
0100
0000
,
0001
0000
0001
0000
,
1000
0000
1000
0000
,
0001
0000
0001
0000
,
0002
0000
0000
0003
,
1000
1000
1000
0000
,
0001
0001
0001
0000
,
1001
0000
0000
0000
,
0000
0000
0000
0000
,
0001
0000
0010
0000
,
0001
0001
0001
0000
,
1000
0000
0010
0000
,
1000
1000
1000
0000
,
0001
0000
0000
0000
,
0010
0000
0000
0000
,
1000
0000
0100
0000
,
0010
0000
0001
0000
,
1000
0000
0010
0000
,
1000
1000
1000
0000
,
0001
0000
0010
0000
,
0001
0001
0001
0000
,
1000
0000
0000
0000
,
0010
0000
0000
0000
,
0001
0000
0100
0000
,
0010
0000
1000
0000
,
0001
0000
0001
0000
,
0001
0001
0001
0000
,
0001
0001
0000
0100
,
0000
1000
0000
0100
,
0000
0001
0000
0100
,
0000
1000
0000
0010
,
0000
1000
0000
0100
,
0000
0001
0000
0100
,
0000
1000
0000
0001
,
0001
0000
0000
0000
,
0002
0000
0000
0003
,
0020
0000
0000
0030
,
0200
0000
0000
0300
,
2000
0000
0000
3000
,
0001
0000
0000
0000
,
0100
0000
0000
0000
,
0010
0010
0010
0010
,
0010
0000
0000
0000
,
0001
0000
0010
0000
,
0001
0001
0001
0000
,
1000
0000
0010
0000
,
1000
1000
1000
0000
,
0001
0000
0000
0000
,
0010
0000
0000
0000
,
1000
0000
0100
0000
,
0010
0000
0001
0000
,
1000
1000
1000
1000
,
1000
0000
0000
0000
,
1000
1000
0000
0100
,
0000
0001
0000
0100
,
0000
1000
0000
0001
,
0001
0001
0001
0000
,
1000
0000
0000
0000
,
1000
1000
1000
0000
,
0010
0000
0000
0000
,
0010
0010
0010
0010
,
0010
0000
0000
0000
,
0000
0000
0000
0000
;
#NOTES:
     dance-single:
     :
     Easy:
     6:
     :
0000
0000
0000
0000
,
0000
0000
0000
0000
,
0000
0000
0000
0000
,
0000
0000
0000
0000
,
0000
0000
0000
0000
,
0000
0000
0000
0000
,
0010
1000
0010
0000
,
0010
0001
0010
0000
,
1001
0000
0000
0000
,
0010
0000
0000
0000
,
1000
1000
0000
0100
,
0000
0001
0000
0100
,
0000
1000
0000
0100
,
0001
0001
0001
0000
,
1000
0000
0000
0000
,
1000
1000
0100
0000
,
0001
0000
0000
0000
,
0010
0000
0010
0000
,
0001
0000
0001
0000
,
1000
1000
0010
0000
,
1000
0000
0001
0000
,
0001
0001
0100
0000
,
1000
0000
0000
0000
,
0100
0000
0000
0000
,
0001
0001
0001
0000
,
1000
0100
1000
0000
,
1000
0000
0000
0000
,
0001
0001
0010
0000
,
0001
0000
0000
0000
,
1000
1000
0100
0000
,
0001
0000
0000
0000
,
0100
0000
0000
0000
,
1000
0100
1000
0000
,
0001
0100
0001
0000
,
1000
0010
0000
0000
,
0100
0010
0100
0000
,
0001
0000
0000
0100
,
0100
0100
0100
0000
,
0001
0001
0001
0001
,
1000
1000
1000
1000
,
0010
0001
0001
0001
,
0002
0000
0000
0003
,
1000
0000
0001
0000
,
1000
0100
0001
0100
,
1000
0001
1000
0000
,
1001
0000
0000
0000
,
0001
0001
0010
0000
,
0001
0010
0001
1000
,
0100
0000
0010
0000
,
0001
1000
0001
0000
,
0001
0000
0000
0000
,
0010
0000
0000
0000
,
1000
0000
0100
0000
,
0010
0000
0001
0000
,
1000
1000
0010
0000
,
1000
0010
1000
0001
,
0100
0000
0010
0000
,
1000
0001
1000
0000
,
1000
0000
0000
0000
,
0010
0000
0000
0000
,
0001
0000
0100
0000
,
0010
0000
1000
0000
,
0001
0000
1000
0000
,
0001
1000
0001
0000
,
0001
0001
0000
0100
,
0000
1000
0000
0100
,
0000
0001
0000
0100
,
1000
0100
0001
0100
,
0000
1000
0000
0100
,
0000
0001
0000
0100
,
0000
1000
0000
0001
,
0100
0000
0000
0000
,
0002
0000
0000
0000
,
0023
0000
0000
0000
,
0230
0000
0000
0000
,
2300
0000
0000
0000
,
3001
0000
0000
0000
,
0110
0000
0000
0000
,
0010
0100
0010
0100
,
0010
0000
0000
0000
,
0001
0001
0010
0000
,
0001
0010
0001
1000
,
0100
0000
0010
0000
,
0001
1000
0001
0000
,
0001
0000
0000
0000
,
0010
0000
0000
0000
,
1000
0000
0100
0000
,
0010
0000
0001
0000
,
0001
0001
0001
0001
,
0001
0000
0000
0000
,
1000
1000
0000
0100
,
0000
0001
0000
0100
,
0000
1000
0000
0100
,
0001
0100
1000
0100
,
0000
0001
0000
0100
,
0000
1000
0000
0100
,
0000
0001
0000
1000
,
0010
0010
0100
0100
,
0100
0000
0000
0000
,
0000
0000
0000
0000
;
#NOTES:
     dance-single:
     :
     Medium:
     10:
     :
0000
0000
0000
0000
,
0000
0000
0000
0000
,
0001
0000
1100
0000
,
1000
0001
0100
0001
,
0001
0000
1000
0000
,
0100
0000
1000
0000
,
1001
0000
0001
0000
0001
0000
0000
0110
,
0000
1000
1000
0100
,
0001
0000
0000
0110
0000
0000
0011
0000
,
1100
0000
0000
0000
,
1000
0100
1000
0001
,
0100
0000
0001
0000
0010
0100
0010
0000
,
0001
1000
0100
1000
,
0011
0000
0011
0000
0001
0100
0100
0000
,
0001
0010
0001
1000
,
0100
1000
0200
0001
,
0000
0010
0000
1300
,
2002
0000
0000
3003
0000
1000
0001
0000
,
0010
0001
1000
0100
,
1000
0001
0010
0100
,
1000
0000
0001
0000
0010
0001
0000
1000
,
0000
0100
1000
0001
,
0010
0010
0001
0001
,
0010
0010
1000
1000
,
0001
0100
1000
0100
,
1100
0101
1100
0000
,
0010
1000
0001
0100
,
0001
1000
0010
0100
,
0001
0001
1000
0000
0010
0000
1000
0000
,
0001
0100
0001
1000
,
0010
0010
1000
1000
,
0010
0010
1000
1000
,
1000
0100
0001
0100
,
1000
0000
0000
0100
0000
0000
1000
0000
,
0001
0000
1100
0000
,
1000
0100
1000
0000
,
0001
0000
1100
0000
,
0101
1100
0101
0000
,
0001
0000
0010
0000
0100
0000
1000
0100
,
1000
0100
0010
0001
,
0010
0001
0100
1000
,
0010
0001
0100
1000
,
0001
1000
0001
1000
,
0010
0001
0100
1000
,
0010
0000
0010
0000
1000
0001
0000
0100
,
0000
0000
0000
0000
,
0010
1100
1000
0100
,
1000
0001
0010
0001
,
0010
0001
1000
0100
,
1000
0001
0100
0001
,
1000
0000
0100
0000
1000
0000
0001
0010
,
0000
0001
1000
0100
,
1000
0000
0100
0100
0000
1000
0000
0001
,
0000
0010
0001
0000
0100
0000
0100
0000
,
0010
0101
0001
0100
,
0001
1000
0010
1000
,
0010
1000
0001
0100
,
0001
1000
0100
1000
,
0001
0100
0001
1000
,
0100
1000
0001
0100
,
0001
0000
0100
0100
0000
0001
0000
1000
,
0100
0000
0000
0000
,
1001
0000
0110
0000
,
1100
0101
1100
0000
,
0010
0001
0010
1000
,
0010
0000
0001
0000
0010
0001
0100
0000
,
0010
1000
0010
0001
,
0010
0000
1000
0000
0010
1000
0100
0000
,
0010
0001
0010
1000
,
0010
0000
0001
0000
0010
0001
0100
0000
,
0001
0000
1000
0100
0000
1000
0000
0100
,
1000
0000
0000
0000
0001
0010
0100
0000
,
0020
0000
0001
0000
,
0100
0000
1000
0030
,
0200
0000
0000
0000
,
0001
0000
0010
0300
,
1100
0000
1000
0000
1000
0000
1000
0100
,
0000
1000
0001
1000
,
0001
0000
0000
0100
0000
0001
0000
0010
,
0000
0000
0000
0000
1000
0001
1000
0000
,
0010
0101
0001
0100
,
0001
1000
0010
1000
,
0010
1000
0001
0100
,
0001
1000
0100
1000
,
0001
0100
0001
1000
,
0010
1000
0001
0100
,
0001
0000
0100
0001
0000
0010
0000
0001
,
1000
0000
0100
1000
0000
0010
0000
1000
,
0000
0001
1000
0100
1000
0100
1000
0100
,
0000
0000
0000
0000
,
0010
0001
1000
0100
,
1000
0001
0100
0001
,
1000
0100
1000
0001
,
1100
0101
1100
0000
,
1000
0100
1000
0000
0100
0000
1000
0000
,
0010
1000
0010
1000
0010
1000
0010
1000
,
0001
0000
0110
0000
,
0000
1000
0001
1000
0001
1000
0010
0100
,
0000
0000
0000
0000
;
#NOTES:
     dance-single:
     :
     Hard:
     13:
     :
0000
0000
0000
0000
,
0000
0000
0000
1000
,
0011
0000
0000
0000
1100
0000
0000
0010
,
0001
0010
0001
1000
0100
1000
0010
0100
,
0001
0000
0000
1000
0100
0000
0000
0000
,
1000
0001
0010
0001
,
1100
0000
0010
0100
0000
0001
1000
0100
,
1000
0000
1000
0000
1000
0100
1000
0000
,
0011
0000
0000
0110
0000
0000
0011
0000
,
1100
0000
0001
0000
1000
0100
1000
0001
,
1000
0100
1000
0020
0000
0000
0130
0000
,
0001
0010
0100
1000
0100
0000
0010
0000
,
0001
0100
0001
0020
0000
0000
0130
0000
,
1100
0000
0011
0000
0110
0100
0010
0000
,
0001
0010
0001
1000
0000
1000
0100
0010
,
0001
0010
0001
0010
0001
0100
0010
2000
,
0000
0000
3010
0000
,
1000
0010
0100
0001
0010
0100
0001
0000
,
0100
0000
1000
0000
0001
0100
0001
0010
,
0000
0001
1000
0100
1000
0000
0101
0000
,
1000
0000
0001
0100
0010
1000
0100
2000
,
0000
0100
0100
3100
,
1000
0000
0011
0000
0011
0000
1000
0100
,
1000
0000
0010
0100
0001
0010
0001
0000
,
0200
0010
0010
0000
,
1000
0010
0001
0300
,
0011
0000
1000
0000
0010
0100
0001
0010
,
0001
0010
0001
0010
0000
0001
0010
0100
,
1000
0100
1000
0001
0010
0001
0000
1000
,
0000
0001
0000
0100
0000
0001
0000
0000
,
1000
0100
1000
0000
0001
0100
0001
0000
,
0110
0000
1000
0000
0001
0010
0001
0000
,
0011
0100
1100
0000
,
0100
0000
0010
0001
0010
0001
0100
0000
,
1000
0000
0000
0100
1000
0010
0000
0100
,
0000
0010
0100
0010
0001
1000
0001
0010
,
0100
1000
0100
1000
0001
0010
0100
1000
,
1100
0000
0011
0000
1001
0000
1000
0001
,
0010
0000
0010
0000
0010
0100
0010
0001
,
0000
1000
0100
1000
0001
0010
0001
0000
,
1000
0100
0001
0010
,
1001
0000
0001
0010
0100
1000
0100
0010
,
0001
1000
0010
0000
0100
0000
0001
0000
,
0100
0000
0010
0000
1000
0001
0010
0000
,
0110
0000
0110
0000
0001
1000
0000
0100
,
0000
1000
0100
0010
0001
0000
1001
0000
,
0001
0000
1100
0000
0001
0010
0100
1000
,
0100
1000
0100
1000
0001
0010
0001
1000
,
0010
0100
0001
0000
0010
0100
0010
0000
,
0001
0100
0001
1000
0100
0010
0001
0000
,
1000
0000
0100
1000
0000
0001
0000
1000
,
0000
0100
1000
0100
1000
0001
0010
0001
,
0011
0000
0001
0100
0000
0110
0000
1100
,
0000
0001
0100
0000
0001
1000
0001
0000
,
1000
0000
0101
0000
1000
0010
0100
0001
,
0100
0001
0100
0001
1000
0010
1000
0001
,
0010
0000
0001
0100
0000
0010
0100
0001
,
1000
0100
1000
0001
0100
0010
1000
0000
,
0001
0000
1000
0001
0000
0000
0000
1000
,
0010
0100
0001
0100
0001
1000
0010
1000
,
1010
0000
1000
0100
0000
0110
0000
0101
,
0000
1000
0100
1000
0010
0100
0001
0010
,
0001
1100
0011
1100
,
0001
0010
0001
0010
0100
0000
0110
0000
,
1000
0000
0010
0100
0000
0001
0000
1000
,
0100
1000
0100
1000
0001
0010
0001
0010
,
0100
0000
0010
0001
0000
0010
0000
0001
,
0100
0001
0000
0100
0000
0001
1000
0000
,
0001
0000
0010
0100
0000
1000
0000
0001
,
0010
0000
0001
0100
0000
0010
1000
0010
,
0100
0000
0010
1000
0000
0010
0000
1000
,
1100
0000
0000
0000
0001
0010
0001
0000
,
0020
0001
0000
0100
,
0000
1000
0000
0130
,
1000
0000
0000
0100
1000
0000
0000
0000
,
0011
0000
0000
0000
1000
0100
0010
0001
,
0010
0000
0010
0100
0000
0010
0100
0010
,
0000
0001
0010
0001
1000
0100
1000
0100
,
1100
0000
0000
0110
0000
0011
0000
0001
,
0010
0100
1000
0000
0001
0010
0001
0000
,
1000
0000
0101
0000
1000
0010
0100
0001
,
0100
0001
0100
0001
1000
0010
1000
0001
,
0010
0000
0001
0100
0000
0010
0100
0001
,
1000
0100
1000
0001
0100
0010
1000
0000
,
0001
0000
1000
0001
0000
0000
0000
1000
,
0010
0100
0001
0100
0001
1000
0010
1000
,
0001
0000
0100
0001
0000
0010
0000
0001
,
1000
0000
0100
1000
0000
0010
0000
1000
,
0000
0001
1000
0100
0010
0001
1000
0100
,
1000
0010
1000
0010
0100
0001
0010
0000
,
0001
0010
0001
1000
0000
0100
1000
0010
,
0100
0010
0001
0000
0000
0110
0110
0000
,
1000
0100
1000
0010
0100
0010
0001
0010
,
0110
0000
1001
0000
0010
1000
0100
0000
,
1000
0100
1000
0100
0010
0001
0010
0001
,
0010
0001
0100
0001
0100
0001
0010
0002
,
1000
1000
0100
0103
,
0000
0010
0001
0100
1000
0100
0001
0100
,
0000
0000
0000
0000
;
#NOTES:
     dance-double:
     :
     Easy:
     6:
     :
00000000
00000000
00000000
00000000
,
00000000
00000000
00000000
00000000
,
00000000
00000000
00000000
00000000
,
00000000
00000000
00000000
00000000
,
00000000
00000000
00000000
00000000
,
00000000
00000000
00000000
00000000
,
00000001
00000100
00001000
00000000
,
00010000
00010000
00010000
00000000
,
10010000
00000000
00000000
00000000
,
00100000
00000000
00000000
00000000
,
10000000
10000000
00000000
01000000
,
00000000
00010000
00000000
00001000
,
00000000
00000100
00000000
00000001
,
00000001
00001000
00000001
00000000
,
00000001
00000000
00000000
00000000
,
00000001
00000100
00001000
00000000
,
00010000
00000000
00000000
00000000
,
00100000
00000000
00100000
00000000
,
10000000
00000000
00000000
00000000
,
10000000
01000000
00010000
00000000
,
00001000
00000000
00000000
00000000
,
00000100
00000100
00000001
00000000
,
00000001
00000000
00000000
00000000
,
00000100
00000000
00000000
00000000
,
00001000
00010000
00001000
00000000
,
00010000
01000000
10000000
00000000
,
10000000
00000000
00000000
00000000
,
10000000
01000000
00010000
00000000
,
00001000
00000000
00000000
00000000
,
00000100
00000100
00000001
00000000
,
00000001
00000000
00000000
00000000
,
00000100
00000000
00000000
00000000
,
00001000
00010000
00001000
00010000
,
00001000
00010000
01000000
00000000
,
10000000
00000000
00000000
00000000
,
01000000
00100000
00000000
00000000
,
00001000
00000000
00000000
00000100
,
00000100
00000100
00000100
00000000
,
00000001
00000000
00000100
00000000
,
00001000
00000000
00010000
00000000
,
00100000
10000000
10000000
10000000
,
00020000
00000000
00000000
00030000
,
10000000
01000000
00010000
00001000
,
00000100
00000001
00000000
00000001
,
00000000
00000001
00000100
00000000
,
00001000
00000000
00000000
00000000
,
00010000
00000000
00100000
00000000
,
10000000
10000000
00100000
00000000
,
00010000
00000000
00001000
00000000
,
00000100
00000100
00000100
00000000
,
00000001
00000000
00000000
00000000
,
00001000
00000000
00000000
00000000
,
00010000
00000000
01000000
00000000
,
10000000
00000000
00010000
00000000
,
10000000
00000000
00100000
00000000
,
00010000
00001000
00000100
00000000
,
00000001
00000000
00000010
00000000
,
00000001
00000001
00000001
00000000
,
00000001
00000000
00000000
00000000
,
00001000
00000000
00000000
00000000
,
00010000
00000000
01000000
00000000
,
10000000
00000000
00000000
00000000
,
10000000
00000000
01000000
00000000
,
00010000
00001000
00000100
00000000
,
00000001
00000001
00000000
00000100
,
00000000
00001000
00000000
00010000
,
00000000
01000000
00000000
10000000
,
00000000
10000000
00000000
00100000
,
00000000
00010000
00000000
00001000
,
00000000
00000100
00000000
00000001
,
00000000
00000001
00000000
00000100
,
00001000
00000000
00000000
00000000
,
00020000
00000000
00000000
00000000
,
00230000
00000000
00000000
00000000
,
20300000
00000000
00000000
00000000
,
30000000
00000000
00000000
00000000
,
01100000
00000000
00000000
00000000
,
00011000
00000000
00000000
00000000
,
00001000
00000100
00000001
00000001
,
00000001
00000000
00000000
00000000
,
00000001
00000000
00000010
00000000
,
00001000
00010000
01000000
00000000
,
10000000
00000000
00100000
00000000
,
10000000
00010000
10000000
00000000
,
10000000
00000000
00000000
00000000
,
00010000
00000000
00000000
00000000
,
00001000
00000000
00000100
00000000
,
00000001
00000000
00000001
00000000
,
00000001
00000010
00001000
00010000
,
00100000
00000000
00000000
00000000
,
10000000
01000000
00010000
00001000
,
00000000
00010000
00000000
00001000
,
00000000
00001000
00000100
00000001
,
00001000
00001000
00001000
00000000
,
00000001
00000000
00000100
00000000
,
00001000
00010000
01000000
00000000
,
10000000
00000000
00000000
00000000
,
00100000
10000000
01000000
00010000
,
00001000
00000000
00000000
00000000
,
00000000
00000000
00000000
00000000
;
#NOTES:
     dance-double:
     :
     Medium:
     10:
     :
00000000
00000000
00000000
00000000
,
00000000
00000000
00000000
00000000
,
00000000
00000000
00000000
00000000
,
00000000
00000000
00000000
00000000
,
00000000
00000000
00000000
00000000
,
00000000
00000000
00000000
00000000
,
00011000
00000000
00001000
00000000
00010000
00000000
00001000
00000100
,
00000000
00000001
00000100
00000001
,
00000001
00000000
00000000
00000100
00000000
00000000
00001000
00000000
,
00011000
00000000
00010000
00100000
,
10000000
01000000
10000000
00010000
,
01000000
00000000
00010000
00000000
00000000
01000000
00100000
00000000
,
00010000
00001000
00000100
00000010
,
00000011
00000000
00000011
00000000
00000001
00000100
00000100
00000000
,
00010000
00100000
00010000
10000000
,
01000000
10000000
01000000
00010000
,
00000000
00000010
00000000
00001000
,
00000001
00000000
00000010
00000000
00000000
00001000
00010000
00000000
,
00100000
10000000
00010000
01000000
,
00010000
10000000
10000000
01000000
,
00010000
00001000
00000010
00000001
,
00001000
00000001
00000100
00000001
,
00000001
00000001
00000100
00000100
,
00001000
00001000
00010000
01000000
,
10000000
10000000
10000000
00000000
,
01000000
00010000
00001000
00000000
,
00000010
00000001
00001000
00000100
,
00001000
00000001
00000001
00000100
,
00001000
00010000
00100000
10000000
,
00010000
10000000
01000000
10000000
,
10000000
10000000
01000000
01000000
,
00010000
00010000
00001000
00000100
,
00000001
00000001
00000001
00000000
,
00000100
00001000
00010000
00000000
,
00001000
00000000
00000000
00000000
00010000
00001000
00000000
00000000
,
00100000
01000000
10000000
00000000
,
01000000
00000000
00010000
00000000
,
00001000
00000100
00000101
00000000
,
00000001
00000100
00001000
00010000
,
01000000
10000000
00100000
10000000
,
00010000
10000000
01000000
00010000
,
00001000
00000100
00000001
00001000
,
00000001
00000100
00001000
00010000
,
00100000
10000000
01000000
00010000
,
00001000
00000000
00000010
00000000
00000001
00001000
00000000
00000100
,
00000000
00000000
00000000
00000000
,
00000001
00000000
00000110
00000000
00001000
00010000
00001000
00010000
,
01000000
10000000
00100000
10000000
,
00100000
10000000
10000000
01000000
,
00010000
00001000
00000100
00000001
,
00000001
00000000
00000100
00000000
00001000
00000000
00010000
00001000
,
00000000
00010000
00001000
01000000
,
00010000
00000000
01000000
01000000
00000000
00010000
00000000
10000000
,
00000000
00100000
10000000
00000000
00000000
00000000
00000000
00000000
,
10000000
00000000
01100000
00000000
00010000
00001000
00010000
00001000
,
00000100
00000001
00000010
00000001
,
00000010
00000001
00000001
00000100
,
00001000
00010000
01000000
10000000
,
10000000
01000000
00010000
00001000
,
00010000
00001000
00010000
00000100
,
00001000
00000000
00000100
00000100
00000000
00001000
00000000
00000001
,
00000100
00000000
00000001
00000100
,
00011000
00000000
01000000
00000000
,
00011000
00001000
00000010
00000000
,
00000010
00000001
00000010
00001000
,
00010000
00000000
00001000
00000000
00100000
00010000
01000000
00000000
,
00100000
10000000
00100000
10000000
,
01000000
00000000
00010000
00000000
00001000
00010000
00001000
00000000
,
00010000
00001000
00000100
00000001
,
00000001
00000000
00000100
00000000
00001000
00010000
00001000
00000000
,
00010000
00000000
00001000
00010000
00000000
00001000
00000000
00010000
,
01000000
00000000
00000000
00000000
10000000
00010000
10000000
00000000
,
00020000
00100000
00000000
01030000
,
00002000
00000010
00000000
00003010
,
00000002
00000010
00000000
00001000
,
00000000
00000103
00000000
00000000
,
00011000
00000000
00010000
00000000
00001000
00000000
00010000
01000000
,
00000000
10000000
01000000
10000000
,
10000000
00000000
00000000
01000000
00000000
00010000
00000000
00001000
,
00000000
00000000
00000000
00000000
00001000
00000100
00000001
00000000
,
00000010
00000101
00000001
00000100
,
00001000
00010000
00001000
00010000
,
00100000
10000000
00010000
01000000
,
00010000
10000000
01000000
00010000
,
00001000
00000100
00000001
00001000
,
00000001
00000100
00001000
00010000
,
00001000
00000000
00100000
00010000
00000000
00100000
00000000
00001000
,
00010000
00000000
00001000
00100000
00000000
00010000
00000000
10000000
,
00000000
00010000
10000000
01000000
10000000
01000000
10000000
01000000
,
00000000
00000000
00000000
00000000
,
10000000
01000000
00010000
00001000
,
00000100
00000000
00000001
00000000
00000010
00000001
00000001
00000000
,
00000001
00000010
00001000
00010000
,
01010000
11000000
01100000
00000000
,
10000000
01000000
00010000
00000000
00001000
00010000
00001000
00000000
,
00010000
00000100
00010000
00000100
00010000
00000100
00010000
00000100
,
00010000
00000000
00000110
00000000
,
00000000
00001000
00000001
00001000
00000001
00000100
00001000
00010000
,
00000000
00000000
00000000
00000000
;
#NOTES:
     dance-double:
     :
     Hard:
     13:
     :
00000000
00000000
00000000
00000000
,
00000000
00000000
00000000
00000000
,
00000000
00000000
00000000
00000000
,
00000000
00000000
00000000
00000000
,
00000000
00000000
00000000
00000000
,
00000000
00000000
00000000
00000000
,
00011000
00000000
00010000
01000000
00000000
10000000
00000000
01000000
,
00000000
10000000
01000000
10000000
00000000
01000000
00010000
00000000
,
00011000
00000000
00000000
00000110
00000000
00000000
00000011
00000000
,
00001100
00000000
00000001
00000000
00001000
00000001
00000100
00001000
,
00010000
00100000
10000000
00200000
00000000
00000000
01300000
00000000
,
00010000
00100000
01000000
10000000
01000000
00000000
00100000
00000000
,
00001000
00000100
00000001
00000020
00000000
00000000
00000130
00000000
,
00001100
00000000
00000011
00000000
00000010
00000100
00001000
00000000
,
00010000
00001000
00010000
01000000
00000000
10000000
01000000
00100000
,
00001000
00100000
00001000
00010000
00001000
01000000
00001000
00020000
,
00000000
00000010
00030000
00000000
,
00001000
00100000
01000000
00010000
00001000
00000100
00000001
00000000
,
00000100
00000000
00000001
00000000
00000001
00000100
00000001
00000010
,
00000000
00000001
00000100
00001000
00010000
00000000
00110000
00000000
,
10000000
00000000
00010000
01000000
00100000
10000000
01000000
00020000
,
00000000
00000010
00001000
00030100
,
00001000
00000000
00000011
00000000
00000011
00000000
00000001
00000100
,
00001000
00000000
00010000
00001000
00010000
00100000
10000000
00000000
,
02000000
00100000
00100000
00000000
,
10000000
00100000
00010000
03000000
,
00011000
00000000
00001000
00000000
00000100
00000001
00000010
00000001
,
00000010
00000001
00000100
00001000
00000000
00010000
00100000
01000000
,
00010000
01000000
00100000
10000000
00100000
10000000
00000000
01000000
,
00000000
00010000
00000000
00001000
00000000
00000100
00000000
00000000
,
00000101
00000000
00000000
00000000
00000001
00000100
00000001
00000010
,
00000100
00000000
00001000
00000000
00000001
00000010
00001000
00000000
,
00011000
01000000
11000000
00000000
,
01000000
00000000
00000000
00010000
00000000
10000000
01000000
00000000
,
10000000
00000000
00000000
01000000
00010000
00001000
00000000
00000100
,
00000001
00000000
00000010
00000000
00000100
00000001
00000000
00000001
,
00000100
00001000
00010000
01000000
10000000
00100000
01000000
10000000
,
11000000
01100000
00110000
00000000
,
00001000
00000000
00010000
00000000
00001000
00010000
00001000
00000100
,
00000000
00000001
00000100
00000001
00001000
00000001
00000100
00000000
,
00001000
00010000
01000000
10000000
,
10010000
00000000
10000000
01000000
00100000
00001000
00010000
00001000
,
00000100
00000001
00000010
00000000
00000001
00000000
00000100
00000000
,
00001000
00000000
00010000
00000000
01000000
10000000
00100000
00000000
,
01100000
00000000
01100000
00000000
00010000
00001000
00000000
00010000
,
00000000
00001000
00010000
00001000
00010000
00000100
00000001
00000000
,
00000001
00000000
00001000
00000000
00000001
00000010
00000100
00010000
,
00000100
00010000
00000100
00010000
00001000
00010000
00001000
00010000
,
00100000
01000000
00010000
00000000
00100000
01000000
00100000
00000000
,
00010000
01000000
00010000
10000000
01000000
00100000
00001000
00000000
,
00010000
00000000
00001000
00000100
00000000
00000001
00000000
00001000
,
00000000
00000100
00001000
00000100
00001000
00000001
00000100
00001000
,
00010000
00000000
00001000
01000000
00000000
01100000
00000000
11000000
,
00000000
00010000
01000000
00000000
00010000
01000000
00010000
00000000
,
10000000
00000000
00010000
00000000
10000000
00100000
01000000
00001000
,
01000000
00001000
01000000
00001000
00010000
00001000
00010000
00001000
,
00000010
00000000
00001000
00000010
00000000
00000100
00000000
00000010
,
00001000
00000100
00001000
00000001
00000100
00000010
00010000
00000000
,
00001000
00000000
00010000
01000000
00000000
00000000
10000000
00000000
,
00010000
01000000
00010000
01000000
00010000
10000000
01000000
00010000
,
00001000
00000000
00010000
00000100
00000000
00000110
00000000
00000101
,
00000000
00000001
00000100
00001000
00010000
00001000
00010000
00100000
,
10000000
11000000
00110000
10010000
,
10000000
01000000
00010000
00001000
00010000
00000000
00011000
00000000
,
00001000
00000000
00000010
00000100
00000000
00000001
00000000
00001000
,
00000100
00001000
00000100
00001000
00000001
00000010
00000001
00000010
,
00001000
00000000
00100000
00010000
00000000
00100000
00000000
00010000
,
01000000
00010000
00000000
01000000
00000000
00001000
00010000
00000000
,
00000100
00000000
00000010
00000100
00000000
00001000
00000000
00000001
,
00000010
00000000
00000001
00000100
00000000
00000001
00000100
00001000
,
00010000
00000000
00100000
10000000
00000000
00100000
00000000
10000000
,
11000000
00000000
00000000
00000000
10000000
00100000
10000000
00000000
,
00020000
00100000
10000000
01030000
,
00002000
00000010
00000000
00003010
,
00000002
00000010
00000100
00001000
,
00000010
00000000
00000003
00000000
00000001
00000000
00000000
00000001
,
00000100
00000000
00001000
00010000
00000000
00100000
01000000
00100000
,
00000000
10000000
00100000
10000000
00100000
01000000
00010000
01000000
,
11000000
00000000
00000000
01100000
00000000
00011000
00000000
00010000
,
00001000
00000100
00000001
00000000
00001000
00000010
00001000
00000000
,
00000001
00000000
00001000
00000000
00000001
00000010
00000100
00010000
,
00000100
00010000
00000100
00010000
00001000
00010000
00001000
00010000
,
00100000
00000000
00010000
00100000
00000000
01000000
00000000
00100000
,
00010000
01000000
00010000
10000000
01000000
00100000
00001000
00000000
,
00010000
00000000
00001000
00000100
00000000
00000000
00000001
00000000
,
00001000
00000100
00001000
00000100
00001000
00000001
00000100
00001000
,
00010000
00000000
00001000
01000000
00000000
01100000
00000000
11000000
,
00000000
10000000
01000000
00000000
00010000
00001000
00000100
00000000
,
00000001
00000101
00001010
00011000
,
00001000
00010000
00001000
00010000
00001000
00000000
00011000
00000000
,
00001000
00000100
00000010
00000100
00000000
00000001
00000000
00001000
,
00000100
00001000
00000100
00001000
00000001
00000010
00000001
00000100
,
00001000
00010000
00001000
00010000
00000000
00001000
00010000
00000000
,
00110000
00000000
01100000
00000000
10000000
01000000
10000000
00000000
,
10000000
01000000
10000000
01000000
00000000
00010000
00001000
00000100
,
00000001
00000010
00000001
00000010
00000001
00000100
00001000
00020000
,
00000000
00001000
00100000
00130000
,
00000000
10000000
01000000
00100000
00001000
00010000
00000100
00001000
,
00000000
00000000
00000000
00000000
;
