
//----- song id: hlat
#TITLE:HeartLatte;
#ARTIST:TnyGinA 【和歌山】;
#ARTISTTRANSLIT:TnyGinA [Wakayama];
#BANNER:HeartLatte.png;
#BACKGROUND:HeartLatte-bg.png;
#CDTITLE:./CDTitles/DDR (2014).png;
#MUSIC:HeartLatte.ogg;
#SAMPLESTART:74.444;
#SAMPLELENGTH:15;
#BPMS:0=135;
#NOTES:
     dance-single:
     :
     Beginner:
     2:
     :
0000
0000
0000
0000
,
0000
0000
0000
0000
,
0000
0000
0000
0000
,
0000
0000
0000
0000
,
0000
0000
0000
0000
,
0001
0000
0000
0000
,
0001
0000
0000
0000
,
1000
0000
0000
0000
,
1000
0000
0000
0000
,
0010
0000
0000
0000
,
0001
0000
0000
0000
,
1000
0000
0000
0000
,
0100
0000
0000
0000
,
0010
0000
0000
0000
,
0001
0000
0000
0000
,
1000
0000
0000
0000
,
0100
0000
0000
0000
,
0001
0001
0001
0000
,
0000
0000
0000
0000
,
0010
0010
0010
0000
,
0000
0000
0000
0000
,
1000
1000
1000
0000
,
0000
0000
0000
0000
,
0100
0100
0100
0000
,
0000
0000
0000
0000
,
0010
0000
0000
0000
,
1000
0000
0000
0000
,
0100
0000
0000
0000
,
0001
0000
0000
0000
,
0010
0000
0000
0000
,
0001
0000
0000
0000
,
0100
0000
0000
0000
,
1000
0000
0000
0000
,
0001
0000
0001
0000
,
1000
0000
1000
0000
,
0001
0000
0000
0000
,
1000
0000
0000
0000
,
0010
0000
0010
0000
,
0100
0000
0100
0000
,
0010
0000
0000
0000
,
0010
0000
0000
0000
,
0000
0000
0000
0000
,
0001
0001
0001
0000
,
1000
1000
1000
0000
,
0001
0001
0001
0000
,
1000
1000
1000
0000
,
0010
0010
0010
0000
,
0010
0010
0010
0000
,
0001
0000
1000
0000
,
0001
0000
0000
0000
,
0010
0010
0010
0000
,
0100
0100
0100
0000
,
0010
0010
0010
0000
,
0100
0100
0100
0000
,
1001
0000
0000
0000
,
1001
0000
0000
0000
,
0001
0000
1000
0000
,
1001
0000
0000
0000
,
0000
0000
0000
0000
;
#NOTES:
     dance-single:
     :
     Easy:
     4:
     :
0000
0000
0000
0000
,
0000
0000
0000
0000
,
0000
0000
0000
0000
,
0000
0000
0000
0000
,
0000
0000
0000
0000
,
0000
0010
0000
0010
,
0000
1000
0000
1000
,
0000
0001
0000
0001
,
0000
0100
0100
0000
,
0001
0000
0001
0000
,
0010
0000
0010
0000
,
1000
0000
1000
0000
,
0001
0000
0000
0000
,
1000
0000
1000
0000
,
0010
0000
0010
0000
,
0001
0000
1000
0000
,
0001
0001
0001
0000
,
1000
0010
0100
0000
,
0001
0000
0001
0000
,
0001
0010
0100
0000
,
1000
0000
1000
0000
,
0010
1000
0100
0000
,
1000
0000
1000
0000
,
0010
0001
0100
0000
,
0001
0000
0001
0000
,
0100
0100
0010
0000
,
0001
0000
0100
0000
,
1000
1000
0001
0000
,
0100
0000
1000
0000
,
0010
0010
0001
0000
,
0100
0000
0100
0000
,
1000
0010
0001
0000
,
1000
0000
1000
0000
,
0001
0100
0001
0000
,
1000
0100
1000
0000
,
0001
0001
1000
1000
,
0001
1000
0001
0000
,
0010
0010
1000
0000
,
0010
0010
0001
0000
,
1000
1000
0001
0001
,
1000
0001
1000
0000
,
1001
0000
0000
0000
,
0001
0010
0001
0000
,
1000
0010
1000
0000
,
0001
0010
1000
0010
,
0001
0001
0001
0000
,
1000
0010
1000
0000
,
0001
0010
0001
0000
,
1000
0010
0001
0010
,
1000
1000
1000
0000
,
1000
0100
0010
0000
,
0001
0100
0010
0000
,
1000
0100
0001
0100
,
1000
0100
0001
0000
,
1001
0000
0110
0000
,
1001
0000
0000
0000
,
1000
0010
0100
0001
,
0000
0000
0000
0000
;
#NOTES:
     dance-single:
     :
     Medium:
     7:
     :
0000
0000
0000
0000
,
0000
0000
0000
0000
,
0000
0000
0000
0000
,
0000
0000
0000
0000
,
0000
0000
0000
0000
,
2000
0100
0000
3100
,
0002
0100
0000
0103
,
0020
0100
0000
0130
,
0010
1000
0001
0000
,
1000
0100
1000
0100
0000
0000
1000
0001
,
1000
0001
0000
0000
0100
0001
0100
0000
,
0001
0000
0010
0000
1000
0000
0010
0100
,
0000
0001
0000
0000
0000
0000
0000
0000
,
0001
0100
0001
0100
0000
0000
0001
1000
,
0001
1000
0000
0000
0100
1000
0100
0000
,
1000
0000
0010
0000
0001
0000
0100
0010
,
1000
1000
1000
0000
,
0001
1000
0100
0000
0010
0000
0010
0000
,
0001
0100
0010
0000
1000
0000
1000
0000
,
0010
0100
0001
0000
1000
0000
1000
0000
,
0000
0010
1000
0100
1000
0000
0001
0000
,
0100
0010
0001
0000
1000
0000
1000
0000
,
0001
0100
0010
0000
0100
0000
0100
0000
,
0010
1000
0001
0000
0010
0000
0010
0000
,
0000
0001
0010
0100
1000
0000
0000
0000
,
0010
0010
0100
0100
,
1000
0000
0000
0000
0100
0000
0000
0000
0010
0000
0000
0010
0000
0000
0000
0000
,
0001
0001
1000
1000
,
0010
0000
0000
0000
0100
0000
0000
0000
0001
0000
0000
0001
0000
0000
0000
0000
,
0010
0001
1000
1000
,
0010
0000
0000
0000
0100
0000
0000
0000
0010
0000
0000
0010
0000
0000
0000
0000
,
0001
0010
1000
0010
,
0001
1000
0001
0000
,
1010
0000
0101
0000
0010
0100
0001
0000
,
0011
0000
1100
0000
0010
0100
1000
0000
,
0010
1000
0100
0001
,
0010
1000
0010
0001
,
0010
1000
0010
0000
0100
0001
0100
0000
,
0001
0010
0001
0000
1000
0100
1000
0000
,
0010
1000
0001
0100
,
0001
0000
0010
0000
1000
0010
0100
0002
,
0000
0000
0003
0000
,
1000
0100
1000
0100
0000
0000
0010
0100
,
0010
0100
0000
0000
0010
0001
0010
0000
,
0001
0010
1000
0010
,
0001
1000
1001
0000
,
0001
0100
0001
0100
0000
0000
0010
0100
,
0010
0100
0000
0000
0010
1000
0010
0000
,
1000
0010
0001
0010
,
1000
0001
1000
0000
,
0001
1000
0001
1000
0000
0000
0010
0100
,
0010
0100
0000
0000
0001
1000
0001
0000
,
0010
0100
1000
0010
,
0001
0010
1000
1000
,
1100
0000
0000
0000
0000
0000
0000
0000
0010
0000
0000
0010
0000
0000
0010
0000
,
0000
0110
0010
1000
,
0001
1000
0100
0000
0010
0000
0001
2000
,
0000
0000
0000
0000
,
3000
0000
0000
0000
,
0000
0000
0000
0000
;
#NOTES:
     dance-single:
     :
     Hard:
     11:
     :
0000
0000
0000
0000
,
0000
0000
0000
0000
,
0000
0000
0000
0000
,
0000
0000
0000
0000
,
0000
0000
0000
0000
,
0001
0000
0000
0001
0100
0000
0001
0000
0000
0001
0100
0000
0001
0000
0001
0000
,
1000
0000
0000
1000
0100
0000
1000
0000
0000
1000
0100
0000
1000
0000
1000
0000
,
0010
0000
0000
0010
0100
0000
0010
0000
0000
0010
0100
0000
0010
0000
0010
0000
,
1000
0001
0010
0100
1000
0000
0000
0001
,
0100
1000
0100
0001
0000
0001
0010
1000
,
0010
0001
0000
0001
0100
1000
0100
0001
,
1000
0010
0001
0010
1000
0001
0100
0010
,
0000
1000
0000
0000
0000
0000
0000
1000
,
0100
0001
0100
1000
0000
1000
0010
0001
,
0010
1000
0000
1000
0100
0001
0100
1000
,
0001
0010
1000
0010
0001
1000
0100
0010
,
0001
0001
0001
0000
,
1000
0000
0001
0000
0100
0000
0000
0000
0010
0000
0100
0001
0000
0100
0001
0000
,
0000
0000
0010
0000
0001
0000
0100
0000
0010
0000
1000
0010
0000
1000
0010
0000
,
1000
0000
0001
0000
0010
0000
0000
0000
0100
0000
1000
0100
0000
1000
0100
0000
,
0000
0000
0010
0000
0001
0000
0100
0000
0001
0000
1000
0001
0000
1000
0001
0000
,
0100
0000
0010
0000
1000
0000
0000
0000
0001
0000
0010
0100
0000
0010
0100
0000
,
0000
0000
1000
0000
0100
0000
0010
0000
0001
0000
1000
0001
0000
1000
0001
0000
,
0010
0000
0001
0000
1000
0000
0000
0000
0010
0000
0100
0010
0000
0100
0010
0000
,
0000
0010
1000
0100
0010
0001
0100
0000
,
0010
0000
0000
0000
0010
0000
0000
0000
0100
0000
0000
0100
0000
0000
0100
0000
,
1000
0000
0000
0000
0100
0000
0000
0000
0010
0000
0000
0110
0000
0000
0000
0000
,
1000
0000
0000
0000
1000
0000
0000
0000
0001
0000
0000
0001
0000
0000
0001
0000
,
0010
0000
0000
0000
0100
0000
0000
0000
1000
0000
0000
1100
0000
0000
0000
0000
,
0010
0000
0000
0000
1000
0000
0000
0000
0001
0000
0000
0001
0000
0000
0001
0000
,
0100
0000
0000
0000
0100
0000
0000
0000
0010
0000
0000
0110
0000
0000
0000
0000
,
1000
0000
0000
0000
1000
0000
0000
0000
0001
0000
0000
0010
0000
0000
1000
0000
,
0001
0000
0000
0000
0001
0000
0000
0000
1000
0000
0000
0100
0000
0000
0001
0000
,
1000
0000
0100
0000
1000
0000
0100
0000
1000
0000
0100
1000
0000
0100
1000
0000
,
0001
0000
0100
0000
0001
0000
0100
0000
0001
0000
0100
0001
0000
0100
0001
0000
,
0010
0001
0000
0100
0000
1000
0010
0001
,
0000
0100
0000
1000
0010
1000
0001
0000
,
0010
0001
0100
0001
0010
0100
1000
0001
,
0010
1000
0100
1000
0010
0100
0001
1000
,
0002
0000
0000
0100
0000
0000
0100
0000
0000
0100
0000
0000
0103
0000
0010
0000
,
1000
0010
0000
0001
0010
0100
1000
2002
,
0000
0000
0000
0000
3003
0000
0000
0001
,
0100
1000
0100
0001
0000
0001
0010
1000
,
0010
0001
0000
0001
0100
1000
0100
0001
,
1000
0010
0001
0010
1000
0001
0100
0010
,
0000
1000
0000
0000
0001
0000
0001
1000
,
0100
0001
0100
1000
0000
1000
0010
0001
,
0010
1000
0000
1000
0100
0001
0100
1000
,
0001
0010
1000
0010
0001
1000
0100
0010
,
0001
0100
0000
0001
0100
0000
0001
0100
0000
0001
0100
0000
0010
0000
0000
0000
,
1000
0100
1000
0010
0000
0100
0010
0001
,
0010
0100
0000
0010
1000
0001
1000
0100
,
0010
0100
0001
0100
1000
0001
0010
1000
,
0010
0000
0001
0000
1000
0000
0001
1000
,
0101
0000
0000
0000
0000
0000
0000
0000
0010
0000
0000
0100
0000
0000
1100
0000
,
0000
0000
0010
0000
0010
0000
0000
0000
0012
0000
0000
1000
0000
0000
0103
0000
,
0010
1000
0001
0100
1000
0001
0010
2000
,
0000
0000
0000
0000
,
3000
0000
0000
0000
,
0000
0000
0000
0000
;
#NOTES:
     dance-double:
     :
     Easy:
     5:
     :
00000000
00000000
00000000
00000000
,
00000000
00000000
00000000
00000000
,
00000000
00000000
00000000
00000000
,
00000000
00000000
00000000
00000000
,
00000000
00000000
00000000
00000000
,
00000010
00000001
00001000
00000000
,
00000010
00001000
00000001
00000000
,
00000001
00000100
00001000
00010000
,
01000000
10000000
00010000
00000000
,
00100000
00000000
00010000
00000000
,
10000000
00000000
01000000
00000000
,
00010000
00000000
00001000
00000000
,
00000010
00000000
00000000
00000000
,
00000001
00000000
00000100
00000000
,
00000010
00000000
00001000
00000000
,
00010000
00000000
00001000
00000000
,
00011000
00000000
00000000
00000000
,
00100000
01000000
00001000
00010000
,
00100000
01000000
00001000
00010000
,
00001000
00000100
00000001
00000010
,
00001000
00000010
00000001
00000000
,
00000010
00000100
00010000
00001000
,
00000010
00000100
00010000
00001000
,
00010000
01000000
10000000
00100000
,
00010000
00100000
10000000
00000000
,
10000000
01000000
00010000
00000000
,
00001000
00010000
00001000
00000000
,
00001000
00000010
00000001
00000000
,
00000001
00001000
00000001
00000000
,
00000001
00000100
00001000
00000000
,
00010000
00001000
00010000
00000000
,
00010000
00100000
10000000
00000000
,
10000000
00010000
10000000
00000000
,
10000000
01000000
00100000
00100000
,
00001000
00010000
00000100
00000100
,
00000010
00000001
00000100
00000010
,
00001000
00000000
00000001
00000000
,
00000001
00000100
00001000
00001000
,
00010000
00100000
10000000
10000000
,
00010000
00100000
10000000
00100000
,
00010000
00001000
00010000
00000000
,
00011000
00000000
00000000
00000000
,
00000010
00010000
00001000
00001000
,
00100000
00001000
00010000
00010000
,
00000100
00010000
00001000
00001000
,
01000000
00001000
00010000
00000000
,
00000010
00010000
00000100
00010000
,
00000010
00010000
00000100
00010000
,
00000010
00000010
00010000
00001000
,
00100000
00100000
00100000
00000000
,
00100000
01000000
00001000
00010000
,
00100000
01000000
00001000
00010000
,
00001000
00000100
00000001
00000010
,
00001000
00001000
00001000
00000000
,
00001001
00000000
00010000
00000000
,
00011000
00000000
00100000
00000000
,
10000000
01000000
00100000
00010000
,
10000000
00000000
00000000
00000000
,
00000000
00000000
00000000
00000000
;
#NOTES:
     dance-double:
     :
     Medium:
     7:
     :
00000000
00000000
00000000
00000000
,
00000000
00000000
00000000
00000000
,
00000000
00000000
00000000
00000000
,
00000000
00000000
00000000
00000000
,
00000000
00000000
00000000
00000000
,
10000000
01000000
00000000
01000000
,
00010000
00001000
00000000
00001000
,
00000100
00000001
00000000
00000001
,
00000010
00001000
00010000
00000000
,
00001000
00100000
00001000
00100000
00000000
00000000
00001000
00010000
,
00001000
00010000
00000000
00000000
00000010
00001000
00000010
00000000
,
00010000
00000000
00001000
00000000
00100000
00000000
00010000
01000000
,
00000000
00100000
00000000
00000000
00000000
00000000
00000000
00000000
,
10000000
01000000
10000000
01000000
00000000
00000000
00010000
00001000
,
00010000
00001000
00000000
00000000
00000010
00000001
00000010
00000000
,
00000100
00001000
00000001
00000100
,
00001000
00010000
00001000
00000000
,
00020000
00000000
00030010
00000000
00001000
00000010
00010000
00000000
,
00002000
00000000
00103000
00000000
00010000
00100000
00001000
00000000
,
00020000
00000000
00030100
00000000
00001000
00000100
00010000
00000000
,
00002000
00000000
01003000
00000000
00010000
01000000
00001000
00000000
,
00020000
00000000
00030010
00000000
00000100
00000010
00010000
00000000
,
00002000
00000000
00103000
00000000
01000000
00100000
00001000
00000000
,
00020000
00000000
00030100
00000000
00000010
00000100
00010000
00000000
,
00002000
00000000
01003000
00000000
00100000
01000000
00001000
00000000
,
00010000
00010000
00000010
00000010
,
00000100
00000000
00000000
00000000
00000001
00000000
00000000
00000000
00001000
00000000
00000000
00001000
00000000
00000000
00000000
00000000
,
00000010
00010000
00100000
00100000
,
10000000
00000000
00000000
00000000
00010000
00000000
00000000
00000000
00100000
00000000
00000000
00100000
00000000
00000000
00000000
00000000
,
01000000
10000000
00100000
01000000
,
00001000
00000000
00000000
00000000
00010000
00000000
00000000
00000000
00000010
00000000
00000000
00000010
00000000
00000000
00000000
00000000
,
00001000
00000001
00000100
00001000
,
00000100
00000001
00001000
00000000
,
00000010
00010000
00002000
00000000
00000010
00000000
00013000
00000000
,
00100000
00001000
00020000
00000000
00100000
00000000
00031000
00000000
,
00010000
00100000
10000000
01000000
,
00100000
00010000
00001000
00000100
,
00000010
00001000
00020000
00000000
00000010
00000000
00031000
00000000
,
00100000
00010000
00002000
00000000
00100000
00000000
00013000
00000000
,
00001000
00000100
00000001
00000010
,
00000100
00000010
00000100
00000000
00010000
00001000
00010000
00002000
,
00000000
00000000
00003000
00000000
,
00010000
00000010
00010000
00000010
00000000
00000000
00010000
00001000
,
00010000
00001000
00000000
00000000
00100000
00010000
00100000
00000000
,
00001000
00000000
00010000
00000000
00000010
00000000
00001000
00000100
,
00000000
00000010
00000000
00000000
00000001
00000000
00001000
00000000
,
00000001
00000100
00000001
00000100
00000000
00000000
00001000
00010000
,
00001000
00010000
00000000
00000000
00100000
10000000
00100000
00000000
,
01000000
00010000
10000000
01000000
,
00010000
00001000
00010000
00000000
,
00000010
00000100
00000010
00000000
00010000
00000000
00001000
00010000
,
00001000
00000000
00100000
00000000
01000000
00100000
01000000
00000000
,
00010000
00001000
00000100
00000001
,
00000010
00001000
00010000
00000000
,
00011000
00000000
00000000
00000000
00000000
00000000
00000000
00000000
00100000
00000000
00000000
00100000
00000000
00000000
00100000
00000000
,
00000000
00010000
01000000
00100000
,
10000000
00000000
01000000
00000000
00100000
00010000
00001000
00000200
,
00000000
00000000
00000000
00000000
,
00000300
00000000
00000000
00000000
,
00000000
00000000
00000000
00000000
;
#NOTES:
     dance-double:
     :
     Hard:
     11:
     :
00000000
00000000
00000000
00000000
,
00000000
00000000
00000000
00000000
,
00000000
00000000
00000000
00000000
,
00000000
00000000
00000000
00000000
,
00000000
00000000
00000000
00000000
,
00000001
00000000
00000000
00000001
00000100
00000000
00000001
00000000
00000000
00000001
00000100
00000000
00001000
00000000
00010000
00000000
,
01000000
00000000
00000000
01000000
10000000
00000000
01000000
00000000
00000000
01000000
10000000
00000000
01000000
00000000
00010000
00000000
,
00001000
00000000
00000000
00001000
00010000
00000000
00001000
00000000
00000000
00001000
00010000
00000000
00001000
00000000
00001000
00000000
,
00100000
01000000
00100000
00001000
00010000
00000000
00000000
00001000
,
00000010
00000001
00000010
00001000
00000000
00010000
01000000
10000000
,
01000000
00010000
00000000
00001000
00000100
00000001
00000100
00001000
,
00010000
00000010
00000100
00000010
00010000
00001000
00100000
00010000
,
00000000
10000000
00000000
00000000
00000000
00000000
00000000
00001000
,
00000100
00000001
00000100
00001000
00000000
00010000
01000000
10000000
,
01000000
00010000
00000000
00001000
00000010
00000001
00000000
00000100
,
00000010
00010000
00001000
00100000
00010000
10000000
00100000
01000000
,
00100000
00100000
00100000
00000000
,
10000000
00000000
01000000
00000000
00100000
00000000
00000000
00000000
00001000
00000000
00010000
00001000
00000000
00010000
00001000
00000000
,
00000000
00000000
00100000
00000000
00001000
00000000
00010000
00000000
00000100
00000000
00000010
00000100
00000000
00000010
00000100
00000000
,
00001000
00000000
00000001
00000000
00000100
00000000
00000000
00000000
00000010
00000000
00010000
00000010
00000000
00010000
00000010
00000000
,
00000000
00000000
00001000
00000000
00010000
00000000
01000000
00000000
00100000
00000000
10000000
00100000
00000000
10000000
00100000
00000000
,
10000000
00000000
00010000
00000000
00100000
00000000
00000000
00000000
01000000
00000000
00010000
00001000
00000000
00010000
00001000
00000000
,
00000000
00000000
00000100
00000000
00000001
00000000
00001000
00000000
00000100
00000000
00000010
00000100
00000000
00000010
00000100
00000000
,
00000010
00000000
00000001
00000000
00000100
00000000
00000000
00000000
00001000
00000000
00010000
00001000
00000000
00010000
00001000
00000000
,
00000000
00000000
00010000
00000000
00100000
00000000
10000000
00000000
00010000
00000000
10000000
00010000
00000000
00000000
00000000
00000000
,
00100000
00000000
00000000
00000000
00100000
00000000
00000000
00000000
01000000
00000000
00000000
10000000
00000000
00000000
00100000
00000000
,
00010000
00000000
00000000
00000000
00010000
00000000
00000000
00000000
00001000
00000000
00000000
00001010
00000000
00000000
00000000
00000000
,
00000001
00000000
00000000
00000000
00000001
00000000
00000000
00000000
00000010
00000000
00000000
00000100
00000000
00000000
00001000
00000000
,
00000010
00000000
00000000
00000000
00000010
00000000
00000000
00000000
00010000
00000000
00000000
00011000
00000000
00000000
00000000
00000000
,
00001000
00000000
00000000
00000000
00001000
00000000
00000000
00000000
00010000
00000000
00000000
00100000
00000000
00000000
10000000
00000000
,
00010000
00000000
00000000
00000000
00010000
00000000
00000000
00000000
00100000
00000000
00000000
01100000
00000000
00000000
00000000
00000000
,
10000000
00000000
00000000
00000000
10000000
00000000
00000000
00000000
01000000
00000000
00000000
00010000
00000000
00000000
00001000
00000000
,
00000010
00000000
00000000
00000000
00000001
00000000
00000000
00000000
00001000
00000000
00000000
00001000
00000000
00000000
00000001
00000000
,
00000010
00000000
00000001
00000000
00001000
00000000
00000100
00000000
00010000
00000000
00001000
00010000
00000000
00001000
00010000
00000000
,
00001000
00000000
01000000
00000000
00010000
00000000
10000000
00000000
00100000
00000000
01000000
00100000
00000000
01000000
00100000
00000000
,
10000000
01000000
00000000
00010000
00000000
00001000
00000010
00000002
,
00000000
00000000
00000000
00000000
00001003
00000000
00001000
00000001
,
00000100
00000010
00001000
00010000
00000000
01000000
00100000
10000000
,
00000000
00010000
00100000
01000000
00000000
10000000
01000000
00000000
,
10000000
00000000
00000000
00100000
00000000
00000000
00010000
00000000
00000000
00001000
00000000
00000000
00000100
00000000
00000001
00000000
,
00000010
00000100
00000010
00000001
00000010
00001000
00010000
00022000
,
00000000
00000000
00000000
00000000
00033000
00000000
00000000
00010000
,
00100000
10000000
00100000
00010000
00000000
00001000
00000100
00000001
,
00000100
00001000
00000000
00010000
01000000
10000000
01000000
00010000
,
00001000
00100000
01000000
00100000
00001000
00010000
00000010
00001000
,
00000000
00000001
00000000
00000000
00000100
00000000
00001000
00010000
,
01000000
10000000
01000000
00010000
00000000
00001000
00000100
00000001
,
00000100
00001000
00000000
00010000
00100000
10000000
00000000
01000000
,
00100000
00001000
00010000
00000010
00001000
00000001
00000010
00000000
,
00000100
00010000
00000000
00000100
00010000
00000000
00001000
00010000
00000000
00001000
00010000
00000000
00001000
00000000
00000000
00000000
,
00100000
01000000
00100000
00001000
00000000
00010000
00000010
00000100
,
00000010
00010000
00000000
00001000
00100000
01000000
00100000
00001000
,
00010000
00100000
10000000
01000000
00100000
00010000
01000000
00001000
,
00000000
00010000
00001000
00000000
00000100
00000000
00000001
00000000
,
00001001
00000000
00000000
00000000
00000000
00000000
00000000
00000000
00002010
00000000
00000000
00000001
00000000
00000000
00003100
00000000
,
00000000
00000000
00010000
00000000
00001000
00000000
00000000
00000000
00120000
00000000
00000000
10000000
00000000
00000000
01030000
00000000
,
00100000
10000000
01000000
00100000
00010000
00001000
00000100
00000020
,
00000000
00000000
00000000
00000000
,
00000030
00000000
00000000
00000000
,
00000000
00000000
00000000
00000000
;
