
//----- song id: hnmr
#TITLE:はなまるぴっぴはよいこだけ;
#ARTIST:A応P;
#TITLETRANSLIT:Hanamaru pippi wa yoiko dake;
#BANNER:Hanamaru pippi wa yoiko dake.png;
#BACKGROUND:Hanamaru pippi wa yoiko dake-bg.png;
#CDTITLE:./CDTitles/DDR (2014).png;
#MUSIC:Hanamaru pippi wa yoiko dake.ogg;
#SAMPLESTART:69.754;
#SAMPLELENGTH:15;
#BPMS:0=172;
#NOTES:
     dance-single:
     :
     Beginner:
     4:
     :
0000
0000
0000
0000
,
0000
0000
0000
0000
,
0000
0000
0000
0000
,
0000
0000
0000
0000
,
0000
0000
0000
0000
,
1000
1000
0000
0000
,
0001
0001
0000
0000
,
0010
0000
0000
0000
,
0200
0000
0300
0000
,
0010
0000
0000
0000
,
0100
0000
0000
0000
,
0001
0000
0000
0000
,
1000
0000
0000
0000
,
0001
0000
0001
0000
,
1000
0000
1000
0000
,
0010
0000
0001
0000
,
0200
0000
0000
0300
,
0020
0000
0000
0030
,
0010
0000
0000
0000
,
0100
0000
0000
0000
,
1000
0000
0000
0000
,
0001
0000
0001
0000
,
0010
0000
0000
0000
,
0100
0000
0000
0000
,
0001
0000
0001
0000
,
1000
0000
1000
0000
,
0010
0000
0000
0000
,
0010
0010
0010
0000
,
1000
0000
0000
0000
,
0001
0000
0000
0000
,
0000
1000
0000
0001
,
0000
1000
0000
0001
,
0001
0000
0000
0000
,
1000
0000
0000
0000
,
1000
0000
1000
0000
,
0001
0001
0001
0000
,
0010
0000
0000
0000
,
0001
0000
0000
0000
,
0010
0000
0000
0000
,
1000
0000
0000
0000
,
0010
0000
0000
0000
,
0001
0000
0000
0000
,
0010
0000
0010
0000
,
0100
0000
0100
0000
,
0010
0000
0000
0000
,
0200
0000
0300
0000
,
1000
0000
0000
0000
,
0001
0000
0000
0000
,
0000
1000
0000
0001
,
0000
1000
0000
0001
,
0001
0000
0000
0000
,
1000
0000
0000
0000
,
1000
0000
1000
0000
,
0001
0001
0001
0000
,
1000
0000
0000
0000
,
0001
0000
0000
0000
,
1000
0000
0000
0000
,
0001
0000
0000
0000
,
1000
1000
0000
0000
,
0001
0001
0000
0000
,
0010
0000
0000
0000
,
0200
0000
0300
0000
,
0000
0020
0000
0000
,
0000
0000
0000
0000
,
0000
0000
0000
0030
,
0000
0000
0000
0000
;
#NOTES:
     dance-single:
     :
     Easy:
     7:
     :
0000
0000
0000
0000
,
0000
0000
0000
0000
,
0000
0000
0000
0000
,
0000
0000
0000
0000
,
0000
0000
0000
0000
,
1000
0001
1000
0100
,
1000
1000
1000
0000
,
0010
0001
0010
0000
,
1000
0100
1000
0100
,
0010
0000
0000
0000
,
0001
0000
0000
0000
,
1000
0000
0000
0000
,
0100
0100
1000
0000
,
0001
0100
0001
0001
,
1000
0100
1000
0000
,
0001
0010
1000
0010
,
0001
0000
1000
0000
,
2002
0000
0000
3003
,
2000
0000
3100
0000
,
0002
0100
0103
0000
,
0002
0000
0103
0000
,
1000
1000
1000
1000
,
0001
0001
0100
0100
,
1000
0100
0100
0000
,
1000
1000
0001
0001
,
1000
0001
1000
0001
,
0000
1001
0000
0010
,
0001
0100
0100
0000
,
0010
0000
0100
0000
,
0010
0010
0010
0000
,
1000
0100
0000
0001
,
0001
0100
0000
1000
,
1000
0100
0000
0001
,
0001
0100
0000
1000
,
0001
0001
1000
1000
,
0100
0010
0110
0000
,
0001
0010
0001
0001
,
1000
0010
1000
1000
,
0002
0000
2000
3003
,
0001
1000
0001
0000
,
1000
0010
1000
0000
,
0001
0010
0001
0000
,
1000
1000
1000
0000
,
0001
0001
0001
0000
,
0010
0001
0100
1000
,
0020
0000
0000
0030
,
0010
0000
0100
0000
,
0010
0010
0010
0000
,
0001
0100
0000
1000
,
1000
0100
0000
0001
,
0001
0100
0000
1000
,
1000
0100
0000
0001
,
1000
1000
0001
0001
,
0100
0010
0110
0000
,
0001
1000
0001
0100
,
0001
0001
0001
0000
,
1000
0001
1000
0100
,
1000
1000
1000
0000
,
0001
1000
0001
0100
,
0001
0001
0001
0000
,
0010
1000
0010
0001
,
0010
1000
0010
0100
,
0000
0002
0000
0000
,
0000
0000
0000
0000
,
0000
0000
0000
0003
,
0000
0000
0000
0000
;
#NOTES:
     dance-single:
     :
     Medium:
     10:
     :
0000
0000
0000
0000
,
0000
0000
0000
0000
,
0000
0000
0000
0000
,
0000
0000
0000
0000
,
0000
0000
0000
0000
,
1000
0001
1000
0100
,
1100
1100
0010
0101
,
0000
0001
0010
0001
0010
0001
0000
0000
,
0101
0101
0010
1000
,
0100
1000
0000
0000
0000
0000
0000
0000
,
0001
0100
0000
0000
0000
0000
0000
0000
,
0001
0010
0000
0000
0000
0000
0000
0000
,
1000
0000
0100
1000
0000
0000
0010
0000
,
1000
0000
0001
1000
0000
0000
1000
0000
,
0001
0000
1000
0001
0000
0000
0001
0000
,
1000
0010
0100
0000
0001
0000
0100
0000
,
1000
0100
0001
0100
,
0011
0011
1100
1100
,
0001
0000
0000
1000
0100
0000
0000
0000
,
0001
0000
0000
0010
0001
0000
0000
0000
,
0001
0000
0000
1000
0010
0000
0000
0000
,
1100
0011
1100
0011
,
1000
0000
0010
0000
0001
0010
0100
0000
,
0001
0000
0010
0000
1000
0010
0100
0000
,
1000
0010
0001
0010
,
1010
0011
0011
1010
,
0000
0001
0100
0000
1000
0100
0000
0000
,
0010
0001
0000
0100
0000
0000
0000
0000
,
0001
0001
0000
0000
1000
1000
0000
0000
,
0001
1000
0000
0001
0000
0000
0100
0000
,
0001
0010
0100
1100
,
0001
0000
0100
0000
0001
0010
0001
0000
,
1000
0010
0100
0101
,
1000
0000
0110
0000
1000
0010
1000
0000
,
0001
1000
0100
0000
0001
1000
0010
0000
,
0110
1100
0011
0000
,
1000
0000
0100
0010
0000
0000
1000
0000
,
0001
0000
1000
0100
0000
0000
1000
0000
,
0001
0000
0100
0010
0000
0000
1000
0000
,
0001
0000
0010
0002
0000
0000
0103
0000
,
0001
0000
0100
0010
0000
0000
0001
0000
,
1000
0000
0001
0100
0000
0000
0001
0000
,
1010
0101
1010
0000
,
0011
1100
0011
0000
,
0001
0000
0010
0000
0100
1000
0100
1000
,
0100
0000
0000
0000
,
0110
0000
1100
0000
,
0011
0000
0000
0110
0000
0000
0000
0000
,
0010
0000
1000
0000
0010
1000
0100
0000
,
0001
1000
0001
1000
0001
1000
0001
0000
,
1000
1000
0010
0100
,
0001
0010
0000
0001
0000
0100
0000
0100
,
0010
0100
0010
0100
0010
0000
0011
0000
,
0110
1100
0101
0000
,
0001
1000
0001
0100
,
0101
0101
0010
1100
,
1000
0001
1000
0100
,
1100
1100
0010
0001
,
0001
1000
0001
0100
,
0101
0101
0010
1100
,
0000
1000
0010
1000
0010
1000
0000
0000
,
1100
1100
0010
0001
,
0000
0220
0000
0000
,
0000
0000
0000
0000
,
0000
0000
0000
0330
,
0000
0000
0000
0000
;
#NOTES:
     dance-single:
     :
     Hard:
     12:
     :
0000
0000
0000
0000
,
0000
0000
0000
0000
,
0000
0000
0000
0000
,
0000
0000
0000
0000
,
0000
0000
0000
0000
,
1000
0000
0000
0001
0000
1000
0000
0100
,
0000
1000
0100
1000
0100
0010
0100
1000
,
0000
0001
0010
0001
0010
0001
0000
0010
,
0000
0001
0010
0001
1000
0100
1000
0001
,
0100
0001
0000
0000
0000
0000
0000
0000
,
1000
0100
0000
0000
0000
0000
0000
0000
,
0001
0010
0000
0000
0000
0000
0000
0000
,
1000
0000
0100
1000
0000
0001
0010
0100
,
1000
0000
0001
1000
0000
0001
1000
0001
,
1000
0100
1000
0000
0010
0100
0000
0001
,
1000
0010
0100
0010
1000
0000
0100
0000
,
1000
0001
0100
0000
0001
0100
0000
0001
,
0010
0000
1000
0010
0000
0100
0010
0000
,
0001
0100
0010
0100
0000
0001
0100
0001
,
0000
1000
0100
1000
0001
0100
0000
0000
,
0001
1000
0100
1000
0010
0100
0010
0000
,
1100
0011
1100
0011
,
1000
0100
0010
0100
0000
1000
0100
1000
,
0000
0001
0100
0001
0010
0100
1000
0000
,
1010
0001
1010
0001
,
0011
0000
1000
0000
0011
0000
1000
0010
,
0000
0001
0100
0000
1000
0100
0000
1000
,
0010
1000
0000
0100
0000
0000
1001
0000
,
0001
0100
0000
0000
1000
0100
0000
0000
,
0001
1000
0000
0001
0000
0000
0110
0000
,
0001
1000
0010
0000
0100
1000
0100
0000
,
0001
0000
0100
0000
0001
0010
0001
0000
,
1000
0100
0010
0001
1000
0001
0100
0001
,
1000
0001
0000
0100
0000
0100
0000
0100
,
0001
1000
0100
1000
0001
1000
0010
1000
,
0100
1100
0011
0000
,
1000
0000
0100
0010
0000
0100
1000
0000
,
0001
0000
1000
0100
0000
1000
0000
0000
,
0001
0000
0100
0010
0000
0100
0001
0010
,
0000
0100
0001
1000
0000
0010
0100
0000
,
0001
0000
0100
0010
0000
0100
0001
0000
,
0000
0000
1000
0100
0000
1000
0010
0000
,
0011
0000
1100
0000
0011
0000
1000
0010
,
0000
0100
0010
1000
0001
0000
1000
0000
,
0001
0000
0010
0000
0001
0000
1000
0000
0100
0000
1000
0000
0001
0000
1000
0001
,
0100
0000
0000
0000
,
0110
0000
1100
0000
,
0011
0000
0000
0110
0000
0010
0100
0000
,
0010
1000
0010
0000
0010
0001
0100
0000
,
0001
0010
0100
1000
0100
0010
0001
0000
,
1000
0100
1000
0100
0010
0001
0100
0001
,
1000
0001
0100
0001
0000
0100
0000
0100
,
0010
0001
0010
1000
0100
0010
0001
0100
,
0110
1100
0101
0000
,
0001
0000
0000
1000
0000
1000
0000
0100
,
0000
1000
0100
1000
0100
0010
0100
1000
,
0001
0000
0000
1000
0000
1000
0000
0100
,
0000
0100
0000
0010
0000
0010
0001
0000
,
0001
0000
0000
1000
0000
1000
0000
0100
,
0000
1000
0100
1000
0100
0010
0100
1000
,
0000
0001
0100
0010
1000
0010
0000
0001
,
0000
0010
0100
0010
1000
0001
1000
0100
,
0000
0220
0000
0000
,
0000
0000
0000
0000
,
0000
0000
0000
0330
,
0000
0000
0000
0000
;
#NOTES:
     dance-double:
     :
     Easy:
     6:
     :
00000000
00000000
00000000
00000000
,
00000000
00000000
00000000
00000000
,
00000000
00000000
00000000
00000000
,
00000000
00000000
00000000
00000000
,
00000000
00000000
00000000
00000000
,
00001000
00000001
00001000
00000100
,
00010000
00001000
00100000
00000000
,
00100000
00010000
10000000
00000000
,
10000000
01000000
00010000
00001000
,
00000100
00000000
00000000
00000000
,
00001001
00000000
00000000
00000000
,
00011000
00000000
00000000
00000000
,
10000000
01000000
10000000
00000000
,
10000000
01000000
00010000
00000000
,
00001000
00000100
00000001
00000000
,
00000001
00000010
00001000
00100000
,
10000000
00000000
01000000
00000000
,
20020000
00000000
00000000
30030000
,
02000000
00000000
03001000
00000000
,
00020000
00000100
00030100
00000000
,
00000020
00000000
00000031
00000000
,
00000001
00000100
00001000
00010000
,
00001000
00010000
01000000
01000000
,
10000000
01000000
01000000
00000000
,
10000000
01000000
00010000
00001000
,
00010000
00001000
00010000
00001000
,
00000000
00011000
00000000
00100000
,
00010000
00001000
00000100
00000000
,
00000001
00000000
00000100
00000000
,
00001000
00010000
00001000
00000000
,
00010000
01000000
00000000
10000000
,
01000000
00010000
00000000
00001000
,
00001000
00000100
00000000
00000001
,
00000001
00000100
00000000
00001000
,
00010000
00010000
00001000
00001000
,
00010000
00001000
00011000
00000000
,
00010000
00100000
10000000
01000000
,
10000000
00100000
10000000
10000000
,
00020000
00000000
00000200
00030300
,
00000001
00000100
00000001
00000000
,
00000010
00001000
00010000
00000000
,
00010000
00100000
10000000
00000000
,
10000000
00100000
00010000
00000000
,
00010000
00001000
00010000
00000000
,
00001000
00000100
00000001
00000010
,
00000200
00000000
00000000
00000300
,
00000010
00000000
00000100
00000000
,
00000001
00000001
00000001
00000000
,
00000100
00001000
00000000
00010000
,
00100000
01000000
00000000
10010000
,
00010000
01000000
00000000
10000000
,
10000000
01000000
00000000
00010000
,
00001000
00001000
00010000
00010000
,
00001000
00010000
01100000
00000000
,
00010000
10000000
00010000
01000000
,
00001000
00010000
00000010
00000000
,
00001000
00000001
00001000
00000100
,
00010000
00001000
00100000
00000000
,
00010000
10000000
00010000
01000000
,
00001000
00010000
00000010
00000000
,
00000010
00001000
00000001
00000000
,
00000001
00000100
00001000
00010000
,
01000000
00200000
00000000
00000000
,
00000000
00000000
00000000
00000000
,
00000000
00000000
00000000
00300000
,
00000000
00000000
00000000
00000000
;
#NOTES:
     dance-double:
     :
     Medium:
     10:
     :
00000000
00000000
00000000
00000000
,
00000000
00000000
00000000
00000000
,
00000000
00000000
00000000
00000000
,
00000000
00000000
00000000
00000000
,
00000000
00000000
00000000
00000000
,
00010000
00001000
00010000
01000000
,
11000000
11000000
00100000
01010000
,
00000000
00001000
00010000
00001000
00010000
00001000
00000000
00000000
,
00001100
00000101
00000001
00000010
,
00000100
00010000
00000000
00000000
00000000
00000000
00000000
00000000
,
00010000
01000000
00000000
00000000
00000000
00000000
00000000
00000000
,
00001000
00000100
00000000
00000000
00000000
00000000
00000000
00000000
,
00000001
00000000
00000100
00001000
00000000
00000000
00010000
00000000
,
00001000
00000000
00010000
01000000
00000000
00000000
10000000
00000000
,
00010000
00000000
10000000
01000000
00000000
00000000
00010000
00000000
,
00001000
00010000
00001000
00000000
00010000
00000000
00001000
00000000
,
00000100
00000001
00000010
00000001
,
00000110
00001100
00011000
00011000
,
00010000
00000000
00000000
00100000
10000000
00000000
00000000
00000000
,
00010000
00000000
00000000
00100000
00001000
00000000
00000000
00000000
,
00010000
00000000
00000000
00000100
00000010
00000000
00000000
00000000
,
00000011
00001010
00011000
01010000
,
10000000
00000000
00100000
00000000
00010000
00100000
01000000
00000000
,
00100000
00000000
00010000
00000000
00001000
00000010
00000100
00000000
,
00001000
00000010
00000001
00000010
,
00000011
00000110
00001100
00011000
,
00000000
00010000
01000000
00000000
10000000
01000000
00000000
00000000
,
00100000
00001000
00000000
00010000
00000000
00000000
00000000
00000000
,
00001000
00000100
00000000
00000000
00000001
00000010
00000000
00000000
,
00000001
00001000
00000000
00000001
00000000
00000000
00000100
00000000
,
00001000
00010000
01000000
11000000
,
00010000
00000000
01000000
00000000
00010000
00100000
00010000
00000000
,
10000000
00100000
00010000
00011000
,
00001000
00000000
00000110
00000000
00000001
00000010
00000001
00000000
,
00000001
00000010
00000100
00000000
00010000
00001000
00010000
00000000
,
01100000
11000000
00110000
00000000
,
10000000
00000000
01000000
00010000
00000000
00000000
00001000
00000000
,
00010000
00000000
00000100
00000010
00000000
00000000
00000001
00000000
,
00000100
00000000
00001000
00000100
00000000
00000000
00001000
00000000
,
00010000
00000000
00100000
20000000
00000000
00000000
31000000
00000000
,
10000000
00000000
01000000
00010000
00000000
00000000
00001000
00000000
,
00000100
00000000
00000001
00000010
00000000
00000000
00000001
00000000
,
00000011
00000110
00001100
00000000
,
00011000
00110000
01100000
00000000
,
10000000
00000000
00100000
00000000
00010000
00001000
00010000
00001000
,
00010000
00000000
00000000
00000000
,
00011000
00000000
01100000
00000000
,
00011000
00000000
00000000
00000110
00000000
00000000
00000000
00000000
,
00000001
00000000
00000100
00000000
00000010
00001000
00000100
00000000
,
00010000
00001000
00010000
00001000
00010000
00001000
00010000
00000000
,
00001000
00010000
01000000
10000000
,
00010000
00100000
00000000
00010000
00000000
01000000
00000000
01000000
,
00100000
01000000
00100000
00000000
10000000
00000000
01000000
00000000
,
00010000
00001000
00001010
00000000
,
00000001
00001000
00000001
00000100
,
00000101
00000101
00000010
00011000
,
00100000
01000000
10000000
01000000
,
11000000
11000000
00100000
00010000
,
00001000
00010000
00001000
00000100
,
00000101
00000101
00000010
00001100
,
00000000
00010000
00001000
00010000
00001000
00010000
00000000
00000000
,
01010000
11000000
10000000
00100000
,
00000000
00022000
00000000
00000000
,
00000000
00000000
00000000
00000000
,
00000000
00000000
00000000
00033000
,
00000000
00000000
00000000
00000000
;
#NOTES:
     dance-double:
     :
     Hard:
     12:
     :
00000000
00000000
00000000
00000000
,
00000000
00000000
00000000
00000000
,
00000000
00000000
00000000
00000000
,
00000000
00000000
00000000
00000000
,
00000000
00000000
00000000
00000000
,
00010000
00000000
00000000
00001000
00000000
00000100
00000000
00000001
,
00000000
00000010
00000001
00000100
00001000
00010000
00001000
00010000
,
00000000
00001000
00010000
00001000
00100000
00010000
00000000
00100000
,
00000000
00010000
00100000
00010000
10000000
01000000
10000000
01000000
,
00010000
00001000
00000000
00000000
00000000
00000000
00000000
00000000
,
00000100
00000001
00000000
00000000
00000000
00000000
00000000
00000000
,
00000010
00001000
00000000
00000000
00000000
00000000
00000000
00000000
,
00001000
00000000
00010000
01000000
00000000
10000000
00100000
01000000
,
00001000
00000000
00010000
00001000
00000000
00010000
00001000
00000100
,
00000001
00000010
00000001
00000000
00000100
00000001
00000000
00000001
,
00000100
00001000
00010000
00100000
10000000
00000000
01000000
00000000
,
10000000
00010000
01000000
00000000
00001000
00010000
00000000
00001000
,
00000100
00000000
00000001
00000010
00000000
00000001
00000100
00000000
,
00001000
01000000
00100000
01000000
00000000
00010000
01000000
00010000
,
00000000
10000000
01000000
10000000
00010000
01000000
00000000
00000000
,
10000000
01000000
00010000
00001000
00000010
00000000
00001000
00000000
,
00011000
00001100
00011000
00001100
,
00000000
00000001
00000010
00000100
00000000
00001000
00000100
00001000
,
00000000
00000001
00000100
00000001
00001000
00000100
00000000
00000000
,
00000001
00000100
00001000
00000000
01000000
00100000
01000000
00000000
,
10100000
01100000
01010000
00011000
,
00000000
00001000
00000100
00000000
00000001
00000100
00000000
00000001
,
00000010
00000001
00000000
00000100
00000000
00000000
00011000
00000000
,
00001000
00010000
00000000
00000000
00010000
01000000
00000000
00000000
,
10000000
01000000
00000000
00010000
00000000
00000000
00011000
00000000
,
00010000
00001000
00000100
00000000
00000010
00000001
00000010
00000000
,
00000100
00000000
00001000
00000000
00010000
00100000
00010000
00000000
,
00001000
00010000
00001000
00100000
10000000
00010000
01000000
00010000
,
10000000
01000000
00000000
00010000
00000000
00001000
00000000
00000100
,
00000001
00001000
00000100
00001000
00000001
00001000
00000010
00000000
,
00010000
00001000
00011000
00000000
,
00010000
00000000
00001000
00000010
00000000
00001000
00010000
00000000
,
00001000
00000000
00010000
00100000
00000000
00010000
00001000
00000000
,
00000010
00000100
00000010
00000100
00010000
00000000
00001000
00010000
,
00000000
00001000
00100000
00001000
00000000
00100000
00001000
00000000
,
00010000
00000000
00001000
00000010
00000000
00001000
00010000
00000000
,
00001000
00000000
00010000
00100000
00000000
00010000
00001000
00000000
,
00011000
00000000
01100000
00000000
10100000
00000000
10000000
00100000
,
00000000
00010000
00001000
00000010
00000001
00000000
00000100
00000001
,
00000000
00000010
00001000
00010000
01000000
00010000
00001000
00010000
,
02000000
00000000
00000000
03000000
,
10100000
00000000
01100000
00000000
,
00011000
00000000
00000000
00000110
00000000
00000010
00000100
00000000
,
00000010
00000001
00000010
00000000
00000010
00001000
00000010
00000000
,
00000001
00000010
00000100
00001000
00000100
00010000
00001000
00000000
,
00010000
00001000
00010000
00001000
01000000
00010000
01000000
00010000
,
10000000
00100000
10000000
01000000
00000000
00010000
00000000
00001000
,
00000010
00000001
00000010
00000001
00000100
00000010
00001000
00000000
,
00011000
01010000
10100000
00000000
,
10000000
00000000
00000000
00010000
00000000
10000000
00000000
01000000
,
00000000
10000000
01000000
10000000
01000000
00010000
00001000
00000010
,
00000100
00000000
00000000
00000001
00000000
00000001
00000000
00000100
,
00000000
00000100
00000000
00000010
00000000
00000010
00010000
00000000
,
00001000
00000000
00000000
00010000
00000000
01000000
00000000
10000000
,
00000000
00100000
10000000
01000000
00010000
00001000
00010000
00001000
,
00000000
00010000
00001000
00010000
00000010
00001000
00000000
00000010
,
00000000
00001000
00000010
00001000
00000001
00000100
00000001
00000100
,
00000000
00000220
00000000
00000000
,
00000000
00000000
00000000
00000000
,
00000000
00000000
00000000
00000330
,
00000000
00000000
00000000
00000000
;
