
//----- song id: hakt
#TITLE:HAPPY☆きたかた;
#ARTIST:KIRA☆GIRL 【福島】;
#TITLETRANSLIT:HAPPY kitakata;
#ARTISTTRANSLIT:KIRA☆GIRL 【Fukushima】;
#BANNER:HAPPY kitakata.png;
#BACKGROUND:HAPPY kitakata-bg.png;
#CDTITLE:./CDTitles/DDR (2014).png;
#MUSIC:HAPPY kitakata.ogg;
#SAMPLESTART:66.279;
#SAMPLELENGTH:15;
#BPMS:0=172;
#NOTES:
     dance-single:
     :
     Beginner:
     1:
     :
0000
0000
0000
0000
,
0000
0000
0000
0000
,
0000
0000
0000
0000
,
0000
0000
0000
0000
,
0000
0000
0000
0000
,
0000
0000
0000
0000
,
0001
0000
0000
0000
,
1000
0000
0000
0000
,
1001
0000
0000
0000
,
1000
0000
1000
0000
,
1000
0000
0000
0000
,
1000
0000
0000
0000
,
0001
0000
0000
0000
,
0001
0000
0000
0000
,
1000
0000
0000
0000
,
1000
0000
0000
0000
,
0001
0000
0000
0000
,
1000
0000
1000
0000
,
1000
0000
0000
0000
,
0001
0000
0001
0000
,
0001
0000
0000
0000
,
0001
0000
0001
0000
,
1000
0000
1000
0000
,
1000
0000
0000
0000
,
1001
0000
0000
0000
,
1000
0000
0000
0000
,
1000
0000
0000
0000
,
1000
0000
0000
0000
,
1001
0000
0000
0000
,
0001
0000
0000
0000
,
0001
0000
0000
0000
,
0001
0000
0000
0000
,
1001
0000
0000
0000
,
1000
0000
0000
0000
,
0001
0000
0000
0000
,
1000
0000
0000
0000
,
1000
0000
1000
0000
,
1000
0000
0000
0000
,
0001
0000
0001
0000
,
0001
0000
0000
0000
,
0100
0000
0000
0000
,
1000
0000
0000
0000
,
0001
0000
0000
0000
,
1000
0000
0000
0000
,
0100
0000
0000
0000
,
0001
0000
0000
0000
,
1000
0000
0000
0000
,
0001
0000
0000
0000
,
1000
0000
1000
0000
,
1000
0000
0000
0000
,
0001
0000
0001
0000
,
0001
0000
0000
0000
,
1000
0000
0000
0000
,
1000
0000
0000
0000
,
0001
0000
0000
0000
,
0100
0000
0000
0000
,
0001
0000
0001
0000
,
0001
0000
0000
0000
,
1000
0000
1000
0000
,
1000
0000
0000
0000
,
0001
0000
0000
0000
,
0001
0000
0000
0000
,
1000
0000
0000
0000
,
1000
0000
0000
0000
,
1001
0000
0000
0000
,
0000
0000
0000
0000
;
#NOTES:
     dance-single:
     :
     Easy:
     3:
     :
0000
0000
0000
0000
,
0000
0000
0000
0000
,
0000
0000
0000
0000
,
0000
0000
0000
0000
,
0000
0000
0000
0000
,
0000
0000
0000
0000
,
0010
0000
0000
0000
,
0010
0000
0000
0000
,
0200
0000
0300
0000
,
0100
0100
0100
0000
,
0001
0000
0001
0000
,
1000
0000
1000
0000
,
0100
0000
0100
0000
,
0001
0000
0001
0000
,
1000
0000
1000
0000
,
0010
0000
0010
0000
,
1000
0000
1000
0000
,
1000
1000
1000
0000
,
0001
0000
0001
0000
,
0001
0001
0001
0000
,
0001
0000
1000
0000
,
0001
1000
0001
0000
,
1000
0000
0001
0000
,
1000
0001
1000
0000
,
0001
0000
0001
0000
,
0100
0000
1000
0000
,
0100
0000
0100
0000
,
0001
0001
0001
0000
,
0010
0000
0001
0000
,
1000
0000
1000
0000
,
0001
0000
1000
0000
,
0100
0100
0100
0000
,
0001
0000
0001
0000
,
0100
0000
1000
0000
,
0010
0000
0010
0000
,
1000
1000
1000
0000
,
0001
0000
1000
0000
,
0010
0000
0010
0000
,
1000
0000
1000
0000
,
0001
0001
0001
0000
,
0010
0000
0010
0000
,
0010
1000
0010
0000
,
0100
0000
0100
0000
,
0100
0001
0100
0000
,
1000
0000
1000
0000
,
0001
0000
0001
0000
,
1000
0000
0001
0000
,
1000
0001
1000
0001
,
1000
0000
1000
0000
,
0001
0000
0100
0000
,
1000
0000
1000
0000
,
0001
0000
0010
0000
,
0010
0000
0010
0000
,
0100
0000
0100
0000
,
0001
0000
1000
0000
,
0010
0010
0001
0000
,
1000
0000
1000
0000
,
0001
0000
0001
0000
,
0100
0000
0100
0000
,
0001
1000
0010
0000
,
2000
0000
0000
3000
,
0002
0000
0000
0003
,
1001
0000
0000
0000
,
0100
0100
0100
0000
,
1001
0000
0000
0000
,
0000
0000
0000
0000
;
#NOTES:
     dance-single:
     :
     Medium:
     7:
     :
0000
0000
0000
0000
,
0000
0000
0000
0000
,
0000
0000
0000
0000
,
0000
0000
0000
0000
,
0000
0000
0000
0000
,
0000
0000
0000
0000
,
2002
0000
0000
3003
,
0220
0000
0000
0330
,
0001
0001
1000
1000
,
1000
0100
0010
0001
,
0001
1000
0010
0100
,
1000
0100
0010
1000
,
0001
0010
0100
0001
,
0100
0010
0001
1000
,
0001
0001
1000
1000
,
0001
1000
0001
1000
,
0001
1000
0001
0000
1000
0001
1000
0000
,
0001
1000
0001
0000
1000
0000
1000
0000
,
0010
0100
0010
0000
0100
0010
0100
0000
,
0010
0100
0010
0000
0100
0000
0100
0000
,
0001
0010
1000
0100
,
0010
0100
1001
1001
,
0100
0010
1000
0001
,
0100
0010
1001
1001
,
1001
0000
0100
0100
,
1000
1000
0001
0001
,
0010
0000
0001
0000
0100
0000
0001
0010
,
0000
0001
1000
0001
,
1001
0000
0010
0010
,
0001
0001
1000
1000
,
0100
0000
1000
0010
0000
1000
0000
0100
,
0000
1000
0001
1000
,
1001
0000
0010
0100
,
0001
1000
0010
0100
,
0001
0000
0100
0000
1000
0000
0100
0001
,
0000
1000
0001
1000
,
0010
0000
0010
0100
0000
0100
0000
0100
,
0000
0010
1000
0001
,
1000
0000
0001
1000
0000
1000
0000
2002
,
0000
0000
0000
3003
,
1000
0001
1000
0010
,
0010
1000
0001
0100
,
0001
1000
0001
0100
,
0100
0001
1000
0010
,
1000
0001
1000
0000
0001
1000
0001
0000
,
1000
0010
1000
0000
0001
0100
0001
0000
,
1000
0100
0010
0001
,
0010
0100
1000
0001
,
1000
0000
0010
0000
1000
0100
1000
0000
,
0001
0000
0100
0000
0001
0010
0001
0000
,
1000
0010
0100
0001
,
0100
0000
0010
0000
1000
0001
1000
0001
,
0000
0000
0000
0000
0010
0001
0100
0001
,
0000
0000
0000
1000
0000
1000
0100
1000
,
0001
0001
0100
1000
,
1000
1001
0110
1001
,
0001
0000
0100
0000
0010
1000
0010
0000
,
1000
0000
0010
0000
0100
0001
0100
0000
,
1000
0000
0000
0000
0010
0010
0000
0020
,
0000
0000
0000
0030
,
0010
1000
0001
0100
,
0001
0100
0010
1000
,
0002
0000
0000
0003
,
1001
0110
1000
0001
,
1001
0000
0000
0000
,
0000
0000
0000
0000
;
#NOTES:
     dance-single:
     :
     Hard:
     10:
     :
0000
0000
0000
0000
,
0000
0000
0000
0000
,
0000
0000
0000
0000
,
0000
0000
0000
0000
,
0000
0000
0000
0000
,
0000
0000
0000
0000
0000
0000
0000
0001
,
0000
0001
1000
0001
0000
1000
0001
1000
,
0000
0001
1000
0001
0000
1000
0001
2000
,
0000
0010
0010
0010
,
0100
0010
3001
1001
,
1100
0010
0100
0010
,
0101
0010
0100
0010
,
1100
0000
0001
0000
1000
0100
1000
0010
,
0000
1000
0100
1000
0000
1000
0100
0000
,
0001
0000
0001
0010
0000
0010
0000
0010
,
0001
0000
1000
0100
0000
0100
0000
0100
,
1000
0001
1000
0001
0000
1000
0001
1000
,
0000
0000
0001
0000
0010
0000
0001
0000
0010
0000
0000
0100
0000
0000
1000
0000
,
0000
0001
0010
0001
0000
1000
0010
1000
,
0000
0000
0001
0000
0100
0000
0001
0000
0100
0000
0000
0010
0000
0000
1000
0000
,
0000
0001
0100
0010
0000
0010
0100
0001
,
0000
0000
1000
0000
0001
0000
1000
0000
0010
0000
0000
0100
0000
0000
0001
0000
,
0000
1000
0100
0010
0000
0100
1000
0010
,
0000
0000
1000
0000
0100
0000
0001
0000
0100
0000
0000
1000
0000
0000
0001
0000
,
1001
0000
0100
0000
0100
1000
0100
0000
,
0110
0000
0001
0000
0001
0010
0001
0000
,
0101
0000
0010
0000
0010
1000
0010
0000
,
1010
0000
1000
0000
1000
0100
1000
0000
,
1001
0000
0100
0000
1000
0010
1000
0000
,
1001
0000
0001
0000
0100
0010
0100
0000
,
1001
0000
0100
0000
0010
0100
1000
0000
,
1100
0000
0100
0000
0001
0100
0001
0000
,
2001
0010
0010
3001
,
1020
0100
0100
1030
,
1200
1000
0010
1300
,
0020
0130
0110
1001
,
0001
0000
0001
0010
0000
0010
0001
0001
,
0000
1100
0011
0101
,
0010
0000
0100
0010
0000
0010
0000
0010
,
0000
0010
1000
0010
0100
0010
0100
0010
,
1000
1010
0011
0110
,
1000
1100
0101
0110
,
1000
1100
1010
1001
,
0001
0011
0101
1001
,
0001
0100
0001
0000
1000
0100
1000
0000
,
0001
0010
0001
0000
1000
0010
1000
0000
,
0001
0100
0001
0100
0010
1000
0010
1000
,
0001
1001
0100
1001
,
1000
0000
0100
0000
1000
0010
0100
0000
,
0001
0000
1000
0000
0010
0100
0001
0000
,
1000
0000
0010
0000
0100
0001
1000
0000
,
0010
0000
0100
0000
0010
0100
0001
0000
,
2001
0010
0001
3010
,
1002
0100
1000
0103
,
1000
0100
1000
0000
0001
0100
0001
0000
,
0001
1000
0001
1000
0010
1000
0010
0000
,
1020
0100
1000
0130
,
0210
0001
0010
0301
,
0102
0010
1000
0013
,
2010
0000
3100
0000
1001
0000
1000
0001
,
1000
0001
0100
0001
0000
1000
0100
1000
,
0000
0010
1000
0100
0000
0001
0100
0020
,
0000
0100
0100
0130
,
1001
0000
1000
0000
0010
0100
0010
0100
,
0110
0000
0000
0000
,
0000
0000
0000
0000
;
#NOTES:
     dance-double:
     :
     Easy:
     4:
     :
00000000
00000000
00000000
00000000
,
00000000
00000000
00000000
00000000
,
00000000
00000000
00000000
00000000
,
00000000
00000000
00000000
00000000
,
00000000
00000000
00000000
00000000
,
00000000
00000000
00000000
00000000
,
00010000
00000000
00000000
00000000
,
00001000
00000000
00000000
00000000
,
00010000
00010000
00001000
00001000
,
00000100
00000001
00000001
00000001
,
00001000
00000000
00001000
00000000
,
00000001
00000000
00000001
00000000
,
00000100
00000000
00000100
00000000
,
00001000
00000000
00001000
00000000
,
00010000
00000000
00010000
00000000
,
01000000
00000000
01000000
00000000
,
10000000
00000000
01000000
00000000
,
00010000
00001000
00010000
00000000
,
00001000
00000000
00000100
00000000
,
00000001
00000100
00000001
00000000
,
00000001
00000000
00000100
00000000
,
00001000
00010000
00001000
00000000
,
00010000
00000000
01000000
00000000
,
10000000
01000000
10000000
00000000
,
00010000
00000000
00010000
00000000
,
00100000
00000000
00010000
00000000
,
00001000
00000000
00000100
00000000
,
00001000
00001000
00001000
00000000
,
00001000
00000000
00001000
00000000
,
00000010
00000000
00001000
00000000
,
00010000
00000000
01000000
00000000
,
00010000
00010000
00010000
00000000
,
01000000
00000000
01000000
00000000
,
00010000
00000000
00001000
00000000
,
00000010
00000000
00001000
00000000
,
00000001
00000001
00000001
00000000
,
00000100
00000000
00001000
00000000
,
00010000
00000000
01000000
00000000
,
10000000
00000000
10000000
00000000
,
00010000
00010000
00010000
00000000
,
10000000
00000000
01000000
00000000
,
00010000
00001000
00010000
00000000
,
00010000
00000000
00001000
00000000
,
00001000
00000100
00000001
00000000
,
00000001
00000000
00000001
00000000
,
00000100
00000000
00000100
00000000
,
00001000
00000000
00010000
00000000
,
00001000
00010000
00001000
00010000
,
01000000
00000000
01000000
00000000
,
10000000
00000000
00100000
00000000
,
00010000
00000000
00001000
00000000
,
00000100
00000001
00000100
00000000
,
00000100
00000000
00001000
00000000
,
00010000
00000000
00001000
00000000
,
00010000
00000000
01000000
00000000
,
00010000
00010000
00001000
00000100
,
00000001
00000000
00000001
00000000
,
00000010
00000000
00000001
00000000
,
00000100
00000000
00001000
00000000
,
00020000
00000000
00000000
00030000
,
00001000
00001000
00001000
00000000
,
00010000
00010000
00010000
00000000
,
00011000
00000000
00000000
00000000
,
00010000
00001000
00010000
00000000
,
00011000
00000000
00000000
00000000
,
00000000
00000000
00000000
00000000
;
#NOTES:
     dance-double:
     :
     Medium:
     7:
     :
00000000
00000000
00000000
00000000
,
00000000
00000000
00000000
00000000
,
00000000
00000000
00000000
00000000
,
00000000
00000000
00000000
00000000
,
00000000
00000000
00000000
00000000
,
00000000
00000000
00000000
00000000
,
00020000
00000000
00000000
00030000
,
00002000
00000000
00000000
00003000
,
00010000
00010000
00001000
00001000
,
00010000
00001000
00000100
00000010
,
00001000
00001000
00000001
00000000
,
00001000
00001000
00000010
00000000
,
00000100
00000100
00001000
00010000
,
01000000
10000000
00100000
00000000
,
00100000
00100000
01000000
00000000
,
01000000
01000000
00010000
00000000
,
00010000
00100000
00010000
00000000
00100000
00010000
00100000
00000000
,
00001000
00010000
00001000
00000000
00000100
00000000
00000100
00000000
,
00010000
00001000
00010000
00000000
00001000
00010000
00001000
00000000
,
00100000
00010000
00100000
00000000
01000000
00000000
01000000
00000000
,
10000000
01000000
00100000
00010000
,
00001000
00000100
00000010
00000001
,
00000100
00000010
00001000
00000100
,
00010000
00001000
00010000
00011000
,
00011000
00000000
00010000
01000000
,
10000000
10000000
00010000
00010000
,
00100000
00000000
00010000
00000000
01000000
00000000
00010000
00100000
,
00000000
00100000
00001000
00010000
,
00011000
00000000
00001000
00001000
,
00000100
00000100
00000001
00000001
,
00000100
00000000
00000001
00000100
00000000
00001000
00000000
00010000
,
00000000
01000000
01000000
10000000
,
10010000
00000000
00100000
00010000
,
00001000
00000100
00001000
00000001
,
00001000
00000000
00000010
00000000
00001000
00000000
00000100
00000100
,
00000000
00010000
00001000
00010000
,
01000000
00000000
10000000
01000000
00000000
01000000
00000000
01000000
,
00000000
00100000
00010000
10000000
,
00010000
00000000
00100000
00001000
00000000
00010000
00000000
00022000
,
00000000
00000000
00000000
00033000
,
00100000
00010000
00001000
00000100
,
00001000
00001000
00000001
00000000
,
00000100
00001000
00010000
01000000
,
10000000
10000000
00010000
00000000
,
10000000
00010000
01000000
00000000
00010000
10000000
01000000
00000000
,
10000000
00010000
00100000
00000000
00010000
10000000
00100000
00000000
,
01000000
00001000
00010000
00001000
,
00000100
00000000
00000001
00001000
,
00000001
00000010
00000001
00000100
,
00001000
00010000
00100000
00010000
,
00001000
00000100
00001000
00010000
,
01000000
00000000
10000000
00000000
10000000
01000000
10000000
01000000
,
00000000
00000000
00000000
00000000
10000000
00010000
10000000
00010000
,
00000000
00000000
00000000
10000000
00000000
10000000
01000000
10000000
,
00010000
00010000
00100000
01000000
,
00010000
00001000
00011000
00011000
,
00000100
00000001
00000100
00000010
,
00001000
00000001
00000100
00000001
,
00000100
00000000
00000000
00000000
00000100
00000100
00000000
00000020
,
00000000
00000000
00000000
00000030
,
00000100
00001000
00010000
00100000
,
00010000
00001000
00010000
00001000
,
00020000
00000000
00000000
00030000
,
00011000
00001000
00000100
00001000
,
00011000
00000000
00000000
00000000
,
00000000
00000000
00000000
00000000
;
#NOTES:
     dance-double:
     :
     Hard:
     10:
     :
00000000
00000000
00000000
00000000
,
00000000
00000000
00000000
00000000
,
00000000
00000000
00000000
00000000
,
00000000
00000000
00000000
00000000
,
00000000
00000000
00000000
00000000
,
00000000
00000000
00000000
00000000
00000000
00000000
00000000
00001000
,
00000000
00001000
00010000
00001000
00000000
00010000
00001000
00010000
,
00000000
00001000
00010000
00001000
00000000
00010000
00001000
00020000
,
00000000
00001000
00001000
00001000
,
00000100
00031000
00010000
00011000
,
00001010
00000100
00000010
00000100
,
00001010
00000100
00010000
00000100
,
00101000
00000000
00010000
00000000
10000000
01000000
10000000
00100000
,
00000000
10000000
01000000
10000000
00000000
10000000
00010000
00000000
,
00010000
00000000
10000000
00100000
00000000
00010000
00000000
00001000
,
00000100
00000000
00000001
00000100
00000000
00000100
00000000
00000100
,
00000001
00001000
00000001
00001000
00000000
00000010
00001000
00000100
,
00000000
00000000
00001000
00000000
00000100
00000000
00001000
00000000
00000100
00000000
00000000
00010000
00000000
00000000
00001000
00000000
,
00000000
00010000
00001000
00010000
00000000
00010000
01000000
10000000
,
00000000
00000000
00010000
00000000
01000000
00000000
00010000
00000000
01000000
00000000
00000000
00001000
00000000
00000000
00010000
00000000
,
00000000
00001000
00000100
00001000
00000000
00001000
00000100
00000001
,
00000000
00000000
00000001
00000000
00001000
00000000
00000010
00000000
00001000
00000000
00000000
00000100
00000000
00000000
00010000
00000000
,
00000000
00001000
00010000
00100000
00000000
10000000
00100000
10000000
,
00000000
00000000
10000000
00000000
01000000
00000000
00010000
00000000
01000000
00000000
00000000
10000000
00000000
00000000
00010000
00000000
,
10010000
00000000
01000000
00000000
01000000
00100000
01000000
00000000
,
01100000
00000000
00010000
00000000
00010000
00100000
00010000
00000000
,
00101000
00000000
00001000
00000000
00001000
00010000
00001000
00000000
,
00010100
00000000
00000100
00000000
00000100
00001000
00000100
00000000
,
00001010
00000000
00000100
00000000
00000100
00000001
00000010
00000000
,
00000011
00000000
00000100
00000000
00000010
00000001
00000100
00000000
,
00000101
00000000
00000010
00000000
00000001
00000100
00001000
00000000
,
00010000
01000000
10000000
00100000
,
10020000
00100000
00100000
01030000
,
02010000
00100000
00100000
03010000
,
00012000
01000000
01000000
00013000
,
00020000
00031000
00011000
00000100
,
00001000
00000000
00001000
00000010
00000000
00000010
00001000
00001000
,
00000000
00000110
00001100
00010100
,
00001000
00000000
00010000
00001000
00000000
00001000
00000000
00001000
,
00000000
00001000
00010000
00001000
00100000
00010000
01000000
00100000
,
10000000
10100000
00110000
01100000
,
00010000
01010000
00110000
00011000
,
00001000
00010100
00011000
00001010
,
00001000
00001100
00000101
00001001
,
00000001
00000100
00000001
00000000
00001000
00000100
00001000
00000000
,
00000010
00001000
00000100
00000000
00000010
00000001
00000100
00000000
,
00000001
00000100
00000001
00000100
00000010
00001000
00000010
00001000
,
00000100
00011000
00101000
00011000
,
00010000
00000000
01000000
00000000
10000000
00100000
01000000
00000000
,
00010000
00000000
10000000
00000000
00100000
01000000
00010000
00000000
,
00100000
00000000
00010000
00000000
00001000
00000100
00000010
00000001
,
00000000
00000000
00000100
00000000
00000010
00000100
00000001
00000000
,
00001002
00000100
00001000
00000103
,
00002001
00000100
00000001
00003100
,
00000100
00010000
00000100
00000000
00010000
00001000
00010000
00000000
,
00001000
00010000
00001000
00010000
01000000
00100000
00010000
00000000
,
10200000
01000000
10000000
01300000
,
00210000
00001000
00010000
00301000
,
00012000
00100000
00010000
00103000
,
00020000
00000000
00031000
00000000
00011000
00000000
00001000
00010000
,
00001000
00010000
00000010
00001000
00000000
00001000
00000010
00010000
,
00000000
00000100
00001000
00000010
00000000
00000010
00001000
00000200
,
00000000
00000010
00000010
00000310
,
00001100
00011000
00110000
11000000
,
01100000
00000000
00000000
00000000
,
00000000
00000000
00000000
00000000
;
