
//----- song ID: hlye -----//
#TITLE:HAPPY☆LUCKY☆YEAPPY;
#ARTIST:DJ ミラクル☆ストーン;
#ARTISTTRANSLIT:DJ Miracle☆Stone;
#BANNER:HAPPY LUCKY YEAPPY.png;
#BACKGROUND:HAPPY LUCKY YEAPPY-bg.png;
#CDTITLE:./CDTitles/DDR (2014).png;
#MUSIC:HAPPY LUCKY YEAPPY.ogg;
#SAMPLESTART:61.895;
#SAMPLELENGTH:15;
#BPMS:0=190,275=380;
#STOPS:227.938=0.313;
#BGSTAGE:30;
#NOTES:
     dance-single:
     :
     Beginner:
     6:
     :
0000
0000
0000
0000
,
0000
0000
0000
0000
,
0000
0000
0000
0000
,
0000
0000
0000
0000
,
0000
0000
0000
0000
,
0001
0010
0001
0000
,
1000
0000
1000
0000
,
0001
0100
0001
0000
,
1000
0000
1000
0000
,
0010
1000
0001
0000
,
0100
0000
0100
0000
,
0010
0100
0010
0000
,
1000
0000
0001
0000
,
0010
0010
0010
0000
,
0100
0100
0100
0000
,
1000
1000
1000
0000
,
0001
0001
0001
0000
,
0100
0010
1000
0000
,
0100
0010
0001
0000
,
1000
0000
0001
0000
,
1000
0001
1001
0000
,
0020
0000
0130
0000
,
2000
0000
3100
0000
,
0002
0000
0103
0000
,
0000
0000
0000
0000
,
0010
0010
0010
0000
,
1000
0001
1000
0000
,
0010
0010
0010
0000
,
0001
1000
0001
0000
,
0100
0100
0100
0000
,
0001
1000
0001
0000
,
0100
0100
0100
0000
,
1000
0001
1000
0000
,
1001
0000
0000
0000
,
0000
0000
0000
0000
,
0000
0000
0000
0000
,
0000
0000
0000
0000
,
0020
0000
0030
0000
,
0002
0000
0003
0000
,
0200
0000
0300
0000
,
2000
0000
3000
0000
,
0010
0010
0010
0000
,
1000
1000
1000
0000
,
0001
0001
0001
0000
,
0010
0010
0010
0000
,
0100
0100
1000
1000
,
0010
0010
0001
0001
,
0100
0100
1000
1000
,
0010
0010
0010
0000
,
1000
0010
1000
0000
,
0001
0010
0100
1000
,
0001
1000
0001
0000
,
0100
0100
0010
0010
,
1000
0001
1000
0000
,
0100
0010
0001
0100
,
0010
1000
0010
0000
,
1000
1000
0001
0001
,
0000
0100
0000
0010
,
1000
0010
0000
0001
,
0001
0010
0010
0100
,
1000
0100
0000
0001
,
0001
0100
0100
0010
,
1000
0010
0000
0001
,
0000
1000
0000
1001
,
0000
0000
0000
0020
,
0000
1030
0000
0002
,
0000
1003
0000
0100
,
0000
0010
0000
0100
,
0100
0100
0000
0001
,
0000
0000
0000
0010
,
0000
0000
0000
0100
,
0000
0000
0000
1000
,
0000
0000
0000
0001
,
0000
0000
0000
0100
,
0000
0000
0000
0010
,
0000
0000
0000
1000
,
0000
0000
0000
0001
,
0000
0000
0000
0010
,
0000
0000
0000
1000
,
0000
0000
0000
0100
,
0000
0000
0000
0001
,
0000
0000
0000
1000
,
0000
0000
0000
0001
,
0000
0001
0000
1000
,
0000
1000
0000
2002
,
0000
0000
3003
0000
,
0000
0000
0000
0000
;
#NOTES:
     dance-single:
     :
     Easy:
     10:
     :
0000
0000
0000
0000
,
0000
0000
0000
0000
,
0000
0000
0000
0000
,
0000
0000
0000
0000
,
0000
0000
0000
0000
,
0101
0110
1000
0010
,
0100
0000
0010
0000
1000
0100
1000
0000
,
1010
0011
0100
0010
,
0001
0100
0010
0000
,
0101
1010
0100
1000
,
0001
0000
1000
0000
0100
0010
0100
0000
,
0110
1001
0010
0001
,
0000
0100
0100
0000
1000
0000
1000
0000
,
0011
1010
0100
0010
,
1000
0000
0001
0000
0100
0001
0100
0000
,
0101
1100
0010
0100
,
0010
0001
1000
0000
,
0110
1010
0001
0010
,
0100
0000
1000
0000
0001
1000
0100
0000
,
0000
0010
0000
0010
0000
0010
0000
0010
,
0000
0001
1000
0001
1000
0000
1001
0000
,
0100
0100
2000
3000
,
0100
0100
0002
0003
,
0010
1100
0010
0101
,
0000
0100
0100
0100
0100
0000
0001
0000
,
0120
1030
0001
0001
,
0010
0001
0100
1000
,
1020
0130
0010
0010
,
1000
0100
0010
0001
,
0201
0310
0001
0001
,
0100
0010
1000
0001
,
1000
0100
0001
0100
,
0000
1000
1000
1000
1000
0000
0110
0000
,
0002
0000
0000
0000
,
0000
0000
0000
0000
,
0000
0000
0000
0000
,
0000
0000
0000
0003
,
1000
0000
0100
0000
,
0001
0010
1000
0100
,
0001
0000
1000
0000
,
0001
0000
0100
0000
,
0001
0001
0100
0100
,
0010
0010
1000
1000
,
0001
0001
0010
0010
,
0100
0100
1000
1000
,
0001
0010
1000
0100
,
0001
0010
1000
0100
,
0001
0100
0010
1000
,
0001
1000
2002
3003
,
1100
0011
1100
0100
,
0001
0010
1000
0100
,
1010
0110
0101
0100
,
0010
1000
0001
1000
,
0101
1010
0101
0100
,
0010
1000
0001
1000
,
0011
1010
0110
0100
,
0010
0100
0100
0100
,
0000
0010
1000
0001
,
0100
0000
1000
0001
1000
0000
1010
0000
,
0110
0000
0100
0001
0100
0000
0001
0000
,
0010
0100
1000
0110
,
1010
0000
0010
1000
0001
0000
0100
0000
,
0010
0100
1000
0001
,
0010
0100
0010
2000
,
0000
0000
3000
0001
,
0001
0200
0300
1000
,
1000
0002
0003
0001
,
0100
0010
0100
1000
,
0001
0220
0330
1000
,
0000
0100
0000
0010
,
0100
1000
0000
1000
,
0000
0010
0000
0001
,
0000
0100
0000
1000
,
0000
0001
0000
1000
,
0100
0010
0000
1000
,
0000
0001
0000
1000
,
0000
0001
0000
1000
,
0000
0010
0000
0100
,
0001
0100
0000
0010
,
0000
1000
0000
0100
,
0000
0010
0000
0001
,
0000
0110
0000
1000
,
0000
0110
0000
0001
,
0000
0110
0000
0001
,
0100
1000
0000
2002
,
0000
0000
3003
0000
,
0000
0000
0000
0000
;
#NOTES:
     dance-single:
     :
     Medium:
     13:
     :
0000
0000
0000
0000
,
0000
0000
0000
0000
,
0000
0000
0000
0000
,
0000
0000
0000
0000
,
0000
0000
0000
0000
,
1010
0000
0110
0000
1000
0010
0100
0001
,
0000
0100
0000
0100
0010
1000
0001
0000
,
0101
0000
1100
0000
0010
1000
0100
0010
,
0000
0010
0000
0010
0001
0000
1000
0000
,
1010
0000
0101
0000
0010
0100
0001
0100
,
0000
0100
0000
0100
0010
1000
0100
0000
,
0110
0000
1001
0000
0100
0001
1000
0001
,
0000
0010
0010
0010
0010
0000
0001
0000
,
1100
0000
0101
0000
0010
0001
0100
0010
,
0000
1000
0000
0100
0010
0010
0001
0000
,
1010
0000
0011
0000
0100
0001
0010
0100
,
0000
1000
0000
0100
0010
0010
0001
0000
,
0100
0000
0101
0000
0010
0001
0100
0001
,
0000
1000
0000
0001
0100
0100
0010
0000
,
0000
1010
0000
0011
0000
0101
0000
1100
,
0000
0010
1000
0001
0010
0100
1000
0000
,
0010
0000
0010
0000
0001
0100
1000
0000
,
0010
0000
0010
0000
1000
0010
0100
0000
,
0010
0101
0010
1100
,
0000
0010
0010
0010
0010
0001
1000
0000
,
0021
0000
0130
0000
0001
1000
0001
0100
,
0000
0010
1000
0010
0000
0010
0100
0001
,
1200
0000
0310
0000
1000
0001
1000
0100
,
0000
0001
1000
0010
0000
1000
0001
0000
,
1020
0000
0130
0000
1000
0001
1000
0100
,
0000
1000
0010
0001
0000
0010
0100
1000
,
0001
0000
0010
0000
1000
0100
0010
0001
,
0000
0001
0001
0001
0001
0000
0110
0000
,
2000
0000
0000
0000
,
0000
0000
0000
0000
,
0000
0000
0000
0000
,
0000
0000
0000
3000
,
0001
0000
0010
0000
,
1000
0100
0001
0010
,
1000
0000
0001
0000
,
1000
0000
0010
0101
,
1000
1000
0010
0010
,
0100
0100
0001
0001
,
1000
1000
0100
0100
,
0010
0010
0001
0001
,
1000
0010
1000
0000
0100
0001
0100
0000
,
0001
0010
0001
0000
0010
1000
0010
0000
,
1000
0100
0010
0001
0100
0010
1000
0001
,
1000
0001
2002
3003
,
0011
0000
1100
0000
0011
0100
0010
0001
,
1000
0010
0100
0010
0100
0100
0001
0000
,
0101
0000
0110
0000
1010
0100
0010
0100
,
0010
1000
0100
0010
0001
1000
0001
0000
,
1010
0000
0101
0000
1010
0001
0010
1000
,
0010
0100
0001
0100
1000
1000
0100
0000
,
1100
0000
0101
0000
0110
0001
0010
1000
,
0100
0010
0010
0010
0010
0100
1000
0000
,
1001
0000
1010
0100
0001
0100
1000
0001
,
0010
1000
0001
0100
0001
0010
0001
0000
,
0110
0000
0010
0001
0010
0100
1000
0010
,
0001
0010
1000
0100
1000
0000
0110
0000
,
0101
0000
1100
0010
0001
0001
0010
0001
,
0100
0010
0010
0100
0001
0100
0001
0010
,
0100
0010
1000
0010
0100
0010
0002
0000
,
0000
0000
0003
1000
,
1000
0000
0010
0001
0100
0000
0001
0000
,
0001
0000
1000
0010
0100
0000
1000
0000
,
0010
0001
0010
0000
0100
1000
0100
0000
,
0010
0220
0330
0001
,
0000
0010
0000
0100
,
0010
0001
1000
0001
,
0100
0010
0100
0001
,
0100
0010
0100
0001
,
0000
1000
0000
0001
,
0010
0100
1000
0001
,
0010
1000
0010
0001
,
0000
1000
0000
0001
,
0000
0100
0000
0010
,
1000
0010
0100
0010
,
1000
0100
0010
0001
,
0100
0010
1000
0001
,
0000
0101
0000
1000
,
0000
1100
0000
0001
,
0010
0100
1000
0001
,
0100
0010
1000
2002
,
0000
0000
3003
0000
,
0000
0000
0000
0000
;
#NOTES:
     dance-single:
     :
     Hard:
     16:
     :
0000
0000
0000
0000
,
0000
0000
0000
0000
,
0000
0000
0000
0000
,
0000
0000
0000
0000
,
0000
0000
0000
0000
,
0011
0000
0000
0000
0110
0000
0000
0000
0001
1000
0010
0000
1000
0000
0001
0000
,
1000
0000
0100
0000
0000
0000
0100
0000
0010
0001
0010
0001
1000
0000
0100
0000
,
1100
0000
0000
0000
0101
0000
0000
0000
0010
0100
0001
0000
0100
0000
0010
0000
,
1000
0010
0100
0010
1000
0000
0001
0000
,
0011
0000
0000
0000
1100
0000
0000
0000
0010
0001
0100
0000
0010
0000
0100
0000
,
1000
0000
0100
0000
0000
0000
0100
0000
0001
1000
0001
1000
0100
0000
0010
0000
,
0110
0000
0000
0000
1001
0000
0000
0000
0100
0010
1000
0000
0001
0000
1000
0000
,
0000
0010
0010
0010
1010
0000
0001
0000
,
0101
0000
0000
0000
1100
0000
0000
0000
0010
0100
1000
0000
0100
0000
0010
0000
,
0001
0000
1000
0000
0001
0000
0100
0000
0010
0100
0010
0000
1000
0000
0001
0000
,
0011
0000
0000
0000
1010
0000
0000
0000
0100
0010
1000
0000
0010
0000
0100
0000
,
1000
0000
0100
0000
0001
0000
0100
0000
0010
1000
0010
1000
0001
0010
0001
0010
,
0100
0000
0000
0000
1100
0000
0000
0000
0010
0001
1000
0000
0100
0000
1000
0000
,
0001
0000
0100
0000
1000
0000
0100
0000
0010
0100
0010
0000
1000
0000
0001
0000
,
0010
0011
0000
1010
0000
1100
0000
0101
,
0000
0011
1001
1010
1001
0110
1001
0000
,
0010
0000
0000
0000
0010
0000
0000
0000
1000
0010
0100
0000
0001
0000
0000
0000
,
0010
0000
0010
0000
0001
0010
0100
1000
,
0010
0000
0000
0000
1000
0001
0100
0001
1000
0000
0000
0000
0100
1000
0001
1000
,
0100
0000
0010
0000
0010
0100
0010
0100
0010
0000
0001
0000
1000
0000
0000
0000
,
1020
0000
0000
0000
0031
0000
0000
0000
1000
0100
0001
0000
1000
0000
0100
0000
,
0010
0001
1000
0000
0010
1000
0001
0000
0010
0000
0010
0000
0100
0000
1000
0000
,
0201
0000
0000
0000
1300
0000
0000
0000
0001
0010
1000
0000
0001
0000
0100
0000
,
0010
0100
0001
0000
1000
0001
0010
0000
0001
0000
0001
0000
1000
0000
0000
0000
,
0021
0000
0000
0000
1030
0000
0000
0000
0001
0100
1000
0000
0001
0000
0100
0000
,
0010
1000
0001
0000
0010
0001
1000
0000
1000
0000
0010
0000
0100
0000
0001
0000
,
1000
0000
0000
0100
0010
0000
0001
1000
0001
0000
0000
0100
0010
0000
1000
0000
,
0000
0000
1000
0001
1000
0000
0100
0000
0010
0000
0001
0000
1000
0000
0000
0000
,
0002
0000
0000
0000
,
0000
0000
0000
0000
,
0000
0000
0000
0000
,
0000
0000
0000
0003
,
1000
0000
0010
0000
,
0001
0100
1000
0010
,
0001
0000
1000
0000
,
0001
0000
0010
1100
,
0001
0001
0010
0010
,
0100
0000
0100
0000
1000
0100
1000
0000
,
0001
0001
0100
0100
,
0010
0000
0010
0000
1000
0010
1000
0000
,
0001
0010
0001
0010
0100
1000
0100
1000
,
0001
0100
0001
0100
0010
1000
0010
1000
,
0001
1000
0001
1000
0100
0010
0100
0010
0001
0100
0010
1000
0100
0010
0001
1000
,
0001
0000
0000
0001
1000
0000
0001
0000
2002
0000
0000
0000
3003
0000
0000
0000
,
1010
0000
0000
0000
0101
0000
0000
0000
1010
0000
0100
0000
0010
0001
1000
0000
,
0001
0000
0010
0000
0100
0000
0010
0001
0100
0001
0100
0001
1000
0010
0100
0001
,
1000
0000
0000
0000
0110
0000
0000
0000
0001
0000
0100
0000
0010
1000
0100
0000
,
0010
0000
0001
0010
0100
0000
0010
0100
1000
0000
0001
0000
1000
0000
0001
0000
,
0011
0000
0000
0000
1100
0000
0000
0000
0011
0000
1000
0000
0010
1000
0001
0000
,
0010
0000
0100
0000
1000
0000
0100
0010
0001
0010
0001
0010
0100
1000
0001
0100
,
0001
0000
0010
0000
0110
1000
0010
0001
,
0100
0000
0010
0000
0010
0000
0010
0000
0010
1000
0100
0010
0001
0100
0010
1000
,
0001
0000
0000
0000
0011
0000
0100
0000
1000
0001
0100
0000
0001
0000
1000
0000
,
0100
0000
0010
0001
1000
0001
0100
0010
1000
0100
0010
0001
1000
0000
0000
0000
,
0110
0000
0000
0000
0010
0000
1000
0000
0010
0100
0001
0000
0100
0000
0010
1000
,
0010
0000
1000
0001
1000
0000
0100
0010
0001
0000
0010
0000
0110
0000
0000
0000
,
1100
0000
0000
0000
0101
0000
0010
0000
1000
0001
1000
0000
0010
0000
1000
0000
,
0100
0000
0010
0100
0010
0001
0100
0010
1000
0010
0100
0001
1000
0000
0010
0000
,
0001
0010
0100
0010
0001
0010
2000
0000
,
0000
0000
3000
0001
,
0001
0000
0000
0000
0010
0100
1000
0000
0100
0000
0000
0000
1000
0000
0000
0000
,
1000
0000
0000
0000
0001
0100
0010
0000
0100
0000
0000
0000
0001
0000
0000
0000
,
0010
0001
1000
0001
0010
0000
0000
0000
0100
1000
0001
1000
0100
0000
0000
0000
,
0010
0220
0330
1000
,
0010
0100
0010
1000
,
0010
0000
0100
0000
0010
1000
0010
0000
,
1000
0000
0001
0000
1000
0010
1000
0000
,
0001
0010
0001
0000
1000
0010
1000
0000
,
0001
0100
0001
1000
,
0001
0000
0100
0000
0001
0000
1000
0100
,
0010
0000
0001
0100
0010
0000
1000
0000
,
0000
0001
0000
1000
,
0010
0001
0010
1000
,
0010
0000
0001
0000
0010
0100
0010
0000
,
1000
0000
0010
0000
0100
0000
0001
1000
,
0001
0000
0010
0100
0010
0100
1000
0000
,
0100
0010
0100
0001
,
0100
0010
0100
1000
,
0001
0000
1000
0100
1000
0000
0100
0010
,
0001
0100
0010
1000
0001
0000
0220
0000
,
0000
0000
0330
0000
,
0000
0000
0000
0000
;
#NOTES:
     dance-single:
     :
     Challenge:
     18:
     :
0000
0000
0000
0000
,
0000
0000
0000
0000
,
0000
0000
0000
0000
,
0000
0000
0000
0000
,
0000
0000
0000
0000
,
1001
0000
0100
0000
1001
0000
0000
0000
1000
0100
0001
0000
0100
0000
1000
0000
,
0000
0000
1010
0000
0000
0000
0011
0000
0001
0100
0010
1000
0100
0000
0010
0000
,
1001
0000
0010
0000
1001
0000
0000
0000
0001
0100
1000
0000
0100
0000
0001
0000
,
0000
0011
0001
1010
2000
0000
3001
0000
,
0110
0000
1000
0000
0110
0000
0000
0000
0001
0010
1000
0000
0010
0000
0001
0000
,
0000
0000
0101
0000
0000
0000
1100
0000
1000
0010
0100
0001
0010
0000
0100
0000
,
0110
0000
0001
0000
0110
0000
0000
0000
1000
0010
0001
0000
0010
0000
1000
0000
,
0000
1010
1100
0110
0012
0000
1003
0000
,
1010
0000
0100
0000
0011
0000
0000
0000
0001
0010
1000
0000
0001
0100
1000
0000
,
0000
0000
1010
0000
0000
0000
0011
0000
0010
0001
0100
0010
1000
0000
0100
0000
,
1100
0000
0010
0000
0101
0000
0000
0000
0001
0100
1000
0000
0001
0010
1000
0000
,
0000
0000
1010
0000
0000
0000
1100
0000
0100
1000
0010
0100
0001
0010
1000
0000
,
1010
0000
0100
0000
0011
0000
0000
0000
1000
0100
0001
0000
1000
0010
0001
0000
,
0000
0000
0101
0000
0000
0000
1100
0000
1000
0010
0100
0001
2000
0000
3001
0000
,
0000
0011
0000
0101
0000
1100
0000
1010
,
0000
0012
0103
2010
3100
0011
1001
0000
,
2000
0000
0000
0000
3100
0000
0001
0000
0100
0010
0001
0000
1000
0000
0000
0000
,
0002
0000
0103
1000
0100
0100
0110
0110
,
1001
0000
0000
0000
0001
0010
0100
1000
0001
0000
0000
0000
0001
0100
0010
1000
,
0001
0000
0100
0000
0100
0010
0100
0010
0100
0000
0110
0000
1001
0000
0000
0000
,
1200
0000
0301
0000
1020
0000
0031
0000
1000
0100
0010
0000
0001
0100
0001
0000
,
0000
0000
1000
0100
0010
0000
0110
0000
0000
0000
0001
0100
0010
0000
0110
0000
,
1020
0000
0031
0000
1200
0000
0301
0000
1000
0010
0100
0000
0001
0010
0001
0000
,
1000
0100
0001
0000
1000
0000
0010
0000
0001
0100
0010
1000
0100
0010
0001
0000
,
0201
0000
1300
0000
0021
0000
1030
0000
0001
0100
0010
0000
1000
0100
1000
0000
,
0000
0000
0001
0100
0010
0000
0110
0000
0000
0000
1000
0100
0010
0000
0110
0000
,
0021
0000
1030
0000
0201
0000
1300
0000
0001
0010
0100
0000
1000
0010
1000
0000
,
0000
0000
1000
0001
1000
0000
1001
0000
1000
0100
0010
0001
0100
0010
1000
0100
,
0020
0000
0000
0000
,
0000
0000
0000
0000
,
0000
0000
0000
0000
,
0000
0000
0000
0030
,
0001
0000
1001
0000
0001
0100
0010
1000
,
0001
0000
0100
0000
0010
0000
1000
0100
0010
0001
0010
0001
1000
0100
0010
0001
,
1000
0000
0110
0000
0001
0100
1000
0100
,
0001
1000
0002
0000
0013
0010
1001
0000
,
0011
0011
0110
0110
,
1100
1100
1001
1001
,
1010
1010
0110
0110
,
0101
0101
1001
1001
,
1000
0100
0010
0001
1000
0100
0010
0001
,
1000
0000
0010
0000
0100
0000
0001
0000
1000
0010
0100
0000
0001
1000
0001
1000
,
0100
0010
0001
0100
0010
1000
0100
1000
0010
0100
0001
0010
0100
1000
0001
0000
,
0201
0300
1200
0300
1002
0000
0003
0000
,
0110
0000
0001
0000
1010
0000
0001
0000
1100
0000
0001
0000
0010
0100
1000
0000
,
0001
0000
0100
0000
1000
0000
0100
0010
1000
0100
0010
0100
0001
0100
1000
0100
,
0010
0000
0000
0000
1001
0000
0000
0000
1000
0000
1000
0000
0100
0010
0100
0000
,
0011
0000
0010
0100
1000
0000
0010
0100
0001
0000
0100
0000
1000
0000
0100
0000
,
0110
0000
1000
0000
0011
0000
1000
0000
0101
0000
1000
0000
0010
0100
0001
0000
,
1000
0000
0100
0000
0001
0000
0100
0010
0001
0100
0010
0100
1000
0100
0001
0100
,
0010
0000
1001
0000
0001
0101
0100
0110
,
1010
0000
0010
0000
0011
0000
0010
0000
0010
1000
0100
0010
0001
0100
0010
1000
,
1001
0000
0000
0000
0110
0000
1000
0000
0100
0010
0001
0000
1000
0000
0010
0000
,
0001
0000
0010
0100
0001
0010
0100
0010
1000
0010
0001
0010
0100
0000
0000
0000
,
1001
0000
0000
0000
0001
0000
0001
0000
0010
0100
0010
0000
1100
0000
0100
0010
,
0001
0000
0100
0010
1000
0000
0010
0000
0001
0000
0010
0000
0110
0000
0001
0000
,
1100
0000
0001
0000
1010
0000
0001
0000
0100
0010
1000
0000
0001
0000
0010
0000
,
1000
0000
0010
0100
1000
0010
0100
0010
0001
0010
1000
0010
0100
0000
0000
0000
,
1001
0000
0000
0000
0100
0000
0010
0000
1001
0000
0000
0000
2010
0000
0000
0001
,
0000
0001
0100
0100
3100
0000
0002
0000
,
0103
0000
1000
0000
0100
0010
0100
0000
0110
0000
0000
0000
2000
0000
0000
0000
,
3100
0001
0100
0100
0100
0100
0110
0000
,
0001
0100
0010
0000
1010
0000
0000
0000
1000
0100
0010
0000
0002
0000
0003
0000
,
2000
3000
0220
0000
0330
0000
1000
0100
,
0010
0000
0001
0100
0010
0000
1000
0100
,
0010
0000
0001
0000
0100
0000
0010
1000
,
0010
0000
0100
0001
0100
0000
0001
1000
,
0001
1000
0001
0000
0100
0000
0010
1000
,
0100
0000
0001
0100
1000
0000
0010
0100
,
0001
0000
0010
1000
0010
0000
0001
0100
,
0001
1000
0001
0010
0001
1000
0002
0000
,
0000
0000
1003
0000
0000
0000
1000
0010
,
0100
0000
0001
0010
0100
0000
1000
0010
,
0100
0000
1000
0100
0001
0100
1000
0000
,
0100
0001
1000
0000
0100
0001
0100
1000
,
0100
1000
0010
0100
0010
0100
0001
0000
,
0010
0100
0010
0100
0010
0100
1000
0000
,
0010
0100
0010
0100
0010
0100
0001
0000
,
0100
0000
0010
0000
0110
0000
1000
0010
,
0001
0010
1000
0000
0000
0000
2002
0000
,
0000
0000
3003
0000
,
0000
0000
0000
0000
;
#NOTES:
     dance-double:
     :
     Easy:
     9:
     :
00000000
00000000
00000000
00000000
,
00000000
00000000
00000000
00000000
,
00000000
00000000
00000000
00000000
,
00000000
00000000
00000000
00000000
,
00000000
00000000
00000000
00000000
,
00000011
00000110
00001000
00000100
,
00010000
00001000
00100000
01000000
,
10010000
01100000
00100000
10000000
,
01000000
00010000
00001000
00001000
,
00001010
00011000
00000010
00001000
,
00010000
01000000
00100000
01000000
,
11000000
01010000
00100000
00100000
,
00001000
00010000
00001000
00000000
,
00001100
00000101
00000010
00001000
,
00010000
01000000
00100000
01000000
,
01010000
11000000
00100000
00100000
,
00010000
00001000
00000100
00000010
,
00000011
00001100
00000010
00010000
,
00001000
00010000
00100000
10000000
,
00010000
00000000
10000000
00000000
,
00010000
10000000
10010000
00000000
,
00001000
00001000
00011000
00000000
,
00000001
00000001
00001001
00000000
,
00000010
00001000
00000100
00001000
,
00010000
00001000
00010000
00000000
,
00011000
00001100
00000010
00000100
,
00001000
00000100
00010000
00001000
,
00110000
11000000
00010000
00100000
,
01000000
00010000
00001000
00000000
,
00001010
00000101
00000001
00000010
,
00001000
00010000
00100000
00100000
,
10000000
01000000
00010000
01000000
,
00100000
00010000
00001000
00010000
,
00002000
00000000
00000000
00000000
,
00000000
00000000
00000000
00000000
,
00000000
00000000
00000000
00000000
,
00000000
00000000
00000000
00003000
,
00000100
00000000
00001000
00000000
,
00010000
00100000
10000000
01000000
,
00100000
00000000
00010000
00000000
,
01000000
00000000
00001000
00011000
,
00000010
00000010
00000100
00000100
,
00000001
00000001
00001000
00001000
,
00000010
00000010
00010000
00010000
,
00100000
00100000
10000000
10000000
,
01000000
01000000
00100000
00010000
,
00001000
00000100
00000010
00000010
,
00000001
00000010
00000100
00001000
,
00010000
00001000
00022000
00033000
,
00110000
01100000
00100000
01000000
,
00010000
00001000
00000010
00000100
,
00001001
00000110
00000001
00000100
,
00001000
00010000
00100000
00010000
,
00011000
00110000
01000000
10000000
,
00100000
01000000
00001000
00010000
,
00001100
00000110
00000001
00000100
,
00001000
00000010
00000001
00001000
,
00000000
00000001
00000100
00001000
,
00010000
00100000
01000000
10100000
,
01010000
10000000
01000000
00100000
,
00001000
00010000
00001000
00110000
,
01100000
00010000
00001000
00000100
,
00000001
00001000
00000010
00001000
,
00001010
00000100
00000101
00002000
,
00000000
00000000
00003000
00000010
,
00000010
00000100
00000000
00001000
,
00001000
00010000
00000000
01000000
,
10000000
00010000
01000000
00100000
,
01000000
02200000
03300000
00010000
,
00000000
10000000
00000000
01000000
,
00100000
00010000
00000000
00001000
,
00000000
00000100
00000000
00000010
,
00000000
00000001
00000000
00000100
,
00000000
00000010
00000000
00010000
,
00001000
00010000
00000000
00001000
,
00000000
00010000
00000000
01000000
,
00000000
00000000
00000000
00100000
,
00000000
00010000
00000000
01000000
,
00000000
00100000
00000000
10000000
,
00000000
01000000
00000000
00010000
,
00001000
00010000
00000000
00000010
,
00000000
00011000
00000000
00100000
,
00000000
00011000
00000000
00000010
,
00000000
00001001
00000000
00000100
,
00000010
00000001
00000000
00002002
,
00000000
00000000
00003003
00000000
,
00000000
00000000
00000000
00000000
;
#NOTES:
     dance-double:
     :
     Medium:
     13:
     :
00000000
00000000
00000000
00000000
,
00000000
00000000
00000000
00000000
,
00000000
00000000
00000000
00000000
,
00000000
00000000
00000000
00000000
,
00000000
00000000
00000000
00000000
,
10100000
00000000
01100000
00000000
00010000
10000000
01000000
00100000
,
00000000
00010000
00001000
00000100
00000010
00000010
00000100
00000000
,
00000011
00000000
00001100
00000000
00000010
00001000
00000001
00000100
,
00000000
00001000
00010000
00100000
10000000
00000000
10000000
00000000
,
10100000
00000000
01010000
00000000
00100000
01000000
00100000
01000000
,
00000000
00001000
00010000
00000010
00001000
00001000
00000100
00000000
,
00000101
00000000
00001100
00000000
00000010
00001000
00000010
00000100
,
00000000
00001000
00010000
00001000
00010000
00000000
00110000
00000000
,
11000000
00000000
01010000
00000000
00100000
00010000
00100000
01000000
,
00000000
00010000
00001000
00000010
00000001
00000001
00000100
00000000
,
00001100
00000000
00000011
00000000
00000100
00000001
00000100
00000010
,
00000000
00010000
00001000
00100000
00010000
00000000
01000000
00000000
,
10100000
00000000
01010000
00000000
00100000
00010000
00001000
00000010
,
00000000
00000100
00010000
00001000
00100000
00010000
10000000
00000000
,
00000000
01100000
00000000
00011000
00000000
00001010
00000000
00000101
,
00000000
00001000
00000100
00000010
00000001
00000100
00000010
00000000
,
00010000
00000000
00010000
00000000
00001000
01000000
00100000
00000000
,
10000000
00000000
10000000
00000000
00010000
00100000
01000000
10000000
,
00100000
00000000
00010000
00001000
00010000
00000000
00000010
00001000
,
00000010
00000100
00000100
00000100
00000100
00000010
00001000
00000000
,
00011000
00000000
01010000
00000000
00100000
10000000
01000000
00100000
,
00010000
00100000
01000000
00100000
00001000
00010000
00001000
00000000
,
00001010
00000000
00000101
00000000
00001000
00000100
00000010
00000001
,
00000100
00001000
00010000
00001000
00010000
00100000
10000000
00000000
,
10100000
00000000
01010000
00000000
10000000
00010000
10000000
01000000
,
00100000
00010000
00001000
00000100
00000010
00000001
00000010
00000000
,
00000001
00000000
00000100
00000010
00001000
00000000
00000100
00010000
,
00000000
00001000
00001000
01000000
00100000
10000000
00010000
00000000
,
00200000
00000000
00000000
00000000
,
00000000
00000000
00000000
00000000
,
00000000
00000000
00000000
00000000
,
00000000
00000000
00000000
00300000
,
01000000
00000000
00010000
00000000
,
00001000
00000010
00000001
00000100
,
00000010
00000000
00001000
00000000
,
00000100
00000000
00010000
00011000
,
00100000
00100000
01000000
01000000
,
10000000
10000000
00010000
00010000
,
00100000
00100000
00001000
00001000
,
00000010
00000010
00000001
00000001
,
00000100
00000010
00000100
00000000
00000010
00010000
00001000
00000000
,
00100000
00010000
00100000
00000000
01000000
10000000
01000000
00000000
,
10000000
01000000
00100000
00010000
01000000
00001000
00010000
00000010
,
00001000
00000001
00002002
00003003
,
00000011
00000000
00001100
00000000
00000010
00000001
00000100
00000000
,
00000010
00001000
00010000
01000000
00100000
00100000
01000000
00000000
,
10010000
00000000
01100000
00000000
10000000
01000000
00100000
00000000
,
00001000
00010000
00100000
00010000
00001000
00010000
00100000
00000000
,
00011000
00000000
00001010
00000000
00000100
00000001
00001000
00000000
,
00000100
00001000
00010000
00100000
00010000
10000000
00100000
00000000
,
01010000
00000000
01100000
00000000
00001000
00010000
00000010
00000000
,
00000100
00000010
00000010
00000010
00001000
00000001
00000010
00000000
,
00000001
00000000
00000010
00000100
00001000
00000000
00000010
00001000
,
00010000
01000000
00100000
10000000
00100000
01000000
00100000
00000000
,
10100000
00000000
01000000
00100000
00010000
00000000
00100000
00010000
,
00001000
00010000
00100000
00010000
00001000
00000100
00000010
00000000
,
00000110
00000000
00001000
00000001
00000100
00000000
00000010
00000100
,
00000001
00000100
00001000
00010000
00100000
10000000
00010000
00000000
,
00110000
01000000
11000000
00020000
,
00000000
00000000
00030000
00100000
,
00100000
00000000
00001000
00010000
00000100
00000000
00000010
00000000
,
00000010
00000000
00000001
00000100
00000010
00000000
00010000
00000000
,
00001000
00100000
00010000
00000000
01000000
00100000
10000000
00000000
,
00010000
02200000
03300000
00010000
,
00000000
10000000
00000000
00010000
,
10000000
01000000
00010000
00001000
,
00000010
00000000
00000001
00000000
,
00001000
00000010
00000100
00000001
,
00000000
00001000
00000000
00000001
,
00000100
00001000
00010000
00100000
,
01000000
00000000
00100000
10000000
,
00000000
10010000
00000000
10000000
,
00000000
01000000
00000000
00010000
,
00001000
00000010
00000001
00001000
,
00000001
00000000
00000100
00000000
,
00001000
00010000
00100000
01000000
,
00010000
01000000
00000000
00100000
,
10000000
01000000
00000000
00010000
,
00001000
00000010
00000001
00001000
,
00000010
00000100
00000000
00002002
,
00000000
00000000
00003003
00000000
,
00000000
00000000
00000000
00000000
;
#NOTES:
     dance-double:
     :
     Hard:
     16:
     :
00000000
00000000
00000000
00000000
,
00000000
00000000
00000000
00000000
,
00000000
00000000
00000000
00000000
,
00000000
00000000
00000000
00000000
,
00000000
00000000
00000000
00000000
,
00000011
00000000
00000000
00000000
00000110
00000000
00000000
00000000
00000001
00001000
00000010
00000000
00001000
00000000
00000001
00000000
,
00000100
00000000
00001000
00000000
00010000
00000000
01000000
00000000
10000000
00010000
10000000
00010000
01000000
00000000
00000000
00000000
,
10100000
00000000
00000000
00000000
01010000
00000000
00000000
00000000
00100000
01000000
00010000
00000000
10000000
00000000
01000000
00000000
,
00010000
00001000
00000100
00000001
00000010
00000000
00000001
00000000
,
00000011
00000000
00000000
00000000
00001100
00000000
00000000
00000000
00000010
00000001
00000100
00000000
00000010
00000000
00000100
00000000
,
00001000
00000000
00010000
00000000
00100000
00000000
10000000
00000000
00010000
00100000
00010000
00100000
01000000
00000000
00000000
00000000
,
11000000
00000000
00000000
00000000
01010000
00000000
00000000
00000000
00100000
10000000
00010000
00000000
00100000
00000000
01000000
00000000
,
00000000
00010000
00001000
00010000
00011000
00000000
00000010
00000000
,
00000101
00000000
00000000
00000000
00001100
00000000
00000000
00000000
00000010
00000100
00001000
00000000
00000010
00000000
00000100
00000000
,
00001000
00000000
00010000
00000000
00100000
00000000
00010000
00000000
00001000
00010000
00001000
00000000
01000000
00000000
00010000
00000000
,
01010000
00000000
00000000
00000000
10100000
00000000
00000000
00000000
01000000
00100000
10000000
00000000
01000000
00000000
00100000
00000000
,
00001000
00000000
00010000
00000000
00000010
00000000
00001000
00000000
00000001
00000010
00000001
00000010
00000100
00001000
00000100
00001000
,
00000001
00000000
00000000
00000000
00001100
00000000
00000000
00000000
00000010
00010000
00001000
00000000
00100000
00000000
00010000
00000000
,
10000000
00000000
00010000
00000000
01000000
00000000
00001000
00000000
00010000
00000010
00001000
00000000
00000001
00000000
00000100
00000000
,
00000010
00000110
00000000
00011000
00000000
00110000
00000000
11000000
,
00000000
01010000
01000000
00100000
10000000
01000000
00100000
00000000
,
00001000
00000000
00000000
00000000
00001000
00000000
00000000
00000000
00010000
00001000
00000100
00000000
00000001
00000000
00000000
00000000
,
00000010
00000000
00000010
00000000
00000001
00000010
00000100
00001000
,
00000010
00000000
00000000
00000000
00010000
00001000
00100000
00010000
10000000
00000000
00000000
00000000
00010000
10000000
00100000
10000000
,
00010000
00000000
00100000
00000000
01000000
00100000
01000000
00100000
01000000
00000000
00100000
00000000
00010000
00000000
00000000
00000000
,
00001200
00000000
00000000
00000000
00000310
00000000
00000000
00000000
00000001
00001000
00000001
00000000
00000100
00000000
00000010
00000000
,
00001000
00000000
00000010
00000000
00000100
00000000
00000010
00000000
00010000
00001000
00100000
00000000
00010000
00000000
00100000
00000000
,
02100000
00000000
00000000
00000000
13000000
00000000
00000000
00000000
00010000
01000000
00100000
00000000
10000000
00000000
00100000
00000000
,
10000000
00010000
10000000
00000000
01000000
00000000
00010000
00000000
00001000
00000000
00000010
00000000
00000001
00000000
00000000
00000000
,
00000021
00000000
00000000
00000000
00001030
00000000
00000000
00000000
00000001
00000100
00001000
00000000
00000001
00000000
00000100
00000000
,
00000010
00001000
00010000
00000000
01000000
00000000
00100000
00000000
10000000
00000000
00100000
00000000
01000000
00000000
00010000
00000000
,
10000000
00000000
00000000
01000000
00100000
00000000
00010000
00000000
00000010
00000000
00000000
00000001
00000100
00000000
00000010
00000000
,
00000000
00000000
00001000
00000001
00001000
00000000
00000100
00000000
00000010
00000000
00000001
00000000
00001000
00000000
00000000
00000000
,
00000020
00000000
00000000
00000000
,
00000000
00000000
00000000
00000000
,
00000000
00000000
00000000
00000000
,
00000000
00000000
00000000
00000030
,
00000100
00000000
00001000
00000000
,
00010000
00100000
10000000
01000000
,
00100000
00000000
00010000
00000000
,
01000000
00000000
00001000
00011000
,
00000010
00000010
00000100
00000100
,
00000001
00000000
00000001
00000000
00001000
00000100
00001000
00000000
,
00000010
00000010
00010000
00010000
,
00100000
00000000
00100000
00000000
10000000
00010000
10000000
00000000
,
01000000
00100000
01000000
00100000
00001000
00010000
00001000
00010000
,
00000010
00000100
00000010
00000100
00000001
00001000
00000001
00001000
,
00000001
00000010
00000001
00000010
00000100
00010000
00000100
00010000
00001000
00100000
00001000
00100000
00010000
10000000
00010000
10000000
,
00100000
00000000
00000000
10000000
00010000
00000000
00100000
00000000
20020000
00000000
00000000
00000000
30030000
00000000
00000000
00000000
,
10100000
00000000
00000000
00000000
01010000
00000000
00000000
00000000
00100000
00000000
10000000
00000000
01000000
00100000
00010000
00000000
,
00100000
00000000
00001000
00000000
00010000
00000000
00000100
00000000
00000010
00000001
00000010
00000001
00000100
00000010
00001000
00000100
,
00000010
00000000
00000000
00000000
00000110
00000000
00000000
00000000
00000001
00000000
00000100
00000000
00000010
00010000
00001000
00000000
,
00100000
00000000
00010000
10000000
00100000
00000000
01000000
00010000
10000000
00000000
01000000
00000000
00100000
00000000
00010000
00000000
,
00110000
00000000
00000000
00000000
00011000
00000000
00000000
00000000
01000000
00000000
10000000
00000000
00010000
01000000
00100000
00000000
,
00010000
00000000
00001000
00000000
00000100
00000000
00000010
00000000
00001000
00000001
00001000
00000001
00000010
00000100
00001000
00000001
,
00001000
00000000
00000010
00000000
00010000
00001000
00100000
00010000
,
01000000
00000000
00100000
00000000
00100000
00000000
00100000
00000000
00010000
00100000
10000000
01000000
00100000
00010000
01000000
00100000
,
10000000
00000000
00000000
00000000
00100000
00000000
01000000
00000000
00010000
10000000
01000000
00000000
00100000
00000000
00010000
00000000
,
00001000
00000000
00000100
00000000
00010000
00001000
00010000
00001000
00010000
00000010
00001000
00000001
00000100
00000000
00000000
00000000
,
00000110
00000000
00000000
00000000
00000010
00000000
00010000
00000000
00001000
00000010
00000100
00000000
00000010
00000000
00000100
00010000
,
00001000
00000000
00100000
00010000
10000000
00000000
00100000
00000000
01000000
00000000
00010000
00000000
10010000
00000000
00000000
00000000
,
01100000
00000000
00000000
00000000
00010000
00000000
10000000
00000000
01000000
00100000
00010000
00000000
00001000
00000000
00000100
00000000
,
00000010
00000000
00000100
00000000
00010000
00001000
00010000
00001000
00010000
00000010
00000100
00000001
00001000
00000000
00000100
00000000
,
00000010
00000100
00001000
00000010
00000100
00000010
00020000
00000000
,
00000000
00000000
00030000
00001000
,
00001000
00000000
00000000
00000000
00010000
01000000
00100000
00000000
01000000
00000000
00000000
00000000
10000000
00000000
00000000
00000000
,
10000000
00000000
00000000
00000000
00010000
01000000
00100000
00000000
01000000
00000000
00000000
00000000
10000000
00000000
00000000
00000000
,
01000000
00100000
00001000
00010000
00001000
00000000
00000000
00000000
00010000
00000010
00000100
00000010
00001000
00000000
00000000
00000000
,
00000001
00000220
00000330
00001000
,
00000001
00000010
00000100
00001000
,
00000001
00000000
00000100
00000000
00001000
00010000
00100000
00000000
,
01000000
00000000
00100000
00000000
10000000
00100000
10000000
00000000
,
00010000
01000000
00010000
00000000
10000000
01000000
10000000
00000000
,
01000000
00100000
01000000
10000000
,
00100000
00000000
00010000
00000000
00001000
00000000
00000010
00000001
,
00000100
00000000
00000010
00001000
00000100
00000000
00000010
00000000
,
00000000
00001001
00000000
00000001
,
00000100
00001000
00010000
00100000
,
10000000
00000000
01000000
00000000
00100000
00010000
10000000
00000000
,
00010000
00000000
01000000
00000000
00001000
00000000
00010000
00001000
,
00010000
00000000
00000010
00000100
00000010
00000100
00000010
00000000
,
00000100
00001000
00000100
00000001
,
00000010
00001000
00010000
01000000
,
10000000
00000000
00010000
01000000
00100000
00000000
10000000
01000000
,
00100000
00010000
01000000
00100000
10000000
00000000
20020000
00000000
,
00000000
00000000
30030000
00000000
,
00000000
00000000
00000000
00000000
;
#NOTES:
     dance-double:
     :
     Challenge:
     18:
     :
00000000
00000000
00000000
00000000
,
00000000
00000000
00000000
00000000
,
00000000
00000000
00000000
00000000
,
00000000
00000000
00000000
00000000
,
00000000
00000000
00000000
00000000
,
10000000
00000000
01000000
00000000
00100000
00000000
00010000
00000000
10000000
01000000
00010000
00000000
00001000
00000000
00011000
00000000
,
00000000
00000000
00010000
00000100
00010000
00000000
00000010
00001000
00000010
00000000
00000100
00000001
00001000
00000000
00000100
00000000
,
00000010
00000000
00000001
00000000
00000100
00000000
00001000
00000000
00010000
00100000
10000000
00000000
00010000
00000000
01000000
00000000
,
00000000
00000000
00100000
10000000
00100000
00000000
01000000
00010000
20000000
00000000
00000000
00000000
30010000
00000000
00000000
00000000
,
10000000
00000000
00100000
00000000
01000000
00000000
00010000
00000000
10000000
00100000
00010000
00000000
00001000
00000000
00011000
00000000
,
00000000
00000000
00010000
00000010
00010000
00000000
00000100
00001000
00000100
00000000
00000010
00000001
00001000
00000000
00000100
00000000
,
00000001
00000000
00000100
00000000
00010000
00000000
00001000
00000000
00100000
00010000
01000000
00000000
00100000
00000000
10000000
00000000
,
00000000
11000000
01100000
00110000
00102000
00000000
00013000
00000000
,
00010000
00000000
00001000
00000000
00000010
00000000
00000001
00000000
00001000
00000100
00000001
00000000
00001000
00000010
00000001
00000000
,
00000100
00000010
00001000
00000000
00000100
00000010
00000001
00000000
00000100
00000010
00001000
00000010
00010000
00000000
00001000
00000000
,
00010000
00000000
01000000
00000000
00100000
00000000
00010000
00000000
10000000
01000000
00010000
00000000
10000000
00100000
00010000
00000000
,
10000000
00100000
01000000
00000000
00010000
00100000
01000000
00000000
10000000
00010000
10000000
00010000
01000000
00100000
01000000
00100000
,
10000000
00000000
01000000
00000000
00010000
00000000
00001000
00000000
00000010
00000001
00000100
00000000
00000010
00001000
00000100
00000000
,
00000001
00000000
00000100
00001000
00000100
00000000
00001000
00000010
00001000
00000010
00010000
00001000
00010000
00000000
00001000
00000000
,
00000000
00101000
00000000
01010000
00000000
10100000
00000000
10100000
,
00000000
21000000
30010000
01020000
00130000
00201000
00310000
00010000
,
20000000
00000000
00000000
00000000
31000000
00000000
00010000
00000000
00001000
00000010
00000001
00000000
00001000
00000000
00000000
00000000
,
00000002
00000000
00000000
00000000
00000103
00000000
00001000
00000000
00010000
00100000
10000000
00000000
00010000
00000000
01000000
00000000
,
01100000
00000000
00000000
00000000
10000000
01000000
00100000
00001000
00010000
00000000
00000000
00000000
00000100
00001000
00000001
00000010
,
00000001
00000000
00000100
00000000
00000100
00000010
00000100
00000010
00000100
00000000
00000110
00000000
00001001
00000000
00000000
00000000
,
00000201
00000000
00001300
00000000
00000021
00000000
00001030
00000000
00000001
00000100
00000010
00000000
00001000
00000100
00000010
00000000
,
00000001
00000000
00000010
00000000
00001000
00000000
00010000
00000000
01000000
00000000
10000000
00100000
10000000
00000000
00010000
00000000
,
00120000
00000000
01030000
00000000
20100000
00000000
31000000
00000000
10000000
00010000
00100000
00000000
01000000
00000000
10000000
00000000
,
00010000
00000000
00100000
00001000
00010000
00000000
00100000
01000000
00010000
00000000
00100000
00000000
01000000
00000000
10000000
00000000
,
12000000
00000000
03010000
00000000
10200000
00000000
00310000
00000000
10000000
01000000
00100000
00000000
00010000
01000000
00100000
00000000
,
10000000
00000000
00100000
00000000
00010000
00000000
00001000
00000000
00000100
00000000
00000001
00000010
00000001
00000000
00001000
00000000
,
00002010
00000000
00003100
00000000
00000012
00000000
00000103
00000000
00000001
00001000
00000010
00000000
00000100
00000000
00000001
00000000
,
00000000
00000000
00000001
00001000
00000001
00000000
00000100
00000000
00001000
00010000
00001000
00010000
00001000
00000000
00000000
00000000
,
00022000
00000000
00000000
00000000
,
00000000
00000000
00000000
00000000
,
00000000
00000000
00000000
00000000
,
00000000
00000000
00000000
00033000
,
00001000
00000000
00010000
00000000
00100000
01000000
00100000
00000000
,
10000000
00000000
01000000
00000000
00100000
00000000
00010000
01000000
00001000
00010000
00001000
00010000
00000010
00001000
00000010
00001000
,
00000001
00000000
00000100
00000000
00001000
00000100
00000001
00000010
,
00000100
00000100
00000200
00000000
00000310
00000010
00001001
00000000
,
00000110
00000110
00001001
00001001
,
00000001
00000100
00001000
00010000
00100000
10000000
00010000
00000000
,
01100000
01100000
10010000
10010000
,
10000000
01000000
00010000
00001000
00000010
00000001
00001000
00000000
,
00000001
00000100
00001000
00000100
00000001
00000010
00000001
00000010
,
00001000
00000000
00010000
00000000
01000000
00000000
00010000
00000000
00001000
00010000
00001000
00000000
00100000
00010000
00100000
00010000
,
00100000
01000000
10000000
00010000
01000000
00100000
01000000
00010000
00100000
00001000
00010000
00000100
00001000
00000100
00000010
00000000
,
00000210
00000300
00001200
00000300
00001002
00000000
00000003
00000000
,
00000001
00000000
00000010
00000000
00001000
00000000
00010000
00000000
00000010
00000000
00000100
00000000
00001000
00010000
00001000
00000000
,
00010000
00000000
00100000
00000000
10000000
00000000
00010000
01000000
00100000
01000000
10000000
01000000
00100000
01000000
00010000
00000000
,
10000000
00000000
01000000
00000000
00010000
00000000
00001000
00000000
00100000
00000000
01000000
00000000
00010000
00001000
00010000
00000000
,
00001000
00000000
00000010
00000001
00000100
00000000
00000010
00001000
00000100
00000000
00000001
00000000
00000100
00000000
00001000
00000000
,
00000001
00000000
00000100
00000000
00001000
00000000
00010000
00000000
00100000
00000000
01000000
00000000
00001000
00010000
00001000
00000000
,
00100000
00000000
01000000
00000000
00010000
00000000
00001000
00010000
00000100
00010000
00000010
00010000
00001000
01000000
00001000
00100000
,
00001000
00000000
00000000
00000000
00011000
00000000
00000000
00000000
00010000
00001000
00000010
00000000
00000001
00001000
00000100
00000000
,
00000010
00000000
00000011
00000000
00001001
00000000
00000101
00000000
00000001
00000100
00000001
00000100
00001000
00010000
00001000
00010000
,
00011000
00000000
00000000
00000000
00100000
00000000
00001000
00000000
00010000
00001000
00010000
00000000
00001000
00000000
00000010
00000000
,
00000001
00000000
00001000
00000100
00000010
00000100
00000001
00000100
00000010
00000100
00001000
00000000
00000001
00000000
00000100
00000000
,
00001000
00000000
00010000
00000000
00000010
00000000
00000100
00000000
00001000
00010000
00001000
00000000
00010000
00000000
00100000
10000000
,
01000000
00000000
00100000
00010000
01000000
00000000
10000000
00000000
01000000
00000000
00010000
00000000
10000000
00000000
01000000
00000000
,
00010000
00000000
00001000
00000000
00000010
00000000
00000100
00000000
00010000
00001000
00010000
00000000
00000010
00000000
00000100
00000000
,
00001000
00000000
00010000
00001000
01000000
00001000
00100000
00001000
00010000
00000100
00010000
00000010
00010000
00000000
00000000
00000000
,
00011000
00000000
00000000
00000000
00001000
00000000
00010000
00000000
00100000
00000000
00000000
00000000
01100000
00000000
00000000
00100000
,
10000000
01000000
00010000
00010000
00010000
00000000
00002000
00000000
,
00013000
00000000
00000010
00000000
00001000
00000001
00001000
00000000
00001001
00000000
00000000
00000000
00000002
00000000
00000000
00000000
,
00000103
00001000
00010000
00010000
00010000
00010000
00011000
00000000
,
00001000
01000000
00010000
00000000
01010000
00000000
00000000
00000000
00010000
00100000
01000000
00000000
20000000
00000000
30000000
00000000
,
00020000
00030000
02200000
00000000
03300000
00000000
10000000
01000000
,
00100000
00000000
01000000
00100000
00001000
00000000
00010000
00001000
,
00010000
00000000
00000100
00001000
00000100
00001000
00000001
00000000
,
00000100
00001000
00000100
00000000
00000001
00000000
00000010
00000100
,
00001000
00000100
00000010
00000000
00000001
00000000
00000100
00000010
,
00001000
00000000
00000010
00010000
00001000
00000000
00010000
00001000
,
00100000
00000000
00010000
01000000
00010000
01000000
00010000
00000000
,
00100000
01000000
10000000
00010000
00100000
01000000
20000000
00000000
,
00000000
00000000
30010000
00000000
00000000
00000000
10000000
00100000
,
01000000
00000000
00100000
01000000
00001000
00000000
00010000
00001000
,
00010000
00000000
00000010
00001000
00000010
00001000
00000001
00000000
,
00000010
00001000
00000010
00000000
00000001
00000000
00000100
00000010
,
00001000
00000010
00000100
00000000
00000001
00000000
00000010
00000100
,
00000010
00000100
00001000
00000000
00000100
00000000
00010000
00001000
,
00010000
00001000
00100000
00000000
00010000
00000000
10000000
01000000
,
00100000
00010000
10000000
01000000
00100000
00000000
01000000
00000000
,
00010000
00001000
00010000
00000000
00000000
00000000
00022000
00000000
,
00000000
00000000
00033000
00000000
,
00000000
00000000
00000000
00000000
;
