
//----- song id: gogo
#TITLE:Go↓Go↑Girls&Boys!;
#ARTIST:松下feat.Sota & wac;
#ARTISTTRANSLIT:Matsushita feat.Sota & wac;
#BANNER:Go Go Girls&Boys!.png;
#BACKGROUND:Go Go Girls&Boys!-bg.png;
#CDTITLE:./CDTitles/DDR (2014).png;
#MUSIC:Go Go Girls&Boys!.ogg;
#SAMPLESTART:37.972;
#SAMPLELENGTH:15;
#BPMS:0=158;
#NOTES:
     dance-single:
     :
     Beginner:
     3:
     :
0000
0000
0000
0000
,
0000
0000
0000
0000
,
0000
0000
0000
0000
,
0000
0000
0000
0000
,
0000
0000
0000
0000
,
1000
0000
0000
0000
,
1000
0000
0000
0000
,
0001
0000
0000
0000
,
0001
0000
0000
0000
,
0010
0000
0000
0000
,
0001
0000
0001
0000
,
0010
0000
0000
0000
,
1000
0000
1000
0000
,
0010
0000
0000
0000
,
0001
0000
0001
0000
,
1000
0000
0000
0000
,
0100
0000
0100
0000
,
0002
0000
0000
0003
,
0000
0000
0000
0000
,
0020
0000
0000
0030
,
0000
0000
0000
0000
,
2000
0000
0000
3000
,
0000
0000
0000
0000
,
0200
0000
0000
0300
,
0000
0000
0000
0000
,
0001
0001
0001
0000
,
1000
1000
1000
0000
,
0001
0000
1000
0000
,
0001
0000
0001
0000
,
0010
0010
0010
0000
,
0100
0100
0100
0000
,
0010
0000
0100
0000
,
0010
0000
0010
0000
,
1000
1000
1000
0000
,
2000
0000
3000
0000
,
0001
0001
0001
0000
,
0002
0000
0003
0000
,
0010
0010
0010
0000
,
0020
0000
0030
0000
,
0100
0100
0100
0000
,
0200
0000
0300
0000
,
0000
0000
0000
0000
,
0001
0000
1000
0000
,
0000
0000
0000
0000
,
0010
0000
0100
0000
,
0000
0000
0000
0000
,
1000
0000
0001
0000
,
0000
0000
0000
0000
,
0100
0000
0010
0000
,
0020
0000
0030
0000
,
2000
0000
3000
0000
,
0002
0000
0003
0000
,
0200
0000
0300
0000
,
0020
0000
0030
0000
,
0002
0000
0003
0000
,
2000
0000
3000
0000
,
0200
0000
0300
0000
,
0001
0001
0001
0000
,
0010
0010
0010
0000
,
0001
0000
0010
0000
,
0001
0000
0001
0000
,
1000
1000
1000
0000
,
0010
0010
0010
0000
,
1000
0000
0010
0000
,
1000
0000
1000
0000
,
0001
0000
0100
0000
,
1000
0000
0100
0000
,
0001
0001
0001
0000
,
1000
1000
1000
0000
,
0001
0000
0010
0000
,
1000
0000
0010
0000
,
0001
0001
0001
0000
,
1000
1000
1000
0000
,
0000
0000
0000
0000
,
0001
0001
0001
0000
,
0000
0000
0000
0000
,
1000
1000
1000
0000
,
0000
0000
0000
0000
,
0010
0010
0010
0000
,
0000
0000
0000
0000
,
0100
0100
0100
0000
,
0000
0000
0000
0000
,
1001
0000
0000
0000
,
0000
0000
0000
0000
;
#NOTES:
     dance-single:
     :
     Easy:
     5:
     :
0000
0000
0000
0000
,
0000
0000
0000
0000
,
0000
0000
0000
0000
,
0000
0000
0000
0000
,
0000
0000
0000
0000
,
0001
0000
0000
0000
,
1000
0000
1000
0000
,
0001
0000
0000
0000
,
0010
0010
0010
0000
,
1000
0000
0001
0000
,
0010
0001
1000
0000
,
0001
0000
1000
0000
,
0010
1000
0001
0000
,
0001
0000
0100
0000
,
1000
1000
0100
0000
,
0001
0000
0010
0000
,
1000
1000
0010
0000
,
0002
0000
0003
0000
,
0001
0100
0001
0000
,
2000
0000
3000
0000
,
1000
0100
1000
0000
,
0020
0000
0030
0000
,
0010
0100
0010
0000
,
0001
0000
0010
0000
,
0100
0100
0100
0000
,
1000
1000
1000
0000
,
0001
0001
0001
0000
,
1000
1000
0010
0010
,
0100
0100
0001
0000
,
0001
0001
0001
0000
,
1000
1000
1000
0000
,
0001
0001
0010
0010
,
0100
0100
1000
0000
,
0001
0001
0010
0000
,
1000
1000
0010
0000
,
0001
0001
0100
0100
,
0010
0010
1000
0000
,
1000
1000
0010
0000
,
0001
0001
0010
0000
,
1000
1000
0100
0100
,
0010
0010
0001
0000
,
0000
1000
0000
1000
,
0000
0001
0000
0001
,
0000
1000
0010
0001
,
0000
0001
0010
1000
,
0000
0001
0000
0001
,
0000
1000
0000
1000
,
0000
0010
0001
1000
,
0001
0000
0001
0000
,
0000
0000
0000
0000
,
0001
0100
0001
0100
,
0000
0000
0000
0000
,
1000
0100
1000
0100
,
0000
0000
0000
0000
,
0001
0010
0100
1000
,
0000
0000
0000
0000
,
1000
0010
0100
0000
,
0001
0001
0001
0000
,
0100
0100
0100
0000
,
1000
1000
0010
0010
,
0001
0001
0100
0000
,
1000
1000
1000
0000
,
0010
0010
0010
0000
,
0001
0001
0100
0100
,
1000
1000
0010
0000
,
1000
1000
0010
0000
,
0001
0001
0010
0000
,
1000
1000
0100
0100
,
0010
0010
0001
0000
,
0001
0001
0010
0000
,
1000
1000
0010
0000
,
0001
0001
0100
0100
,
0010
0010
1000
0000
,
0002
0000
0003
0000
,
1000
0000
1000
0000
,
0020
0000
0030
0000
,
0100
0000
0100
0000
,
2000
0000
3000
0000
,
0001
0000
0001
0000
,
0200
0000
0300
0000
,
0010
0000
0010
0000
,
1000
0000
0001
0000
,
1001
0000
0000
0000
,
0000
0000
0000
0000
;
#NOTES:
     dance-single:
     :
     Medium:
     8:
     :
0000
0000
0000
0000
,
0000
0000
0000
0000
,
0000
0000
0000
0000
,
0000
0000
0000
0000
,
0000
0000
0000
0000
,
1000
1000
0000
0000
0000
0000
0000
0000
,
0001
0000
0000
0001
0000
0000
0001
0000
0000
0000
0000
0000
0000
0000
0000
0000
,
0010
0010
0000
0000
0000
0000
0000
0000
,
0010
0001
1000
0110
,
1000
0000
0010
0000
0100
0000
0001
0100
,
0000
0010
1000
0000
0001
0000
1000
0000
,
0001
0000
0010
0000
0100
0000
1000
0100
,
0000
0010
0001
0000
1000
0000
0001
0000
,
1000
0000
0100
0000
0001
0000
0010
0001
,
0000
0010
0001
0000
0100
0000
0010
0000
,
1000
0000
0100
0000
0001
0000
1000
0001
,
0000
0001
1000
0000
0010
0000
0100
0000
,
0001
0100
0010
1000
,
1000
0000
0100
0000
0001
0100
1000
0000
,
0010
0000
1000
0000
0001
0000
0100
0010
,
0000
0010
0000
0010
0000
0010
0100
0000
,
1000
0100
0010
0001
,
0001
0000
0100
0000
1000
0100
0001
0000
,
0010
0000
0001
0000
1000
0000
0100
0010
,
0000
0100
0000
0110
0000
0000
0000
0000
,
1001
0110
1001
0000
,
0001
0100
0010
1000
,
0100
1000
0100
1000
,
0001
0010
0100
0000
1100
0000
0000
0000
,
0110
1001
0110
0000
,
0001
0100
0010
1000
,
0001
0100
1000
0100
,
0001
1000
0010
0000
0100
0000
0000
0000
,
0012
1000
0103
0000
,
1000
0100
0010
0001
,
1000
0001
0100
0001
,
1000
0010
0100
0000
0101
0000
0000
0000
,
2010
0001
3100
0000
,
1000
0100
0010
0001
,
0100
0000
0001
0000
0010
0000
1000
0100
,
0000
0100
0000
0100
0000
0010
0100
0000
,
1000
0010
0100
0001
,
0010
0001
0100
0001
,
0001
0010
0100
1000
,
0010
1000
0100
1000
,
0010
1001
0010
0001
,
1000
0010
0100
0001
,
1000
0000
0010
0000
0001
0000
0100
0010
,
0000
0010
0000
0010
0000
0010
0100
0000
,
2000
0000
3010
0010
,
0002
0000
0013
0010
,
2000
0000
3010
0010
,
0002
0000
0013
0010
,
2000
0000
3100
0010
,
0002
0000
0103
0010
,
2000
0000
0000
0000
3100
0000
0010
0100
,
0000
0100
0000
0100
0000
0100
0010
0000
,
1000
0010
0101
0000
,
0010
0000
0100
0000
1000
0001
0100
0000
,
1000
0100
1000
0000
0001
0100
0001
0000
,
1000
0100
0001
0010
,
0001
0010
1100
0000
,
0001
0000
0100
0000
0010
1000
0001
0000
,
0010
0001
0010
0000
0100
1000
0100
0000
,
1000
0010
0100
0000
,
2010
0001
3100
0000
,
0001
0100
0010
1000
,
0001
1000
0100
1000
,
0001
0010
0100
0000
1100
0000
0000
0000
,
0012
1000
0103
0000
,
0001
0100
0010
1000
,
0100
0000
1000
0000
0010
0000
0001
0100
,
0000
0100
0000
0100
0000
0010
0100
0000
,
2000
0000
0000
3000
,
0001
0010
0100
1000
,
0020
0000
0000
0030
,
1000
0010
0100
0001
,
2000
0000
0000
3000
,
0100
0010
0001
0100
,
0020
0000
0000
0030
,
1000
0010
0001
0100
,
1000
0000
0000
0000
0000
0000
0000
0000
0010
0000
0000
0100
0000
0000
0010
0000
,
0000
0000
0000
0000
;
#NOTES:
     dance-single:
     :
     Hard:
     11:
     :
0000
0000
0000
0000
,
0000
0000
0000
0000
,
0000
0000
0000
0000
,
0000
0000
0000
0000
,
0000
0000
0000
0000
,
0001
0001
0000
0000
0000
0000
0000
0000
,
1000
0000
0000
1000
0000
0000
0100
0000
0000
0000
0000
0000
0000
0000
0000
0000
,
1000
1000
0000
0000
0000
0000
0000
0000
,
0010
1000
0001
0110
,
0001
0010
0100
0010
0100
0000
1000
0100
,
0000
0010
0001
1000
0010
0000
0101
0000
,
1000
0010
0100
0010
0100
0000
0001
0100
,
0000
0010
1000
0001
0010
0000
1100
0000
,
0001
0000
0100
0000
1000
0100
0001
0010
,
0000
0010
0100
1000
0100
0000
0010
0000
,
0001
0000
0100
0000
1000
0010
0001
0010
,
0000
1000
0001
0100
0010
0000
0100
0000
,
1000
0000
1000
0100
0000
1000
0100
0010
,
0001
0100
0010
0100
0000
0100
0001
0000
,
0010
0000
0001
0000
1000
0000
0100
0001
,
0000
0011
0000
1100
0000
1000
0001
0000
,
0001
0000
0001
0100
0000
0001
0100
0010
,
1000
0100
0010
0100
0000
0100
1000
0000
,
0010
0000
1000
0000
0001
0000
0100
1000
,
0000
0110
0000
1001
0000
0100
0010
0000
,
0021
0000
1000
0000
0031
0000
0000
1000
,
0000
1000
0100
0010
0001
0000
1000
0000
,
0010
0100
0001
0000
0010
0100
0001
0010
,
0000
0010
0100
1000
0001
0000
0100
0000
,
0201
0000
1000
0000
0301
0000
0000
1000
,
0000
1000
0010
0100
0001
0000
1000
0000
,
1000
0100
0001
0000
1000
0100
0001
0100
,
0000
1000
0010
0000
0100
0000
0000
0000
,
1020
0000
0001
0000
1030
0000
0000
0001
,
0000
0001
0100
0010
0000
0010
1000
0000
,
0010
0000
1000
0000
0100
0000
0001
0010
,
0000
0010
0100
1000
0001
0000
0100
0000
,
1200
0000
0001
0000
1300
0000
0000
0001
,
0000
0001
0010
0100
1000
0000
0001
0000
,
0100
0000
1000
0000
0010
0000
0001
0100
,
0000
0101
0000
1100
0000
0010
0100
0000
,
0001
0000
0010
0000
0100
0000
1000
0010
,
0000
1000
0001
1000
0000
0100
0010
0000
,
1000
0000
0010
0000
0100
0000
0001
0010
,
0000
0001
1000
0001
0000
0100
0010
0000
,
0100
0000
1001
0000
0010
0000
1000
0001
,
0000
0010
0100
1000
0000
0100
0010
0000
,
0001
0000
0010
0000
1000
0000
0100
0110
,
0000
0000
1001
0000
0000
0000
0110
0000
0000
0000
0010
1000
0001
0000
0000
0000
,
0002
0000
0103
0010
,
2000
0000
3100
0010
,
0002
0000
0103
0010
,
2000
0000
3100
0010
,
0002
0000
1003
0010
,
0002
0000
1003
0100
,
0002
0000
0000
0000
1003
0000
0010
0100
,
0000
0100
0000
0100
0000
0100
0010
0000
,
1001
0000
0110
0000
1001
0000
0010
0001
,
0000
1000
0100
0010
0001
1000
0100
0000
,
0001
0100
0001
0100
0010
1000
0010
1000
,
0001
0100
0010
1000
0001
0100
0010
0000
,
1010
0000
0101
0000
1100
0000
0001
0100
,
0000
1000
0100
0010
0001
0000
1000
0000
,
0010
1000
0010
1000
0001
0100
0010
0100
,
0000
0001
0010
0100
1000
0000
0000
0000
,
0021
0000
1000
0000
0031
0000
0000
1000
,
0000
1000
0100
0010
0000
0010
0001
0000
,
0010
0000
0001
0000
0100
0000
1000
0010
,
0000
0010
0100
0001
1000
0000
0100
0000
,
0201
0000
1000
0000
0301
0000
0000
1000
,
0000
1000
0010
0100
0001
0000
1000
0000
,
0100
0000
0001
0000
0010
0000
1000
0100
,
0000
1100
0000
0101
0000
0010
0100
0000
,
0002
0000
0000
0003
,
1000
0010
0100
0001
,
0020
0000
0000
0030
,
0001
0010
0100
1000
,
0002
0000
0000
0003
,
0100
0010
1000
0100
,
0020
0000
0000
0030
,
0001
0010
1000
0100
,
0001
0000
0000
0000
0000
0000
0000
0000
0010
0000
0000
0100
0000
0000
1001
0000
,
0000
0000
0000
0000
;
#NOTES:
     dance-double:
     :
     Easy:
     5:
     :
00000000
00000000
00000000
00000000
,
00000000
00000000
00000000
00000000
,
00000000
00000000
00000000
00000000
,
00000000
00000000
00000000
00000000
,
00000000
00000000
00000000
00000000
,
00011000
00000000
00000000
00000000
,
00100000
00010000
01000000
00010000
,
00011000
00000000
00000000
00000000
,
00001000
00000010
00000001
00000001
,
00001000
00000100
00000010
00000000
,
00000001
00000100
00000010
00000000
,
00000100
00000100
00001000
00001000
,
00010000
00001000
00010000
00000000
,
00001000
00100000
00010000
00000000
,
10000000
00100000
01000000
00000000
,
00010000
00010000
10000000
10000000
,
01000000
00010000
00001000
00000000
,
00100000
00001000
00010000
00000000
,
00000010
00010000
00001000
00000000
,
01000000
00001000
00010000
00000000
,
00000100
00010000
00001000
00000000
,
00001000
00000100
00000001
00000000
,
00000001
00000010
00001000
00000000
,
00001000
00010000
00001000
00000000
,
00011000
00000000
00011000
00000000
,
00010000
00010000
00100000
00000000
,
10000000
10000000
01000000
00000000
,
00010000
00010000
00001000
00001000
,
00000100
00000010
00000100
00000000
,
00000001
00000001
00000010
00000000
,
00001000
00001000
00000010
00000000
,
00000001
00000001
00000100
00000100
,
00001000
00010000
00001000
00000000
,
00000010
00001000
00010000
00000000
,
00100000
00010000
00001000
00000000
,
00010000
00010000
00001000
00001000
,
00010000
00001000
00010000
00000000
,
00100000
00010000
00001000
00000000
,
00000010
00001000
00010000
00000000
,
00001000
00001000
00010000
00010000
,
00001000
00010000
00001000
00000000
,
00010000
00100000
10000000
00000000
,
00010000
00000000
10000000
00000000
,
01000000
00100000
00010000
00000000
,
00001000
00000000
00010000
00000000
,
00001000
00000010
00000001
00000000
,
00001000
00000000
00000001
00000000
,
00000100
00000010
00001000
00000000
,
00010000
00000000
00001000
00000000
,
00000000
00000000
00000000
00000000
,
00100000
01000000
00100000
01000000
,
00000000
00000000
00000000
00000000
,
00000010
00000100
00000010
00000100
,
00000000
00000000
00000000
00000000
,
00010000
10000000
00010000
10000000
,
00000000
00000000
00000000
00000000
,
00001000
00000001
00001000
00000001
,
00000010
00000010
00000010
00000000
,
00000001
00000100
00001000
00010000
,
00100000
00100000
10000000
10000000
,
00010000
10000000
00010000
00000000
,
00100000
00100000
00100000
00000000
,
10000000
01000000
00010000
00001000
,
00000010
00000010
00000001
00000001
,
00001000
00000001
00001000
00000000
,
00000010
00001000
00010000
00000000
,
00100000
00010000
00001000
00000000
,
00010000
00010000
00001000
00001000
,
00010000
00001000
00010000
00000000
,
00100000
00010000
00001000
00000000
,
00000010
00001000
00010000
00000000
,
00001000
00001000
00010000
00010000
,
00100000
10000000
00010000
00000000
,
10000000
00000000
01000000
00000000
,
00010000
00000000
00001000
00000000
,
00000010
00000000
00000001
00000000
,
00001000
00001000
00001000
00000000
,
00000001
00000000
00000100
00000000
,
00001000
00000000
00010000
00000000
,
00100000
00000000
10000000
00000000
,
00010000
00010000
00010000
00000000
,
00100000
00000000
01000000
00000000
,
10010000
00000000
00000000
00000000
,
00000000
00000000
00000000
00000000
;
#NOTES:
     dance-double:
     :
     Medium:
     8:
     :
00000000
00000000
00000000
00000000
,
00000000
00000000
00000000
00000000
,
00000000
00000000
00000000
00000000
,
00000000
00000000
00000000
00000000
,
00000000
00000000
00000000
00000000
,
00000001
00000001
00000000
00000000
00000000
00000000
00000000
00000000
,
00001000
00000000
00000000
00001000
00000000
00000000
00001000
00000000
00000000
00000000
00000000
00000000
00000000
00000000
00000000
00000000
,
00000010
00000010
00000000
00000000
00000000
00000000
00000000
00000000
,
00010000
00001000
00010000
00011000
,
00001000
00000000
00100000
00000000
01000000
00000000
10000000
00100000
,
00000000
01000000
00010000
00000000
00100000
00000000
00001000
00000000
,
00010000
00000000
00000010
00000000
00000100
00000000
00000001
00000010
,
00000000
00000100
00001000
00000000
00000010
00000000
00010000
00000000
,
00001000
00000000
00010000
00000000
01000000
00000000
10000000
00010000
,
00000000
01000000
00100000
00000000
10000000
00000000
01000000
00000000
,
00010000
00000000
00001000
00000000
00000100
00000000
00000001
00001000
,
00000000
00000001
00000010
00000000
00000100
00000000
00000010
00000000
,
00001000
00000100
00000010
00000001
,
00000100
00000000
00001000
00000000
00010000
00001000
00010000
00000000
,
01000000
00000000
10000000
00000000
00100000
00000000
01000000
00100000
,
00000000
00100000
00000000
00100000
00000000
00100000
01000000
00000000
,
00010000
01000000
00100000
10000000
,
01000000
00000000
00010000
00000000
00001000
00010000
00001000
00000000
,
00000010
00000000
00000001
00000000
00001000
00000000
00000010
00000100
,
00000000
00000100
00000000
00000100
00000000
00000000
00000000
00000000
,
00001010
00011000
00001010
00000000
,
00010000
00001000
00100000
00010000
,
10000000
00100000
01000000
00100000
,
10000000
01000000
00100000
00000000
01100000
00000000
00000000
00000000
,
00110000
00011000
00110000
00000000
,
00001000
00010000
00000010
00001000
,
00000100
00000010
00000001
00000100
,
00000010
00010000
00001000
00000000
00010000
00000000
00000000
00000000
,
00020010
00001000
00030100
00000000
,
00001000
00010000
01000000
10000000
,
00010000
01000000
00100000
10000000
,
10000000
01000000
00100000
00000000
00010000
00000000
00000000
00000000
,
00102000
00010000
01003000
00000000
,
00010000
00001000
00000100
00000001
,
00000010
00000000
00000100
00000000
00000010
00000000
00000001
00000100
,
00000000
00000100
00000000
00000100
00000000
00000010
00000100
00000000
,
00000001
00000100
00001000
00010000
,
00100000
00010000
00000010
00010000
,
00001000
00010000
01000000
10000000
,
00010000
00100000
10000000
00100000
,
00000000
10010000
00100000
10000000
,
01000000
00010000
00001000
00000100
,
00000001
00000000
00000010
00000000
00001000
00000000
00000100
00000010
,
00000000
00000010
00000000
00000010
00000000
00000010
00000100
00000000
,
00020000
00000000
00030010
00000010
,
00000200
00000000
00000310
00000010
,
00020000
00000000
00030010
00000010
,
00000200
00000000
00000310
00000010
,
00002000
00000000
00103000
00100000
,
02000000
00000000
03100000
00100000
,
00002000
00000000
00000000
00000000
00103000
00000000
00100000
01000000
,
00000000
01000000
00000000
01000000
00000000
01000000
00100000
00000000
,
10000000
00001000
10000000
00000000
,
10000000
00000000
01000000
00000000
00010000
00001000
00010000
00000000
,
00000010
00001000
00000100
00000010
,
00000001
00000100
00000010
00000000
00000100
00000000
00000100
00000000
,
00000001
00010000
00000001
00000000
,
00000001
00000000
00000100
00000000
00001000
00010000
00001000
00000000
,
00010000
00000000
01000000
00000000
10000000
00000000
00010000
01000000
,
00000000
00100000
01000000
00000000
10010000
00000000
00000000
00000000
,
00102000
00010000
01003000
00000000
,
00010000
00001000
00000100
00000001
,
00001000
00000100
00000010
00000001
,
00000001
00000100
00000010
00000000
00001000
00000000
00000000
00000000
,
00020010
00001000
00030100
00000000
,
00001000
00010000
01000000
10000000
,
00100000
00000000
01000000
00000000
00100000
00000000
10000000
01000000
,
00000000
01000000
00000000
01000000
00000000
00100000
01000000
00000000
,
00200000
00000000
00000000
00300000
,
01000000
00010000
00001000
00000010
,
00000002
00000000
00000000
00000003
,
00000100
00001000
00010000
00100000
,
20000000
00000000
00000000
30000000
,
01000000
00010000
00001000
00000100
,
00000002
00000000
00000000
00000003
,
00000010
00001000
00010000
00100000
,
10000000
00000000
00000000
00000000
00000000
00000000
00000000
00000000
00010000
00000000
00000000
10000000
00000000
00000000
01000000
00000000
,
00000000
00000000
00000000
00000000
;
#NOTES:
     dance-double:
     :
     Hard:
     11:
     :
00000000
00000000
00000000
00000000
,
00000000
00000000
00000000
00000000
,
00000000
00000000
00000000
00000000
,
00000000
00000000
00000000
00000000
,
00000000
00000000
00000000
00000000
,
10000000
10000000
00000000
00000000
00000000
00000000
00000000
00000000
,
01000000
00000000
00000000
00010000
00000000
00000000
00001000
00000000
00000000
00000000
00000000
00000000
00000000
00000000
00000000
00000000
,
00000100
00000100
00000000
00000000
00000000
00000000
00000000
00000000
,
00000001
00000010
00000100
00001001
,
00000010
00001000
00010000
00000000
01000000
00000000
10000000
01000000
,
00000000
00100000
10000000
00010000
00100000
00000000
01000000
00000000
,
00010000
00001000
00000010
00000000
00001000
00000000
00010000
00001000
,
00000000
00000100
00000001
00001000
00000100
00000000
00000010
00000000
,
00000100
00000000
00010000
00000000
01000000
10000000
00100000
10000000
,
00000000
00010000
00100000
01000000
00100000
00000000
00001000
00000000
,
00000010
00000000
00000001
00000000
00001000
00000010
00000100
00000001
,
00000000
00000010
00000100
00000010
00000100
00000000
00001000
00000000
,
00000010
00000000
00001000
00010000
00000000
01000000
00100000
10000000
,
00010000
00100000
01000000
00100000
00000000
01000000
10000000
00000000
,
00100000
00000000
00010000
00000000
00000010
00000000
00001000
00000001
,
00000000
00000011
00000000
00001100
00000000
00000001
00000100
00000000
,
00000010
00000000
00000100
00000001
00000000
00000010
00001000
00010000
,
00100000
10000000
01000000
00100000
00000000
01000000
10000000
00000000
,
01000000
00000000
00010000
00000000
00000100
00000000
00000010
00000100
,
00000000
00001001
00000000
00000110
00000000
00000001
00001000
00000000
,
00002001
00000000
00000010
00000000
00013000
00000000
00000000
00001000
,
00000000
00010000
01000000
00100000
10000000
00000000
00010000
00000000
,
00100000
01000000
10000000
00000000
00100000
01000000
00001000
00010000
,
00000000
01000000
10000000
00010000
01000000
00000000
00100000
00000000
,
10020000
00000000
00100000
00000000
00031000
00000000
00000000
00010000
,
00000000
00001000
00000100
00000010
00000001
00000000
00001000
00000000
,
00000010
00001000
00000100
00000000
00000010
00000001
00000100
00000010
,
00000000
00000100
00001000
00010000
00100000
00000000
00000000
00000000
,
00102000
00000000
00010000
00000000
00003100
00000000
00000000
00001000
,
00000000
00010000
00100000
01000000
00000000
00100000
10000000
00000000
,
01000000
00000000
00010000
00000000
00000100
00000000
00000010
00000001
,
00000000
00000001
00000100
00000010
00001000
00000000
00000000
00000000
,
00020010
00000000
00001000
00000000
01030000
00000000
00000000
10000000
,
00000000
10000000
00100000
01000000
00010000
00000000
10000000
00000000
,
01000000
00000000
00010000
00000000
00000100
00000000
00000010
00000001
,
00000000
00001001
00000000
00000110
00000000
00000001
00001000
00000000
,
00000000
00000000
00000001
00000000
00001000
00000000
00010000
00001000
,
00000000
00000010
00001000
00010000
00000000
01000000
00100000
00000000
,
00000000
00000000
10000000
00000000
00010000
00000000
00001000
00010000
,
00000000
00100000
00010000
00001000
00000000
00000100
00000010
00000000
,
00000100
00000000
00001001
00000000
00000100
00000000
00001000
00010000
,
00000000
01000000
10000000
00010000
00000000
01000000
00100000
00000000
,
10000000
00000000
00100000
00000000
00010000
00000000
00001000
00010000
,
00000000
00001010
00000000
00000011
00000000
00000100
00000100
00000000
,
00000001
00000000
00000100
00001000
,
01000000
00100000
10000000
01000000
,
10000000
00000000
01000000
00010000
,
00000100
00000010
00000001
00000100
,
00000001
00000000
00001000
00010000
,
00001000
00000000
00010000
10000000
,
00010000
00000000
00000000
00000000
00100000
00000000
00001000
00010000
,
00000000
00010000
00000000
00010000
00000000
00000000
00000000
00000000
,
00110000
00000000
00001010
00000000
00110000
00000000
00000000
10000000
,
00000000
01000000
00100000
00010000
01000000
00000000
00100000
00000000
,
10000000
01000000
10000000
01000000
00100000
00010000
00100000
00010000
,
00001000
00000100
00000010
00000001
00001000
00000000
00000010
00000000
,
00001010
00000000
00110000
00000000
00001010
00000000
00000000
00000001
,
00000000
00000100
00000010
00001000
00000100
00000000
00000010
00000000
,
00000001
00000100
00000001
00000100
00000010
00001000
00000010
00001000
,
00000000
00010000
01000000
00100000
10000000
00000000
00000000
00000000
,
10020000
00000000
01000000
00000000
00031000
00000000
00000000
00010000
,
00000000
01000000
00100000
10000000
00000000
00010000
10000000
00000000
,
01000000
00000000
00010000
00000000
00000100
00000000
00000010
00000001
,
00000000
00000001
00000100
00000010
00001000
00000000
00000000
00000000
,
00002001
00000000
00000100
00000000
00013000
00000000
00000000
00100000
,
00000000
01000000
10000000
00100000
01000000
00000000
10000000
00000000
,
01000000
00000000
00010000
00000000
00000100
00000000
00000010
00000001
,
00000000
00001001
00000000
00000110
00000000
00000001
00001000
00000000
,
00000020
00000000
00000000
00000030
,
00000100
00001000
00010000
00100000
,
20000000
00000000
00000000
30000000
,
01000000
00010000
00001000
00000010
,
00000002
00000000
00000000
00000003
,
00000100
00001000
01000000
00100000
,
20000000
00000000
00000000
30000000
,
01000000
00010000
00000100
00000010
,
00000001
00000000
00000000
00000000
00000000
00000000
00000000
00000000
00001000
00000000
00000000
00000010
00000000
00000000
00000101
00000000
,
00000000
00000000
00000000
00000000
;
