
//----- song id: geki
#TITLE:激アツ☆マジヤバ☆チアガール;
#ARTIST:日向美ビタースイーツ♪;
#TITLETRANSLIT:Gekiatsu majiyaba cheer girl;
#ARTISTTRANSLIT:Hinatabi Bitter Sweets♪;
#BANNER:Gekiatsu majiyaba cheer girl.png;
#BACKGROUND:Gekiatsu majiyaba cheer girl-bg.png;
#CDTITLE:./CDTitles/DDR (2014).png;
#MUSIC:Gekiatsu majiyaba cheer girl.ogg;
#SAMPLESTART:57.176;
#SAMPLELENGTH:15;
#BPMS:0=170;
#NOTES:
     dance-single:
     :
     Beginner:
     3:
     :
0000
0000
0000
0000
,
0000
0000
0000
0000
,
0000
0000
0000
0000
,
0000
0000
0000
0000
,
0000
0000
0000
0000
,
1000
0000
0000
0000
,
0100
0000
0000
0000
,
0001
0000
0000
0000
,
0010
0000
0000
0000
,
0020
0000
0000
0030
,
0000
0000
0000
0000
,
1000
0000
0000
0000
,
0010
0000
0000
0000
,
0001
0000
0000
0000
,
1000
0000
0000
0000
,
0001
0000
0000
0000
,
0100
0000
0000
0000
,
1000
0000
0000
0000
,
0001
0000
0001
0000
,
0100
0000
0000
0000
,
0001
0000
0000
0000
,
1000
0000
0000
0000
,
0100
0000
0000
0000
,
1000
0000
0000
0000
,
0001
0000
0000
0000
,
0000
0010
0000
0010
,
0000
0010
0000
0010
,
0010
0000
0000
0000
,
1000
0000
0000
0000
,
0001
0000
0000
0000
,
0010
0000
0000
0000
,
1000
0000
0000
0000
,
0001
0000
0000
0000
,
1000
0000
0000
0000
,
0010
0000
0000
0000
,
0001
0000
0000
0000
,
0000
0000
0000
0000
,
1000
0000
0000
0000
,
0001
0000
0000
0000
,
0100
0000
0000
0000
,
0020
0000
0000
0030
,
0010
0000
0000
0000
,
0100
0000
0000
0000
,
0010
0000
0000
0000
,
0100
0000
0100
0000
,
0001
0000
0000
0000
,
1000
0000
0000
0000
,
0001
0000
0000
0000
,
1000
0000
1000
0000
,
0010
0000
0000
0000
,
0100
0000
0000
0000
,
0010
0000
0000
0000
,
0100
0000
0100
0000
,
1000
0000
0000
0000
,
0001
0000
0000
0000
,
1000
0000
0000
0000
,
0001
0000
0001
0000
,
0020
0000
0000
0000
,
0000
0000
0000
0000
0000
0030
0000
0000
,
1000
0000
0000
0000
,
0001
0000
0000
0000
,
0001
1000
0000
0000
,
0010
0000
0000
0000
,
1000
0000
1000
0000
,
0010
0000
1001
0000
,
1000
0000
0000
0000
,
0010
0000
0000
0000
,
0001
0000
0001
0000
,
0010
0000
0001
0000
,
2000
0000
0000
0000
,
0000
3000
0000
0000
0000
0000
0000
0000
,
0000
0000
0000
0000
;
#NOTES:
     dance-single:
     :
     Easy:
     6:
     :
0000
0000
0000
0000
,
0000
0000
0000
0000
,
0000
0000
0000
0000
,
0000
0000
0000
0000
,
0000
0000
0000
0000
,
0001
1000
0000
0001
,
1000
0001
0000
1000
,
0010
0100
0000
0010
,
0100
0001
0100
0001
,
0010
0000
0000
0000
,
0001
0000
0000
0000
,
0010
0000
1000
0000
,
0010
1000
0010
0000
,
1000
0001
0100
0000
,
0010
1000
0001
0100
,
0010
0000
1000
0000
,
0010
1000
0010
0000
,
1000
0001
0100
0000
,
0010
1000
0001
0100
,
0001
0000
1000
0000
,
0001
0000
0001
0000
,
1000
0010
0001
0010
,
1000
0001
0100
0001
,
0000
0001
0000
1000
,
0000
1000
0000
0001
,
0010
1000
0010
0001
,
1000
0100
1000
0100
,
0002
0000
0010
0013
,
0020
0000
0100
0130
,
2000
0000
0001
3001
,
0020
0000
0100
1030
,
1000
0001
0010
0001
,
1000
0001
0010
0100
,
0001
0000
0000
0100
,
0000
0000
0100
0001
,
2000
0001
0001
0001
,
3001
0000
0000
0000
,
1000
0010
0100
0001
,
1000
0000
0000
1000
,
0001
1000
0010
0100
,
0020
0030
0000
0000
,
1000
1000
0100
0000
,
0010
0010
0001
0000
,
0001
0100
0100
0000
,
0010
1000
1000
0000
,
0100
0010
0010
0000
,
0100
0001
0001
0000
,
2000
0000
3020
0000
,
0230
0000
0302
1003
,
0001
0100
1000
0100
,
0001
0010
1000
0000
,
0001
0010
0001
1000
,
0001
0100
0001
0000
,
0001
1000
0000
0001
,
1000
0001
0000
1000
,
0010
0100
0000
0010
,
0100
0001
0100
0001
,
0010
0000
0000
0000
,
0001
0000
0000
0000
,
0200
0000
0320
0000
,
0130
0000
0010
0000
,
0010
0000
1000
0000
,
0010
1000
0010
0000
,
1000
0001
0100
0000
,
0010
1000
0001
0100
,
0010
0000
1000
0000
,
0010
1000
0010
0000
,
1000
0001
0100
0000
,
0010
1000
0001
0100
,
0002
0000
0000
0000
,
0000
0003
0000
0000
0000
0000
0000
0000
,
0000
0000
0000
0000
;
#NOTES:
     dance-single:
     :
     Medium:
     9:
     :
0000
0000
0000
0000
,
0000
0000
0000
0000
,
0000
0000
0000
0000
,
0000
0000
0000
0000
,
0000
0000
0000
0000
,
0001
1000
0001
0100
,
0001
1000
0001
1000
0020
0000
1030
0000
,
0010
0000
0100
0000
0001
1000
0000
0001
,
2000
0000
0002
3003
,
0020
0030
2000
3000
,
0020
0030
0002
0003
,
2000
3001
0020
1030
,
0001
0010
0100
0000
,
0010
0100
1001
0000
,
2000
3001
0002
1003
,
2000
3001
0020
0031
,
1000
0000
0100
0000
0010
0001
0010
0000
,
0100
0010
1001
0000
,
1001
1001
0110
0110
,
0010
0000
0100
0010
0000
1000
0001
0000
,
1000
0000
0001
1000
0000
0010
0100
0000
,
0001
0100
0001
0000
1000
0000
0010
0000
,
0100
0000
0010
0000
0000
0100
0010
0000
,
0000
0100
0001
0100
0001
0000
1000
0000
,
0001
0100
0001
1000
0000
0000
0000
0001
,
0000
0100
0010
0000
1000
0000
0000
0001
,
0000
0100
0010
0000
1000
0000
0010
0000
,
0200
0001
0010
1300
,
0020
1000
0100
0031
,
0200
0000
0010
0000
0001
0000
0010
0300
,
0020
1000
0100
0001
,
0130
0000
0010
0000
0100
0001
0100
0000
,
0001
0000
0100
0000
0010
1000
0010
0000
,
0002
0000
0003
0020
0000
0030
0200
0000
,
0300
2000
3000
0000
0001
0000
1000
0000
,
0001
0010
0001
0000
0010
0100
0010
0000
,
0002
0003
2000
3000
,
0001
0001
1000
1000
,
0001
0000
0100
0001
0000
1000
0001
0000
,
0100
0100
0010
0010
,
0001
0000
0001
1000
0000
0000
0000
0000
,
0010
1001
0010
1001
,
0001
1000
0001
1000
0000
0010
0100
0000
,
1000
0010
0100
0001
,
1000
0000
0010
0000
0000
1000
0010
0000
,
0100
1001
0100
1001
,
1000
0001
1000
0001
0000
0100
0010
0000
,
2200
3300
0022
0033
,
1001
0000
1000
0000
0000
0010
1000
0000
,
0010
1001
0010
1001
,
0001
1000
0001
1000
0000
0010
0100
0000
,
1000
0010
0100
0001
,
1000
0000
0010
0000
0000
1000
0010
0000
,
2000
3001
0002
1003
,
0100
0010
0100
0000
0100
0000
0010
0000
,
0200
0310
0020
0130
,
0001
1000
0001
0000
0001
0000
1000
0000
,
0002
0000
0203
0000
,
0320
0000
2030
0000
,
3002
0000
0023
0000
,
0230
0000
2300
0000
,
3002
1003
0020
1030
,
0001
1000
0010
0000
0100
0000
0000
0000
,
0010
0100
1001
0000
,
2000
3001
0002
1003
,
2000
3001
0020
0031
,
1000
0000
0100
0000
0010
0001
0010
0000
,
0100
0010
1001
0000
,
1001
1001
0110
0110
,
2002
0000
0000
0000
,
3003
0000
0000
0110
0000
0000
0000
0000
,
0000
0000
0000
0000
;
#NOTES:
     dance-single:
     :
     Hard:
     13:
     :
0000
0000
0000
0000
,
0000
0000
0000
0000
,
0000
0000
0000
0000
,
0000
0000
0000
0000
,
0000
0000
0000
0000
,
0010
1001
0010
1001
,
0010
0001
0010
0100
0001
0000
1000
0000
,
0010
0000
1000
0001
0100
0010
0000
0100
,
0001
0100
0001
1000
0010
0001
0010
0100
,
1001
0000
0000
0100
0001
0000
0000
0000
,
1001
0000
0000
0010
1000
0000
0001
0000
,
1000
0000
0001
0000
0100
0010
0100
0000
0001
1000
0001
0000
0100
0000
0001
0000
,
1000
0010
0100
0001
0100
0001
0000
0000
,
0100
0000
0010
0000
1000
0001
1000
0000
0010
1000
0010
0000
1000
0000
0010
0000
,
1000
0001
1000
0010
1000
0100
1000
0000
,
0001
0000
1000
0000
0100
0010
0100
0000
1000
0001
1000
0000
0100
0000
1000
0000
,
0001
0010
0100
1000
0100
1000
0000
0000
,
0100
0000
0010
0000
0001
1000
0001
0000
0010
0001
0010
0000
0001
0000
1000
0000
,
0110
1100
0110
0101
,
0000
1000
0001
0100
0001
0000
1000
0001
,
1000
0100
0010
0001
0000
1000
0001
1000
,
0100
0010
0100
1000
0001
0010
0100
1000
,
0001
0100
0001
0100
0000
0001
1000
0000
,
0000
0001
0100
0010
1000
0001
0100
0000
,
0010
0001
0010
0100
0000
0000
0001
1000
,
0000
0001
1000
0010
0100
0010
0100
0001
,
0000
0100
0001
1000
0001
0100
0001
1000
,
0001
0000
0100
0001
1000
0100
0010
0100
,
1000
0000
0010
0100
0001
1000
0010
0000
,
1000
0000
0010
0100
0001
0010
0100
0010
,
0001
0000
0100
0010
0000
1000
0001
1000
,
0010
0000
1001
0000
0100
0010
1000
0000
,
0010
0000
1001
0000
0100
0010
0001
0000
,
0020
0000
0000
0100
0000
0000
0001
0000
,
0000
0130
0000
0000
0001
0000
1000
0000
,
0120
0001
0100
0001
,
0130
0000
0000
0000
,
2020
3030
0101
0000
,
0100
1000
0001
0010
0000
0000
1000
0000
,
0202
0303
1010
0000
,
0010
0001
1000
0100
0001
1000
0001
0200
,
0300
1001
0100
1001
,
1000
0100
0010
0002
1000
0000
0013
0100
,
0000
1000
0001
0000
0100
0000
0010
0100
,
0000
0001
1000
0010
0001
0010
1000
0000
,
0010
1000
0010
0100
0010
0001
1000
0000
,
0100
0010
1000
0001
0000
0000
0000
0000
,
0010
0100
1000
0100
0010
0001
0010
0100
,
1000
0100
0010
0001
0000
0100
0001
0000
,
0000
1001
0100
1001
,
1000
0100
0010
0002
1000
0000
0013
0100
,
0000
1000
0001
0000
0100
0000
0010
0100
,
0000
0001
1000
0010
0001
0010
1000
0000
,
0001
0000
1000
0000
0110
0000
0001
0020
,
0000
0000
0001
0000
1000
0000
0031
2000
,
0000
0000
0001
0000
0100
0000
3001
0200
,
0000
0000
0001
0000
0310
1000
0001
0100
,
0001
0000
0000
1000
0200
0000
0000
0000
,
0010
0000
0000
1300
0001
0000
1000
0000
,
0101
0000
0000
0010
1000
0000
0010
0000
,
2002
0000
3003
0000
,
1000
0000
0001
0000
0100
0010
0100
0000
0001
1000
0001
0000
0100
0000
0001
0000
,
1000
0010
0100
0001
0100
0001
1000
0001
,
0100
0000
0010
0000
1000
0001
1000
0000
0010
1000
0010
0000
1000
0000
0010
0000
,
1000
0001
1000
0010
1000
0100
1000
0000
,
0001
0000
1000
0000
0100
0010
0100
0000
1000
0001
1000
0000
0100
0000
1000
0000
,
0001
0010
0100
1000
0100
1000
0000
0000
,
0100
0000
0010
0000
0001
1000
0001
0000
0010
0001
0010
0000
0000
0000
0000
0000
,
0110
1001
0110
0011
,
1000
0000
0010
0100
0000
1000
0001
1000
,
0100
0000
0010
0202
0000
0000
0000
0000
,
0000
0000
0000
0303
0000
0000
0000
0000
,
0000
0000
0000
0000
;
#NOTES:
     dance-double:
     :
     Easy:
     5:
     :
00000000
00000000
00000000
00000000
,
00000000
00000000
00000000
00000000
,
00000000
00000000
00000000
00000000
,
00000000
00000000
00000000
00000000
,
00000000
00000000
00000000
00000000
,
00100000
00000000
00010000
00000000
,
00001000
00000000
00000010
00000000
,
00000001
00000000
00000010
00000000
,
00000001
00000000
00001000
00000000
,
00022000
00000000
00000000
00033000
,
00100000
00000000
10000000
00100000
,
00010000
00000000
00001000
00000000
,
00000010
00000001
00001000
00000000
,
00000100
00000010
00001000
00000000
,
00010000
00001000
00000100
00001000
,
00010000
00000000
01000000
00000000
,
10000000
00010000
01000000
00000000
,
00100000
01000000
00010000
00000000
,
00001000
00000000
00011000
00000000
,
00100000
00000000
00000000
00000000
,
01000000
00000000
00000000
00000000
,
00010000
00000000
10000000
00000000
,
01000000
00000000
00000000
00000000
,
00010000
00000000
00000000
00000000
,
01000000
00000000
00000000
00000000
,
00010000
00000000
00001000
00000000
,
00000010
00000000
00001000
00000000
,
00010000
00001000
00000000
00010000
,
00001000
00010000
00000000
00001000
,
00010000
00100000
00010000
00000000
,
00001000
00000100
00001000
00000000
,
00101000
00000000
00010000
00000000
,
00010010
00000000
00001000
00000000
,
00010000
00000000
00000000
00001000
,
00000000
00000000
00010000
00000000
,
00010000
00001000
00000100
00000001
,
00002000
00000000
00003000
00000010
,
00001000
00000000
00000010
00000000
,
00000100
00000000
00000000
00000000
,
00001000
00000000
00010000
00100000
,
10000000
00000000
00000000
00000000
,
01000000
00000000
10000000
00000000
,
00020000
00000000
01000000
00030000
,
10000000
00000000
00010000
00000000
,
00100000
00000000
00001000
00000000
,
00000100
00000000
00000001
00000000
,
00002000
00000000
00000001
00003000
,
00001000
00010000
00001000
00010000
,
00100000
00000000
10000000
00000000
,
01000000
00000000
10000000
00000000
,
00020000
00000000
01000000
00030000
,
10000000
00000000
00010000
00000000
,
00100000
00000000
00001000
00010000
,
00100000
00000000
00010000
00000000
,
00001000
00000000
00000010
00000000
,
00000001
00000000
00000010
00000000
,
00000001
00000000
00001000
00000000
,
00022000
00000000
00000000
00033000
,
00100000
00000000
10000000
00100000
,
00020000
00000000
00000000
00030000
,
00022000
00000000
00033000
00001000
,
00010000
00000000
00001000
00000000
,
00000010
00000001
00001000
00000000
,
00000100
00000010
00001000
00000000
,
00010000
00001000
00000100
00001000
,
00010000
00000000
01000000
00000000
,
10000000
00010000
01000000
00000000
,
00100000
01000000
00010000
00000000
,
00001000
00000000
00011000
00000000
,
00020000
00000000
00000000
00000000
,
00000000
00000000
00000000
00130000
00000000
00000000
00000000
00000000
,
00000000
00000000
00000000
00000000
;
#NOTES:
     dance-double:
     :
     Medium:
     10:
     :
00000000
00000000
00000000
00000000
,
00000000
00000000
00000000
00000000
,
00000000
00000000
00000000
00000000
,
00000000
00000000
00000000
00000000
,
00000000
00000000
00000000
00000000
,
10000000
00010000
10000000
00100000
,
10000000
00010000
01000000
00100000
00010000
00000000
00001000
00000000
,
00000010
00000000
00000100
00001000
00000100
00001000
00000000
00000001
,
00001000
00000100
00000010
00001000
,
00010000
00000000
00000000
00001000
00010000
00000000
00000000
00000000
,
00001000
00000000
00000000
00010000
00001000
00000000
00011000
00000000
,
00101000
00010000
01000000
00010000
,
00010010
00001000
00000100
00001000
,
00011000
00100000
10010000
00000000
,
01000000
00010000
00001000
00010000
,
00101000
00010000
01000000
00010000
,
00010010
00001000
00000100
00001000
,
00011000
00100000
10010000
00000000
,
01000000
00010000
00001000
00010000
,
00000100
00000000
00000010
00000100
00000000
00001000
00000001
00000000
,
00001000
00000000
00000001
00001000
00000000
00000100
00000010
00000000
,
00000001
00000000
00000010
00000001
00000000
00000000
00000100
00000001
,
00000010
00001000
00010000
00100000
,
01000000
00000000
00010000
01000000
00010000
00000000
00100000
00000000
,
00001000
00010000
00001000
00010000
00000000
00000000
00000000
00100000
,
00000000
01000000
00100000
00000000
10000000
00000000
00000000
00010000
,
00000000
01000000
00100000
00000000
10000000
00000000
00100000
00010000
,
00001000
00000000
00100000
00000000
00001000
00010000
00000010
00010000
,
00001000
00000000
01000000
00000000
00001000
00010000
00000100
00000000
,
00001000
00000000
00000001
00000000
00001000
00000010
00000100
00000010
,
00000100
00000000
00000001
00000000
00001000
00000010
00000100
00001000
,
00010000
00010010
00001000
00101000
,
00010000
00010100
00001000
01001000
,
00010000
00000000
00000000
01000000
00000000
00000000
10000000
00000000
,
00000000
00100000
00000000
00000000
00010000
00000000
00001000
00000000
,
00000020
00001000
00001000
00001000
,
00001030
00000000
00010000
00000000
,
00001000
00000010
00001000
00010000
,
00100000
00010000
00100000
00010000
00000000
00000000
00000000
00000000
,
01000000
00010000
00001000
00000100
,
00000001
00000100
00000001
00000100
00000000
00001000
00000001
00000000
,
00000010
00001001
00000010
00001001
,
00000010
00000100
00001000
00010000
00000000
00000000
00001000
00010000
,
00000000
00100000
10000000
00000000
00010000
00000000
01000000
00100000
,
00000000
00010000
00100000
00010000
00001000
00010000
00001000
00000000
,
00000100
00000001
00000010
00001000
,
00000010
00000100
00000010
00000100
00000000
00001000
00000001
00000000
,
00000100
00001000
00000100
00000000
00001000
00010000
00001000
00000000
,
00010000
00001000
00010000
00100000
00000000
10000000
00010000
00000000
,
00100000
10010000
00100000
10010000
,
01000000
00100000
00010000
00001000
00000000
00010000
00001000
00000010
,
00000000
00001000
00000010
00000000
00000001
00000000
00001000
00000010
,
00000000
00000100
00000000
00001000
00010000
00001000
00010000
00000000
,
00001000
00000000
00100000
00000000
00001000
00000000
00100000
00002000
,
00000000
00000000
00100000
00000000
00013000
00000000
00001000
00000020
,
00000000
00000000
00001000
00000000
00000130
00000000
00001000
00000002
,
00000000
00000000
00001000
00000000
00000103
00000010
00000100
00001000
,
00010000
00000000
00000000
00001000
00010000
00000000
00000000
00000000
,
00001000
00000000
00000000
00010000
00100000
00000000
10000000
00000000
,
00010000
00000000
00000000
01000000
00100000
00000000
00010000
00000000
,
00002000
00000000
00000000
00000000
00000000
00003000
00000000
00000000
,
00101000
00010000
01000000
00010000
,
00010010
00001000
00000100
00001000
,
00011000
00100000
10010000
00000000
,
01000000
00010000
00001000
00010000
,
00101000
00010000
01000000
00010000
,
00010010
00001000
00000100
00001000
,
00011000
00100000
10010000
00000000
,
01000000
00010000
00001000
00000010
,
00002002
00000000
00000000
00000000
,
00000000
00000000
00000000
00003003
00000000
00000000
00000000
00000000
,
00000000
00000000
00000000
00000000
;
#NOTES:
     dance-double:
     :
     Hard:
     12:
     :
00000000
00000000
00000000
00000000
,
00000000
00000000
00000000
00000000
,
00000000
00000000
00000000
00000000
,
00000000
00000000
00000000
00000000
,
00000000
00000000
00000000
00000000
,
00100000
10000000
00010000
10000000
,
00010000
01000000
00100000
00010000
00001000
00000000
00010000
00000000
,
00000010
00000000
00000100
00000010
00001000
00000100
00000000
00001000
,
00000001
00000010
00000100
00000010
00001000
00010000
00001000
00000010
,
00001000
00000000
00000000
00100000
00010000
00000000
00000000
00000000
,
00000100
00000000
00000000
00001000
00010000
00000000
00100000
00000000
,
10000000
00100000
01000000
00010000
00100000
00010000
01000000
00010000
,
01000000
00100000
01000000
00100000
00010000
00001000
00000000
00000000
,
00010000
00001000
00010000
00000100
00000010
00000001
00000000
00000000
,
00001000
00000001
00001000
00000010
00000100
00001000
00010000
01000000
,
10000000
00010000
01000000
00010000
01000000
00001000
01000000
00010000
,
01000000
00100000
01000000
00001000
00010000
00001000
00000000
00000000
,
00010000
00001000
00010000
00000100
00001000
00000100
00000000
00000000
,
00000110
00001100
00011000
00110000
,
00000000
10000000
00010000
01000000
00010000
00000000
10000000
00010000
,
10000000
01000000
00100000
00010000
00000000
10000000
01000000
00010000
,
00000100
00000010
00000100
00001000
00000001
00000010
00000100
00001000
,
00000001
00000100
00000001
00000100
00000000
00001000
00010000
00000000
,
00000000
00100000
01000000
00100000
10000000
00010000
01000000
00000000
,
00100000
01000000
00100000
10000000
00000000
00000000
01000000
00010000
,
00000000
00001000
00000100
00000010
00000100
00000010
00000100
00000001
,
00000000
00000100
00000001
00001000
00000001
00000100
00000001
00000100
,
00001000
00000000
00010000
01000000
10000000
01000000
00100000
01000000
,
10000000
00000000
00100000
01000000
00010000
10000000
00100000
00000000
,
00010000
00000000
00001000
00000100
00000001
00000010
00000100
00000010
,
00000001
00000000
00000100
00000010
00000000
00001000
00000001
00000100
,
00001000
00000000
00011000
00000000
01000000
00100000
10000000
00000000
,
00100000
00000000
10010000
00000000
01000000
00100000
00010000
00000000
,
00002000
00000000
00000000
00000100
00000000
00000000
00000001
00000000
,
00000000
00000100
00000000
00000000
00003001
00000000
00001000
00000000
,
01020000
10000000
01000000
10000000
,
01030000
00000000
00000000
00000000
10000000
01000000
00000000
00010000
,
00001000
00000000
00010000
00000000
00001000
00010000
00100000
00010000
,
00001000
00010000
00000100
00001000
00000000
00000001
00000100
00000000
,
00000100
00000000
00000010
00000000
00000100
00000001
00000010
00000001
,
00000100
00000010
00001000
00000100
00010000
00001000
00010000
00000000
,
00100000
11000000
01100000
00110000
,
10000000
01000000
00100000
00010000
10000000
00000000
01000000
00010000
,
00000000
00001000
00000100
00000000
00000001
00000000
00000010
00000100
,
00000000
00001000
00000001
00000010
00001000
00010000
00001000
00000000
,
00001000
00010000
00100000
01000000
00100000
00010000
00100000
10000000
,
01000000
00100000
00010000
10000000
00000000
00000000
00100000
00000000
,
00010000
00001000
00000100
00001000
00010000
00001000
00000100
00000010
,
00001000
00000010
00000100
00000001
00000000
00000100
00000001
00000000
,
00000010
00000101
00000110
00001010
,
00000001
00000100
00000010
00001000
00000001
00000000
00000100
00001000
,
00000000
00010000
01000000
00000000
10000000
00000000
00100000
01000000
,
00000000
00010000
10000000
00100000
00010000
00001000
00010000
00000000
,
00001100
00000000
00000110
00000000
00000011
00000000
00000001
00000010
,
00000000
00000000
00000011
00000000
00001100
00000000
00001000
00010000
,
00000000
00000000
00011000
00000000
01100000
00000000
10000000
01000000
,
00000000
00000000
00110000
00000000
00010000
00001000
00010000
00000100
,
00001000
00000000
00000000
00100000
00010000
00000000
00000000
00000000
,
00000100
00000000
00000000
00001000
00010000
00000000
00100000
00000000
,
10000000
00100000
01000000
00010000
00100000
00010000
01000000
00010000
,
01000000
00100000
01000000
00100000
00010000
00001000
00000100
00000000
,
00000001
00000010
00000100
00001000
00000010
00001000
00000100
00001000
,
00000100
00000010
00000100
00000010
00001000
00010000
00000000
00000000
,
00001000
00010000
00001000
01000000
00100000
10000000
00000000
00000000
,
00010000
10000000
00010000
00100000
01000000
00010000
00001000
00000100
,
00000001
00001000
00000100
00001000
00000100
00010000
00000100
00001000
,
00000100
00000010
00000100
00010000
00001000
00010000
00000000
00000000
,
00001000
00010000
00001000
01000000
00010000
01000000
00000000
00000000
,
01100000
01010000
00011000
00001010
,
00000100
00000000
00000010
00000100
00000000
00000001
00000100
00001000
,
00010000
00000000
01000000
22000000
00000000
00000000
00000000
00000000
,
00000000
00000000
00000000
33000000
,
00000000
00000000
00000000
00000000
;
