
//----- song id: foto
#TITLE:Follow Tomorrow;
#ARTIST:HHH×MM×ST;
#BANNER:Follow Tomorrow.png;
#BACKGROUND:Follow Tomorrow-bg.png;
#CDTITLE:./CDTitles/bmIIDX 19 Lincle.png;
#MUSIC:Follow Tomorrow.ogg;
#SAMPLESTART:66.84;
#SAMPLELENGTH:15;
#BPMS:0=140;
#STOPS:228=0.429;
#BGCHANGES:-1=Follow Tomorrow.avi=1=0=0=0;
#NOTES:
     dance-single:
     :
     Beginner:
     2:
     :
0000
0000
0000
0000
,
0000
0000
0000
0000
,
0000
0000
0000
0000
,
0000
0000
0000
0000
,
0000
0000
0000
0000
,
0001
0000
0000
0000
,
1000
0000
0000
0000
,
0001
0000
0001
0000
,
0001
0000
0000
0000
,
0000
0000
0000
0000
,
0001
0000
0001
0000
,
0001
0000
0000
0000
,
1000
0000
1000
0000
,
1000
1000
1000
0000
,
0001
0000
0001
0000
,
0001
0000
0000
0000
,
1000
0000
1000
0000
,
1000
1000
1000
0000
,
0010
0000
0010
0000
,
0010
0000
0000
0000
,
1000
0000
1000
0000
,
1000
0000
0000
0000
,
0100
0000
0100
0000
,
0100
0000
0000
0000
,
0001
0000
0001
0000
,
0001
0000
0000
0000
,
0001
0000
0000
0000
,
1000
0000
1000
0000
,
1000
0000
0000
0000
,
0001
0000
0001
0000
,
0001
0000
0000
0000
,
0100
0000
0100
0000
,
0100
0000
0000
0000
,
0100
0100
0100
0000
,
1000
0000
0000
0000
,
0001
0000
0000
0000
,
1000
0000
1000
0000
,
1000
1000
1000
0000
,
1001
0000
0000
0000
,
0001
0000
0001
0000
,
0001
0001
0001
0000
,
1000
0000
1000
0000
,
1000
1000
1000
0000
,
0100
0000
0100
0000
,
0100
0100
0100
0000
,
0001
0000
0001
0000
,
0001
0001
0001
0000
,
1000
0000
0000
0000
,
0100
0000
0000
0000
,
0001
0000
0000
0000
,
0100
0000
0100
0000
,
1000
0000
1000
0000
,
0010
0000
0000
0000
,
0001
0000
0001
0000
,
0010
0010
0010
0000
,
0020
0000
0000
0000
,
0030
0000
0000
0000
,
0000
0001
0000
0001
,
0000
0001
0001
0001
,
0000
0100
0000
0100
,
0000
0100
0100
0100
,
0000
1000
0000
1000
,
0000
1000
1000
1000
,
0000
0010
0000
0010
,
0000
0010
0010
0010
,
0000
0100
0000
0000
,
0000
0010
0000
0000
,
0000
1000
0000
0000
,
0000
0001
0000
0000
,
0000
0000
0000
0000
;
#NOTES:
     dance-single:
     :
     Easy:
     5:
     :
0000
0000
0000
0000
,
0000
0000
0000
0000
,
0000
0000
0000
0000
,
0000
0000
0000
0000
,
0000
0000
0000
0000
,
0002
0000
0000
0003
,
2000
0000
0000
3000
,
0001
0000
1000
0000
,
0002
0000
0000
0000
,
0003
0000
0000
0000
,
0001
0001
1000
1000
,
0001
0000
1000
0000
,
0002
0003
2000
3000
,
0001
1000
0001
0000
,
0001
0001
1000
1000
,
0001
0000
1000
0000
,
0002
0003
2000
3000
,
0002
0000
0000
0003
,
0001
1000
0001
0001
,
1000
0000
0100
0001
,
0001
0000
0010
0000
,
0001
0100
1000
0000
,
0010
0010
0010
0000
,
0100
0000
1000
0000
,
0010
0000
0001
0000
,
0100
0000
1001
0000
,
0001
0000
1000
0000
,
0001
0000
1000
0001
,
1000
0000
0001
0000
,
1000
0000
0001
1000
,
0001
0001
0001
0000
,
0001
0010
1000
0000
,
1001
0000
0000
0000
,
0001
1000
0001
1000
,
0002
0000
0000
0003
,
1000
0001
1000
0001
,
1000
0100
1000
0100
,
2000
0000
0000
3000
,
1001
0000
0000
0000
,
0001
0001
1000
1000
,
0001
0000
1000
0000
,
0002
0003
2000
3000
,
0001
1000
0001
0000
,
0001
0001
1000
1000
,
0001
0001
0001
0000
,
0002
0003
2000
3000
,
0002
0000
0000
0003
,
0001
0001
0000
0001
,
1000
1000
0000
1000
,
0100
0010
0100
0100
,
0010
0000
0010
0010
,
0001
0001
0001
0001
,
0010
1000
1000
1000
,
1001
0000
1001
0000
,
0010
1000
0001
0000
,
1001
0000
0001
0000
,
2000
0000
0000
0000
,
3000
0001
1000
0001
,
1000
0002
0003
2000
,
3001
1000
0001
1000
,
0001
0100
1000
0001
,
0000
0001
0001
1000
,
1000
0010
0000
0010
,
1000
0001
0000
1000
,
0001
1001
0000
1001
,
0000
2002
0000
0000
,
0000
0000
0000
0000
,
0000
0000
0000
0000
,
0000
0000
0000
0000
,
0000
3003
0000
0000
0000
0000
0000
0000
,
0000
0000
0000
0000
;
#NOTES:
     dance-single:
     :
     Medium:
     8:
     :
0000
0000
0000
0000
,
0000
0000
0000
0000
,
0000
0000
0000
0000
,
0000
0000
0000
0000
,
0000
0000
0000
0000
,
1000
0000
0000
0010
1000
0000
0000
0000
,
0001
0000
0000
0010
0001
0000
0100
0000
,
0001
0000
0000
1000
0001
0000
0000
0000
,
0100
0000
0010
0000
1000
0100
0010
0001
,
2000
0000
0000
3000
,
0101
0001
1000
1010
,
0100
0010
1000
0000
0001
0000
1000
0000
,
1100
1000
0010
0011
,
0001
0010
0100
0000
,
1001
1000
0001
0101
,
0010
0100
0001
0000
1000
0000
0001
0000
,
0010
1010
0100
1001
,
0010
0001
0101
0000
,
0010
1000
0000
0000
1000
0100
0000
0000
,
0100
0001
0000
0000
0001
0000
1000
0000
,
0010
0001
0000
0000
0001
0100
0000
0000
,
0100
1000
0000
0000
0001
0001
0001
0000
,
1000
0100
1000
0000
0100
0001
0100
0000
,
0001
0010
0001
0000
0010
0000
1000
0000
,
0001
0100
0001
0000
0100
1000
0100
0000
,
1000
0010
1000
0000
0202
0000
0000
0000
,
0303
1000
0000
1000
,
0100
0010
0001
0100
,
0010
0001
0000
0001
,
0100
0000
0010
0000
1000
0001
1000
0001
,
1000
0100
0010
0100
,
1000
0000
1000
0000
0001
0100
0001
0000
,
1000
0010
0100
0001
,
1000
0001
1000
0001
1000
0000
0000
0000
,
1002
0100
0013
0100
,
1000
0010
0100
0001
1000
0000
0001
1000
,
0100
0001
0010
1000
,
0200
0000
0010
0000
0010
0000
0310
0100
,
1000
0000
0000
0001
0000
0000
1000
0000
0010
0000
0000
0000
0000
0000
0000
0000
,
1001
1000
0001
0101
,
0010
0100
0001
0000
0010
0100
1000
0000
,
1100
1000
0001
0011
,
1000
0000
0001
0000
1000
0001
1000
0000
,
1001
0001
1000
1010
,
0010
0100
1000
0000
0100
0001
0010
0000
,
0100
1100
0010
0011
,
0100
0010
0110
0000
,
1000
0000
0000
1000
0100
0000
1000
0000
,
0001
0000
0000
0001
0100
0000
0001
0001
,
0100
0000
0010
1000
0001
0000
0010
0000
,
0100
0000
0000
0000
1000
1000
1000
0000
,
0001
0001
1000
0100
,
0010
0010
0001
1000
,
0010
0110
0010
1001
,
1000
0001
1000
0001
1000
0000
0000
0000
,
0010
0000
0000
0110
0000
0000
0001
1000
,
0200
0000
0000
0000
,
0300
0000
1000
0100
0010
0000
0011
0000
,
0011
0000
0001
0100
0010
0000
1010
0000
,
1010
0000
0100
0001
1000
0001
0100
0000
,
0010
0000
1000
0000
0001
0000
0100
0010
,
0100
0010
0100
0000
0010
0000
1010
0000
,
1010
0000
1000
0100
0010
0000
0011
0000
,
0011
0000
1000
0001
0100
0001
1000
0000
,
0001
0000
0000
0000
1000
0000
0000
0010
0000
0000
0100
0000
0002
0000
0000
0000
,
0000
0000
1003
0000
0000
1000
0100
0000
,
0000
0000
0001
0000
0000
0001
0100
0000
,
0010
0000
0100
0000
0000
0010
0100
0000
,
0000
0000
0000
0000
0001
0000
0000
0000
0000
0000
1000
0000
0001
0000
0000
0010
,
0000
0100
0000
0000
0000
0000
0000
0000
,
0000
0000
0000
0000
;
#NOTES:
     dance-single:
     :
     Hard:
     11:
     :
0000
0000
0000
0000
,
0000
0000
0000
0000
,
0000
0000
0000
0000
,
0000
0000
0000
0000
,
0000
0000
0000
0000
,
1000
0000
0000
1000
0000
0000
1000
0000
0001
0000
0000
0000
0000
0000
0000
0000
,
0010
0000
0000
0010
0000
0000
0010
0000
1000
0000
0000
0100
0000
0000
0010
0000
,
0001
0000
0000
0001
0000
0000
0001
0000
1000
0000
0000
0000
0000
0000
0000
0000
,
0010
0000
0000
0010
0000
0000
0010
0000
1000
0000
0100
0000
0010
0000
0001
0000
,
0200
0000
1000
0301
,
1001
0000
0000
1000
0000
0000
0001
0000
0010
0000
0100
0000
0010
0000
0000
0000
,
0001
0000
0000
0001
0000
0000
0100
0000
0010
0000
1000
0000
0010
0000
0000
0000
,
0100
0000
0000
0100
0000
0000
0001
0000
1000
0000
0010
0000
0100
0000
0000
0000
,
0001
0010
0100
1000
0010
0100
0010
0000
,
1001
0000
0000
0001
0000
0000
0010
0000
0100
0000
1000
0000
0100
0000
0000
0000
,
1000
0000
0000
1000
0000
0000
0001
0000
0100
0000
0010
0000
0100
0000
0000
0000
,
0001
0000
0000
0001
0000
0000
1000
0000
0100
0000
0010
0000
0001
0000
1000
0000
,
0010
0000
0000
0010
0000
0000
0100
0000
1001
0000
0000
0000
0010
0000
0000
0000
,
1000
0100
0010
0100
1000
0100
0010
0100
,
1000
0001
0100
0010
1000
0010
0100
0001
,
1000
0001
0010
0001
1000
0001
0010
0001
,
0100
0010
1000
0100
0010
0100
0010
0100
,
1000
0001
0100
0001
1000
0001
0100
0001
,
1000
0001
0100
0010
1000
0010
0100
0001
,
0010
0100
1000
0100
0010
0100
1000
0100
,
0010
0000
0000
0001
0000
0000
0100
0000
0010
0000
0000
0000
1001
0000
0000
0000
,
0100
0010
0100
0010
,
1000
0000
0001
0000
1000
0100
1000
0000
,
0001
1000
0001
1000
,
0010
0000
0010
0000
0100
0001
0010
0100
,
1000
0001
0100
0010
,
1000
0000
0100
0010
0001
0010
0100
0000
,
0010
0001
1000
0001
,
1000
0010
1000
0010
0100
0001
0100
0001
,
1000
0000
0000
1000
0000
0000
1000
0000
0100
0000
0000
0000
0010
0000
0000
0000
,
0001
0100
0001
1000
0100
0000
1000
0000
,
1010
0101
0011
1100
,
0010
0001
0010
0001
1000
0100
1000
0100
,
0010
0000
0000
0010
0000
0000
0001
0000
1000
0000
0000
0000
0000
0000
0000
0000
,
0001
0000
0100
0001
0000
0000
0100
0000
0010
0000
1000
0000
0001
0000
0000
0000
,
1000
0000
0100
1000
0000
0000
0001
0000
0100
0000
0010
0000
1000
0000
0000
0000
,
0001
0000
0010
0001
0000
0000
0001
0000
1000
0000
0010
1000
0000
0000
1000
0000
,
0001
0000
0000
1000
0000
0000
0001
0000
0010
0000
0100
0000
0010
0000
0100
0000
,
1000
0000
0001
1000
0000
0000
0100
0000
0010
0000
0001
0000
0100
0000
0000
0000
,
0001
0000
1000
0001
0000
0000
0100
0000
0010
0000
1000
0000
0100
0000
0000
0000
,
0010
0000
0100
0010
0000
0000
0010
0000
0001
0000
1000
0001
0000
0000
1000
0000
,
0001
0000
0000
0100
0000
0000
0010
0000
2002
0000
0000
0000
3003
0000
0000
0000
,
0010
0000
0000
1000
0000
0000
0010
0000
1000
0000
0000
0000
0001
0000
0000
0000
,
0010
0000
0000
0001
0000
0000
0010
0000
0001
0000
0000
0001
0000
0000
0001
0000
,
0100
0000
0000
0001
0000
0000
0100
0000
0001
0000
0000
0000
1000
0000
0000
0000
,
0100
0000
0000
1000
0000
0000
0100
0000
1000
0000
0001
0000
0100
0000
0010
0000
,
1000
1000
0001
0100
,
0010
0000
1000
0000
0100
0001
1000
0000
,
0100
0010
0001
1001
,
0001
0100
0010
0100
0001
1000
0100
0010
,
0001
0000
0000
0110
0000
0000
1000
0000
0000
0110
0000
0000
0001
0000
1000
0000
,
2002
0000
0000
0000
,
3003
0000
0000
0000
0010
0000
0010
0001
0000
0000
0100
0000
0010
0000
0010
1000
,
0000
0000
0001
0000
1000
0000
1000
0100
0000
0000
0010
0000
0001
0000
0001
0100
,
0000
0000
0010
0000
1000
0000
1000
0001
0000
0000
0010
0000
0100
0000
0100
1000
,
0000
0000
0001
0000
1000
0000
0000
0010
0000
0000
0100
0000
0001
0000
0010
0000
,
0100
0000
1000
0000
0010
0000
0010
1000
0000
0000
1000
0000
0100
0000
0100
0010
,
0000
0000
0010
0000
0001
0000
0001
0100
0000
0000
0010
0000
1000
0000
1000
0100
,
0000
0000
0100
0000
0010
0000
0010
0001
0000
0000
1000
0000
0010
0000
0010
1000
,
0000
0000
0001
0000
1001
0000
0000
1001
0000
0000
0100
0000
0120
0000
0000
0000
,
0000
0000
0000
0000
1030
0000
0000
1000
0000
0000
0100
0000
0001
0000
0000
0000
,
0000
0000
0000
0000
0010
0000
0000
0010
0000
0000
0010
0000
0001
0000
0000
0100
,
0000
0000
1000
0000
0001
0000
0000
0001
0000
0000
0010
0000
1000
0000
0000
0000
,
0000
0000
0000
0000
0100
0000
0000
0100
0000
0000
0100
0000
1000
0000
0000
0010
,
0000
0001
0000
0000
0000
0000
0000
0000
,
0000
0000
0000
0000
;
#NOTES:
     dance-single:
     :
     Challenge:
     14:
     :
0000
0000
0000
0000
,
0000
0000
0000
0000
,
0000
0000
0000
0000
,
0000
0000
0000
0000
,
0000
0000
0000
0000
,
0002
0000
0000
0003
,
2000
0000
0000
3000
,
0001
0100
1000
0100
,
2002
0000
0000
0000
,
0000
3003
1001
1001
,
1000
0000
0010
0100
0000
0001
0100
0000
0001
0000
0010
0001
0000
0000
1001
0000
,
0001
0000
0010
0100
0000
1000
0100
0000
1000
0000
0010
1000
0000
0000
1001
0000
,
0001
0000
0100
0010
0000
0100
0010
0000
1000
0000
0010
0100
0000
0010
0100
0000
,
0001
0000
1000
0001
0000
0000
1000
0000
2002
0000
0000
0000
3003
0000
0000
0000
,
0001
0000
0100
0010
0000
1000
0010
0000
1000
0000
0100
1000
0000
0000
1001
0000
,
1000
0000
0100
0010
0000
0001
0010
0000
0001
0000
0100
0001
0000
0000
1001
0000
,
1000
0000
0010
0100
0000
0010
0100
0000
0001
0000
0100
0010
0000
0100
0010
0000
,
1000
0000
0001
1000
0000
0000
0001
0000
2002
0000
0000
0000
3003
0000
0000
0000
,
0001
0000
1000
0010
0000
1000
0010
0000
0100
0000
0001
0010
0000
0001
0010
0000
,
0100
0000
1000
0001
0000
1000
0001
0000
0100
0010
0100
0010
0000
0010
0100
0000
,
0001
0000
0010
0001
0000
0010
0001
0000
0100
0000
0010
1000
0000
0010
1000
0000
,
0001
0000
0100
0010
0000
0100
0010
0000
1000
0000
0001
1000
0001
0000
0000
0000
,
1000
0000
0001
0100
0000
0001
0100
0000
0010
0000
1000
0100
0000
1000
0100
0000
,
0010
0000
0001
1000
0000
0001
1000
0000
0010
0100
0010
0100
0000
0100
0010
0000
,
1000
0000
0100
1000
0000
0100
1000
0000
0010
0000
0100
0001
0000
0100
0001
0000
,
1000
0000
0010
0100
0000
0010
0100
0000
0001
1000
0001
1000
0000
0001
1000
0000
,
0000
0000
1000
0000
0010
0000
0001
0000
0010
0000
1000
0010
0000
0000
0010
0000
,
2002
0000
0000
0000
3003
0000
1000
0010
0100
0000
0000
0110
0000
0000
0110
0000
,
0000
0000
0001
0000
0010
0000
1000
0000
0010
0000
0001
0010
0000
0000
0010
0000
,
2002
0000
0000
0000
3003
0000
0001
0010
0100
0000
0000
0110
0000
0000
0110
0000
,
1000
0000
0100
0000
0010
0100
0000
0001
0100
0000
0010
0100
0000
1000
0100
0000
,
2002
0000
0000
0000
3003
0000
0001
1000
0100
0000
0010
0100
0000
0100
0010
0000
,
0001
0000
1000
0100
1000
0000
0010
0100
0010
0000
0100
0001
0010
0000
0001
0000
,
0011
0010
0110
0100
1100
1000
0001
1000
,
0002
0000
0000
0010
0000
0000
0100
0000
1003
0000
1000
0100
1000
0000
1000
0000
,
0001
0000
0100
0001
0010
0000
0100
1000
0010
0000
0100
0010
0000
0000
0010
1000
,
0002
0023
0230
2300
,
3010
0100
0010
0000
1000
0001
1000
0000
0001
0010
0001
0010
0100
1000
0100
0000
,
1000
0000
0000
1000
0000
0000
0001
0000
1001
0000
0000
0000
0000
0000
0000
0000
,
0001
0000
1000
0010
0000
1000
0100
0010
0001
0000
1000
0001
0000
0100
0001
0000
,
1000
0000
0001
0100
0000
0001
0010
0100
1000
0000
0001
1000
0000
0010
0100
0000
,
0001
0000
1000
0001
0000
0010
0100
1000
0100
0000
1000
0001
0000
0100
0010
1000
,
0001
0000
0010
0100
0000
0100
0010
0000
2002
0000
0000
0000
3003
0000
0000
0000
,
1000
0000
0001
0100
0000
0001
0010
0100
1000
0000
0001
1000
0000
0010
1000
0000
,
0001
0000
1000
0010
0000
1000
0100
0010
0001
0000
1000
0001
0000
0100
0010
0000
,
1000
0000
0001
1000
0000
0100
0010
0001
0010
0000
0001
1000
0000
0010
0100
0001
,
1000
0000
0100
0010
0000
0010
0100
0000
2002
0000
0000
0000
3003
0000
0000
0000
,
0000
0000
0001
0000
0001
0000
0010
0000
1000
0000
1000
0010
0000
0000
0001
0000
,
1001
0000
0000
0000
0000
0000
0001
0010
0100
0000
1000
0010
0000
1000
0100
0000
,
0000
0000
1000
0000
1000
0000
0010
0000
0001
0000
0001
0010
0000
0000
1000
0000
,
1001
0000
0000
0000
0000
0000
1000
0100
0010
0000
0001
0100
0000
0001
0010
0000
,
0001
0000
1000
0000
0001
0100
0000
0001
0100
0000
0001
0010
0000
0001
0010
0100
,
1000
0000
0001
0000
1000
0010
0000
1000
0010
0000
1000
0100
0000
1000
0100
0010
,
0001
0000
0100
0001
1000
0000
0100
1000
0001
0000
0010
0100
1000
0000
0010
0000
,
1010
0010
0110
0100
0101
0001
1000
0001
,
0011
0000
0000
0101
0000
0000
1010
0000
0000
1100
0000
0000
0110
0000
0010
0000
,
2002
0000
3003
0000
,
0000
0000
0000
0000
1000
0000
0001
0010
0000
0001
0100
0010
1000
0000
0001
1000
,
0000
0100
0010
0100
1000
0000
0001
0100
0000
0010
1000
0001
1000
0000
0100
0010
,
0000
0000
0110
0000
0001
0000
0010
0100
0000
1000
0100
0001
0100
0000
1000
0010
,
0000
0100
1000
0100
0001
0000
0010
0001
0000
1000
0001
0000
2002
0000
0000
0000
,
3003
0000
0000
0000
0001
0000
1000
0100
0000
1000
0010
0100
0001
0000
1000
0001
,
0000
0010
0100
0010
0001
0000
1000
0010
0000
0100
0001
1000
0001
0000
0010
0100
,
0000
0000
0110
0000
1000
0000
0100
0010
0000
0001
0010
1000
0010
0000
0001
0100
,
0000
0010
0001
0010
1000
0000
0100
1000
0000
0001
1000
0000
2002
0000
0000
0000
,
3003
0000
0000
0000
0001
0000
0000
0001
0000
0000
0010
0000
0011
0000
0000
0000
,
0000
0000
0000
0000
1000
0000
0000
1000
0000
0000
1000
0000
0010
0000
0000
0010
,
0000
0000
0110
0000
0001
0000
0000
0001
0000
0000
1000
0000
1100
0000
0000
0000
,
0000
0000
0000
0000
0100
0000
0000
0100
0000
0000
0010
0000
0010
0000
0000
0100
,
0000
0110
0000
0000
0000
0000
0000
0000
,
0000
0000
0000
0000
;
#NOTES:
     dance-double:
     :
     Easy:
     5:
     :
00000000
00000000
00000000
00000000
,
00000000
00000000
00000000
00000000
,
00000000
00000000
00000000
00000000
,
00000000
00000000
00000000
00000000
,
00000000
00000000
00000000
00000000
,
00002000
00000000
00000000
00003000
,
00020000
00000000
00000000
00030000
,
01000000
00000000
00100000
00000000
,
00010000
00000000
20000000
00000000
,
30000000
00000000
00000000
00000000
,
00010000
00010000
10000000
10000000
,
00100000
00010000
00100000
10000000
,
00020000
00030000
20000000
30000000
,
01000000
00100000
00010000
00000000
,
00001000
00001000
00010000
00010000
,
00001000
00000100
00001000
00010000
,
00002000
00003000
00020000
00030000
,
00001000
00001000
00011000
00000000
,
00000100
00001000
00000001
00001000
,
00000100
00000010
00000001
00000000
,
00000001
00000100
00000001
00000010
,
00000001
00001000
00000100
00000000
,
00010000
00001000
00010000
00100000
,
01000000
00100000
10000000
00000000
,
00100000
01000000
00010000
01000000
,
00001000
00010000
00011000
00000000
,
00000100
00000000
00010000
00000000
,
00000100
00000000
00001000
00000001
,
00000100
00000000
00000001
00000000
,
00001000
00000000
00000100
00010000
,
00001000
00000000
01000000
00000000
,
00001000
00000000
00100000
00010000
,
10000000
00000000
00010000
00000000
,
10000000
01000000
00100000
00010000
,
01000000
00000000
01000000
00000000
,
00100000
00010000
00001000
00000000
,
00010000
00000000
00000100
00000000
,
00000002
00000000
00000000
00000003
,
00001001
00000000
00000000
00000000
,
00000001
00000001
00001000
00001000
,
00000010
00000001
00000010
00001000
,
00000002
00000003
00002000
00003000
,
00000100
00001000
00010000
00000000
,
00001000
00001000
00010000
00010000
,
00001000
00000100
00001000
00000000
,
00020000
00030000
00002000
00003000
,
00010000
00010000
00011000
00000000
,
01000000
00000000
10000000
00000000
,
00100000
00000000
00010000
00001000
,
00010000
00000000
00000100
00000000
,
00000001
00000000
00000010
00000000
,
00001000
00010000
00001000
00010000
,
00001000
00000000
00100000
00010000
,
01000000
00000000
10010000
00000000
,
10000000
01000000
00010000
00001000
,
00010000
00000000
00000010
00000000
,
00000002
00000000
00000000
00000000
,
00000003
00000001
00001000
00000001
,
00001000
00000002
00000003
00000100
,
00001000
00010000
00001000
00010000
,
00001000
00000100
00000000
00011000
,
00000000
00001000
00001000
00010000
,
01000000
00100000
00010000
00010000
,
10000000
00020000
00030000
20000000
,
30000000
10010000
00000000
01100000
,
00000000
00002000
00000000
00000000
,
00000000
00000000
00000000
00000000
,
00000000
00000000
00000000
00000000
,
00000000
00000000
00000000
00000000
,
00000000
00003000
00000000
00000000
00000000
00000000
00000000
00000000
,
00000000
00000000
00000000
00000000
;
#NOTES:
     dance-double:
     :
     Medium:
     8:
     :
00000000
00000000
00000000
00000000
,
00000000
00000000
00000000
00000000
,
00000000
00000000
00000000
00000000
,
00000000
00000000
00000000
00000000
,
00000000
00000000
00000000
00000000
,
00011000
00000000
00000000
01000000
10000000
00000000
00000000
00000000
,
10100000
00000000
00000000
01000000
00010000
00000000
00000000
00000000
,
00011000
00000000
00000000
00000100
00000001
00000000
00000000
00000000
,
00000011
00000000
00000000
00000100
00001000
00000000
00000000
00000000
,
00022000
00000000
00000000
00033000
,
00001000
00010000
01000000
00000000
10000000
00000000
10000000
00000000
,
00100000
00010000
00001000
00000000
00010000
00000000
00010000
00000000
,
00001000
00010000
01000000
00000000
10000000
00000000
10000000
00000000
,
01100000
00010000
00011000
00000000
,
00010000
00001000
00000100
00000000
00000001
00000000
00000001
00000000
,
00000010
00001000
00010000
00000000
00001000
00000000
00001000
00000000
,
00010000
00001000
00000100
00000000
00000001
00000000
00000001
00000000
,
00000110
00001000
00022000
00033000
,
00010000
01000000
00000000
00000000
01000000
10000000
00000000
00000000
,
10000000
00100000
00000000
00000000
00100000
00010000
00001000
00000000
,
00010000
01000000
00000000
00000000
10000000
01000000
00000000
00000000
,
00010000
00000000
00001000
00000000
00010000
00001000
00010000
00000000
,
00001000
00000100
00000000
00000000
00000100
00000001
00000000
00000000
,
00000001
00000010
00000000
00000000
00000010
00001000
00010000
00000000
,
00001000
00000010
00000000
00000000
00000001
00000010
00000000
00000000
,
00000100
00000000
00001000
00000000
00010000
00001000
00011000
00000000
,
00001000
01000000
00100000
10000000
,
01000000
00000000
00100000
00000000
01000000
00010000
00001000
00000000
,
00010000
00000010
00000100
00000001
,
00000010
00000000
00000100
00000000
00010000
00001000
00010000
00001000
,
00010000
00100000
00010000
00001000
,
01000000
00000000
00100000
00000000
10000000
01000000
00100000
00000000
,
00001000
00010000
00001000
00010000
,
00011000
00011000
00001100
00000110
,
00000001
00000010
00000100
00000010
00000001
00000000
00000100
00000000
,
00000100
00000000
00001000
00000000
00010000
00001000
00010000
00000000
,
00011000
00101000
00110000
01100000
,
00020000
01000000
10000000
00130000
,
10000000
00010000
00011000
00000000
,
00010000
00001000
00000100
00000000
00000001
00000000
00001001
00000000
,
00000010
00001000
00010000
00000000
00001000
00000000
00011000
00000000
,
00010000
00001000
00000100
00000000
00000001
00000000
00001001
00000000
,
00000110
00001000
00011000
00000000
,
00001000
00010000
01000000
00000000
10000000
00000000
10010000
00000000
,
00100000
00010000
00001000
00000000
00010000
00000000
00011000
00000000
,
00001000
00010000
01000000
00000000
10000000
00000000
10010000
00000000
,
01100000
00010000
00022000
00033000
,
00000100
00000000
00000000
00000100
00000100
00000000
00000010
00000000
,
00000001
00000000
00000000
00000001
00000001
00000000
00001000
00000000
,
00000100
00000000
00000000
00001000
00001000
00000000
00010000
00000000
,
01000000
00000000
00000000
01000000
01000000
00000000
00100000
00000000
,
00010000
10000000
00010000
01000000
,
00001000
00010000
00001000
00000100
,
00000001
00001000
00000001
00001000
,
00000001
00000100
00001000
00000000
00010000
01000000
10000000
00000000
,
00100000
00000000
00000000
01000000
00000000
00000000
01100000
00000000
,
00020000
00000000
00002000
00000000
,
00033000
00000000
00000010
00000000
00000101
00000000
00001000
00000100
,
00000010
00000000
00000001
00000000
00001100
00000000
00000001
00000100
,
00001000
00000000
00010000
00000000
00011000
00000000
00010000
01000000
,
10000000
00010000
10100000
01010000
,
00000000
00000000
00110000
00000000
01000000
00000000
00100000
01000000
,
00010000
00000000
00001000
00000000
00011000
00000000
00010000
00001000
,
00000010
00000000
00000100
00000000
00001001
00000000
00000001
00000100
,
00001000
00010000
00010010
00022000
,
00033000
00200000
00000000
00300000
,
00000000
02000000
00000000
03000000
,
00000000
00020000
00000000
00030000
,
00000000
00002000
00000000
00013000
,
00011000
00000000
00000000
00000000
,
00000000
00000000
00000000
00000000
;
#NOTES:
     dance-double:
     :
     Hard:
     12:
     :
00000000
00000000
00000000
00000000
,
00000000
00000000
00000000
00000000
,
00000000
00000000
00000000
00000000
,
00000000
00000000
00000000
00000000
,
00000000
00000000
00000000
00000000
,
00000010
00000000
00000000
00001000
00000000
00000000
00010000
00000000
00100000
00000000
00000000
00000000
00000000
00000000
00000000
00000000
,
00100000
00000000
00000000
00010000
00000000
00000000
00001000
00000000
00000010
00000000
00000000
00000001
00000000
00000000
00000001
00000000
,
00000100
00000000
00000000
00001000
00000000
00000000
00010000
00000000
01000000
00000000
00000000
00000000
00000000
00000000
00000000
00000000
,
01000000
00000000
00000000
00010000
00000000
00000000
00001000
00000000
00000100
00000000
00001000
00000000
00010000
00000000
00100000
00000000
,
02000000
00000000
00000000
03000000
,
10010000
00000000
10000000
01000000
00000000
00000000
00100000
00000000
00010000
00000000
00100000
00010000
00000000
00000000
00000000
00000000
,
01000000
00000000
01000000
00001000
00000000
00000000
00010000
00000000
00000100
00000000
00010000
00000100
00000000
00000000
00000000
00000000
,
00001000
00000000
00001000
00000010
00000000
00000000
00000100
00000000
00000001
00000000
00000100
00000001
00000000
00000000
00001000
00000000
,
00000001
00000000
00000000
00000010
00000000
00000000
00001000
00000000
00010000
00000000
00000100
00000000
00010000
00000000
00001000
00000000
,
00100000
00000000
00100000
00010000
00000000
00000000
10000000
00000000
01000000
00000000
10000000
01000000
00000000
00000000
00000000
00000000
,
00100000
00000000
00100000
00001000
00000000
00000000
00010000
00000000
00000010
00000000
00010000
00000010
00000000
00000000
00000000
00000000
,
00001000
00000000
00001000
00000100
00000000
00000000
00000010
00000000
00000001
00000000
00000010
00000001
00000000
00000000
00000001
00000000
,
00000100
00000000
00000000
00001000
00000000
00000000
00010000
00000000
00022000
00000000
00000000
00000000
00033000
00000000
00000000
00000000
,
00001000
00010000
01000000
00100000
00001000
00010000
01000000
00100000
,
00001000
00010000
01000000
10000000
00100000
01000000
00001000
00010000
,
00001000
00000010
00000100
00010000
00001000
00000010
00000100
00010000
,
00001000
00000010
00000001
00000100
00001000
00000100
00000001
00000010
,
00000100
00010000
00001000
00000010
00000100
00010000
00001000
00000010
,
00000100
00010000
00001000
00000010
00000100
00010000
00001000
01000000
,
00010000
00100000
00001000
01000000
00010000
00100000
00001000
01000000
,
00010000
00000000
00000000
00100000
00000000
00000000
01000000
00000000
10000000
00000000
01000000
00000000
00010000
00000000
00001000
00000000
,
00000100
00000000
00000100
00000000
00000010
00000000
00000100
00000001
,
00001000
00000000
00000000
00000000
00000001
00000000
00000100
00000000
00000010
00000000
00001000
00000100
00000000
00010000
00001000
00000000
,
00010000
00000000
01000000
00000000
10000000
00000000
00010000
01000000
,
00100000
00000000
10000000
01000000
00100000
00001000
00010000
00001000
,
00010000
00000000
00000010
00000000
00001000
00000001
00000010
00000000
,
00000100
00000000
00000000
00000000
00000010
00000000
00000001
00000000
00001000
00000000
00000010
00001000
00000000
00000100
00010000
00000000
,
00001000
00010000
00001000
00010000
,
01000000
10000000
00010000
01000000
00001000
00010000
00000100
00001000
,
00000001
00000000
00000000
00000010
00000000
00000000
00001000
00000000
00010000
00000000
00000000
00000000
00001000
00000000
00010000
00000000
,
00001000
01000000
00010000
10000000
01000000
00100000
00010000
00000000
,
01020000
10000000
00100000
00001000
,
00130000
00010000
10000000
00010000
01000000
00010000
00001000
00000010
,
00000100
00000000
00000000
00000001
00000000
00000000
00001000
00000000
00001001
00000000
00000000
00000000
00000000
00000000
00000000
00000000
,
00000010
00000000
00000100
00000001
00000000
00000000
00001000
00000000
00000100
00000000
00010000
00001000
00000000
00000000
00000000
00000000
,
00100000
00000000
00001000
00010000
00000000
00000000
01000000
00000000
10000000
00000000
00010000
01000000
00000000
00000000
00000000
00000000
,
00100000
00000000
10000000
01000000
00000000
00000000
00010000
00000000
00001000
00000000
00100000
00001000
00000000
00000000
00010000
00000000
,
00001000
00000000
00000000
00000010
00000000
00000000
00000001
00000000
00001000
00000000
00000100
00000000
00000010
00000000
00000001
00000000
,
00001000
00000000
00000010
00000100
00000000
00000000
00001000
00000000
00100000
00000000
00010000
01000000
00000000
00000000
00000000
00000000
,
00100000
00000000
10000000
01000000
00000000
00000000
00010000
00000000
00001000
00000000
00100000
01000000
00000000
00000000
00000000
00000000
,
00010000
00000000
00000100
00001000
00000000
00000000
00000001
00000000
00000010
00000000
00001000
00010000
00000000
00000000
00001000
00000000
,
00000100
00000000
00000000
00000010
00000000
00000000
00000100
00000000
00002002
00000000
00000000
00000000
00003003
00000000
00000000
00000000
,
00000020
00000000
00000000
00000100
00000000
00000000
00001030
00000000
00010000
00000000
00000000
00000000
00100000
00000000
00000000
00000000
,
00200000
00000000
00000000
01000000
00000000
00000000
00310000
00000000
00001000
00000000
00000000
00010000
00000000
00000000
01000000
00000000
,
00200000
00000000
00000000
01000000
00000000
00000000
00310000
00000000
00001000
00000000
00000000
00000000
00000010
00000000
00000000
00000000
,
00000020
00000000
00000000
00000100
00000000
00000000
00001030
00000000
00010000
00000000
00001000
00000000
00100000
00000000
00010000
00000000
,
01000000
10000000
00100000
00010000
,
01000000
00000000
10000000
00000000
00100000
00010000
00001000
00000000
,
00000100
00000001
00000010
00001000
,
00000100
00000001
00001000
00000100
00010000
01000000
10000000
00010000
,
01000000
00000000
00000000
01100000
00000000
00000000
00010000
00000000
00000000
00011000
00000000
00000000
00000100
00000000
00000010
00000000
,
00000220
00000000
00000000
00000000
,
00000000
00000330
00000000
00000000
00000000
00000000
00000000
00000000
00000000
00000000
00000000
00000000
00000000
00000000
00000000
00000000
00000010
00000000
00000000
00000000
00000000
00000000
00000000
00000000
00000001
00000000
00000000
00000000
00001000
00000000
00000000
00000000
00000000
00000000
00000000
00000000
00000000
00000000
00000000
00000000
00000010
00000000
00000000
00000000
00000000
00000000
00000000
00000000
00000100
00000000
00000000
00000000
00000000
00000000
00000000
00000000
00001000
00000000
00000000
00000000
00010000
00000000
00000000
00000000
,
00000000
00000000
01000000
00000000
10000000
00000000
00010000
01000000
00000000
00000000
00100000
00000000
00010000
00000000
00001000
00010000
,
00000000
00000000
00000010
00000000
00001000
00000000
00000001
00000010
00000000
00000000
00001000
00000000
00010000
00000000
01000000
00100000
,
00000000
00000000
00010000
00000000
10000000
00000000
00000000
00100000
00000000
00000000
00010000
00000000
00001000
00000000
00010000
00000000
,
00100000
00000000
10000000
00000000
01000000
00000000
00100000
00001000
00000000
00000000
00010000
00000000
00000100
00000000
00001000
00000010
,
00000000
00000000
00000100
00000000
00000001
00000000
00000010
00001000
00000000
00000000
00000001
00000000
00000100
00000000
00001000
00000010
,
00000000
00000000
00010000
00000000
00001000
00000000
00010000
00100000
00000000
00000000
10000000
00000000
00010000
00000000
01000000
00100000
,
00000000
00000000
10000000
00000000
01000000
00000000
00000000
00010000
00000000
00000000
00001000
00000000
00022000
00000000
00000000
00000000
,
00033000
00000000
00000000
00000000
01000000
00000000
00000000
00010000
00000000
00000000
00001000
00000000
00000010
00000000
00000000
00000000
,
00000000
00000000
00000000
00000000
00000100
00000000
00000000
00001000
00000000
00000000
00010000
00000000
00100000
00000000
00000000
10000000
,
00000000
00000000
01000000
00000000
00100000
00000000
00000000
00010000
00000000
00000000
00001000
00000000
00000100
00000000
00000000
00000000
,
00000000
00000000
00000000
00000000
00000001
00000000
00000000
00000010
00000000
00000000
00001000
00000000
00010000
00000000
00000000
01000000
,
00000000
10010000
00000000
00000000
00000000
00000000
00000000
00000000
,
00000000
00000000
00000000
00000000
;
#NOTES:
     dance-double:
     :
     Challenge:
     14:
     :
00000000
00000000
00000000
00000000
,
00000000
00000000
00000000
00000000
,
00000000
00000000
00000000
00000000
,
00000000
00000000
00000000
00000000
,
00000000
00000000
00000000
00000000
,
10000000
00000000
00010000
00100000
00000000
00000000
00010000
00000000
01000000
00000000
00010000
10000000
00000000
00000000
01000000
00000000
,
00010000
00000000
00001000
00000010
00000000
00000000
00000001
00000000
00000100
00000000
00000001
00000010
00000000
00000000
00000100
00000000
,
00001000
00000000
00000010
00000100
00000000
00000000
00001000
00000000
00010000
00000000
00100000
00010000
00000000
00000000
00001000
00000000
,
00010000
00000000
00000000
00010000
00000000
00000000
00001000
00000000
00022000
00000000
00000000
00000000
00000000
00000000
00000000
00000000
,
00000000
00033000
00011000
00011000
,
00001000
00000000
00010000
00001000
00000000
01000000
00010000
00000000
00100000
00000000
01000000
00100000
00000000
00000000
10010000
00000000
,
10000000
00000000
01000000
00100000
00000000
00010000
00100000
00000000
01000000
00000000
00010000
00001000
00000000
00000000
00011000
00000000
,
00010000
00000000
00000010
00001000
00000000
00000100
00000010
00000000
00000001
00000000
00000100
00000010
00000000
00001000
00000100
00000000
,
00000010
00000000
00000001
00001000
00000000
00000000
00000001
00000000
00002002
00000000
00000000
00000000
00003003
00000000
00000000
00000000
,
00000001
00000000
00000010
00000100
00000000
00001000
00000001
00000000
00000100
00000000
00001000
00010000
00000000
00000000
00011000
00000000
,
00001000
00000000
01000000
00010000
00000000
00100000
01000000
00000000
00100000
00000000
00010000
10000000
00000000
00000000
10010000
00000000
,
10000000
00000000
00100000
01000000
00000000
00100000
01000000
00000000
00010000
00000000
00100000
01000000
00000000
00100000
01000000
00000000
,
00010000
00000000
00001000
00010000
00000000
00000000
00001000
00000000
00022000
00000000
00000000
00000000
00033000
00000000
00000000
00000000
,
00010000
00000000
00000100
00001000
00000000
00000100
00001000
00000000
00000010
00000000
00000100
00000001
00000000
00000100
00000001
00000000
,
00000010
00000000
00000100
00000010
00000000
00000100
00000010
00000000
00000001
00000100
00000010
00001000
00000000
00000000
00000010
00000000
,
00010000
00000000
00001000
00100000
00000000
00001000
00100000
00000000
00010000
00000000
01000000
00100000
00000000
01000000
00100000
00000000
,
10000000
00000000
00010000
00100000
00000000
00010000
00100000
00000000
01000000
00000000
10000000
00010000
10000000
00000000
00000000
00000000
,
00010000
00000000
01000000
00010000
00000000
01000000
00010000
00000000
00100000
00000000
01000000
10000000
00000000
01000000
10000000
00000000
,
00100000
00000000
01000000
00100000
00000000
01000000
00100000
00000000
10000000
01000000
00100000
00010000
00000000
00000000
00100000
00000000
,
00001000
00000000
00010000
00000010
00000000
00010000
00000010
00000000
00001000
00000000
00000100
00000010
00000000
00000100
00000010
00000000
,
00000001
00000000
00001000
00000010
00000000
00001000
00000010
00000000
00000100
00000000
00000001
00001000
00000001
00000000
00000000
00000000
,
00000000
00000000
00000001
00000000
00000001
00000000
00000100
00000000
00001000
00000000
00010000
00100000
00000000
00000000
10000000
00000000
,
20020000
00000000
00000000
00000000
30030000
00000000
00100000
10000000
01000000
00000000
00000000
01100000
00000000
00000000
01100000
00000000
,
00000000
00000000
10000000
00000000
10000000
00000000
01000000
00000000
00010000
00000000
00001000
00000010
00000000
00000000
00000001
00000000
,
00002002
00000000
00000000
00000000
00003003
00000000
00000010
00000001
00000100
00000000
00000000
00000110
00000000
00000000
00000110
00000000
,
00000001
00000000
00000100
00000000
00000010
00000100
00000000
00001000
00000100
00000000
00000010
00000100
00000000
00000001
00000010
00000000
,
00000100
00000000
00010000
00000000
00001000
00010000
00000000
01000000
00010000
00000000
01000000
10000000
00000000
00010000
10000000
00000000
,
00100000
10000000
10000000
00010000
00010000
00100000
00001000
00010000
,
00001000
00000010
00000001
00001000
00000100
00000001
00001000
00000010
,
00000002
00000000
00000000
00000010
00000000
00000000
00000010
00000000
00000103
00000000
00000010
00000100
00000010
00000000
00000010
00000000
,
00001010
00000000
00001000
00000000
00001100
00000000
00000100
00000000
00010100
00000000
00010000
00001000
00000000
00000000
00001000
00010000
,
00002000
00023000
02030000
23000000
,
30020000
00000000
00000000
00000000
00000000
00000000
00000000
00000000
00000000
00000000
00000000
00000000
00030000
00000000
10000000
01000000
,
00010000
00000000
00001000
00000010
00000000
00000001
00001000
00000000
00001001
00000000
00000000
00000000
00000000
00000000
00000000
00000000
,
00000001
00000000
00001000
00000100
00000000
00000010
00000100
00001000
00000100
00000000
00010000
00001000
00000000
00010000
00000010
00000000
,
00010000
00000000
00000100
00001000
00000000
00000010
00000100
00001000
00010000
00000000
00100000
01000000
00000000
00100000
10000000
00000000
,
00010000
00000000
10000000
01000000
00000000
00010000
01000000
00000000
10000000
00000000
00100000
00010000
00000000
00001000
00010000
00000000
,
01000000
00000000
00100000
00010000
00000000
00010000
10000000
00000000
20020000
00000000
00000000
00000000
30030000
00000000
00000000
00000000
,
10000000
00000000
00010000
01000000
00000000
00100000
01000000
00010000
01000000
00000000
00001000
00010000
00000000
00001000
00100000
00000000
,
00001000
00000000
01000000
00010000
00000000
00100000
01000000
00010000
00001000
00000000
00000010
00000100
00000000
00000010
00000001
00000000
,
00001000
00000000
00000001
00000100
00000000
00001000
00000100
00000000
00000001
00000000
00000010
00001000
00000000
00010000
00001000
00000000
,
00000100
00000000
00000010
00001000
00000000
00001000
00000001
00000000
00002002
00000000
00000000
00000000
00003003
00000000
00000000
00000000
,
00001000
00000000
00000001
00000010
00000001
00000000
00000100
00000000
00001000
00000000
00001000
00010000
00000000
00000000
00001000
00000000
,
00011000
00000000
00000000
00000000
00000000
00000000
00001000
00010000
00100000
00000000
10000000
01000000
00000000
10000000
00100000
00000000
,
00000000
00000000
10000000
00100000
10000000
00000000
01000000
00000000
00010000
00000000
00010000
00001000
00000000
00000000
00010000
00000000
,
00011000
00000000
00000000
00000000
00000000
00000000
00010000
00001000
00000010
00000000
00000001
00000100
00000000
00000001
00000010
00000000
,
00000001
00000000
00001000
00000000
00000010
00000100
00000000
00000001
00001000
00000000
00000010
00000100
00000000
00000001
00001000
00000000
,
00000010
00000000
00010000
00000000
00000100
00001000
00000000
00000010
00010000
00000000
00000100
00001000
00000000
00000010
00010000
00000000
,
00001000
00000000
01000000
00010000
00100000
00000000
01000000
10000000
00100000
00000000
01000000
00010000
00100000
00000000
01000000
00000000
,
11000000
10000000
10010000
00010000
00110000
00100000
00001000
00010000
,
00011000
00000000
00000000
00000010
00000000
00000000
00011000
00000000
00000000
00100000
00000000
00000000
00011000
00000000
00001000
00000000
,
00022000
00000000
00033000
00000000
,
00000000
00000000
00000000
00000000
00010000
00000000
00001000
00000010
00000000
00000001
00001000
00000100
00001000
00000000
00000010
00000100
,
00000000
00001000
00010000
00001000
00010000
00000000
00001000
00100000
00000000
00010000
00100000
01000000
10000000
00000000
00100000
01000000
,
00000000
00000000
01100000
00000000
10000000
00000000
00100000
01000000
00000000
00100000
00010000
00001000
00010000
00000000
00001000
00000010
,
00000000
00000100
00000010
00000001
00001000
00000000
00000001
00000100
00000000
00000100
00000010
00000000
00002002
00000000
00000000
00000000
,
00003003
00000000
00000000
00000000
00000001
00000000
00000010
00000100
00000000
00001000
00000010
00000100
00000001
00000000
00000100
00001000
,
00000000
00010000
00001000
00010000
00000100
00000000
00010000
00001000
00000000
01000000
00010000
00100000
00010000
00000000
01000000
00100000
,
00000000
00000000
01100000
00000000
10000000
00000000
00100000
10000000
00000000
01000000
00100000
00001000
00010000
00000000
00001000
00000010
,
00000000
00000100
00001000
00000010
00000100
00000000
00001000
00000100
00000000
00000100
00000001
00000000
00002002
00000000
00000000
00000000
,
00003003
00000000
00000000
00000000
00000001
00000000
00000000
00000001
00000000
00000000
00000010
00000000
00000011
00000000
00000000
00000000
,
00000000
00000000
00000000
00000000
00000001
00000000
00000000
00000001
00000000
00000000
00000100
00000000
00000100
00000000
00000000
00000100
,
00000000
00000000
00001000
00000000
00010000
00000000
00000000
00010000
00000000
00000000
00001000
00000000
00011000
00000000
00000000
00000000
,
00000000
00000000
00000000
00000000
00010000
00000000
00000000
00010000
00000000
00000000
00100000
00000000
00100000
00000000
00000000
10000000
,
00000000
10010000
00000000
00000000
00000000
00000000
00000000
00000000
,
00000000
00000000
00000000
00000000
;
