
//----- song id: fiel
#TITLE:Field on!;
#ARTIST:サザン☆クロス 【鹿児島】;
#ARTISTTRANSLIT:Southern☆Cross [Kagoshima];
#BANNER:Field on!.png;
#BACKGROUND:Field on!-bg.png;
#CDTITLE:./CDTitles/DDR (2014).png;
#MUSIC:Field on!.ogg;
#SAMPLESTART:60.159;
#SAMPLELENGTH:15;
#BPMS:0=170;
#NOTES:
     dance-single:
     :
     Beginner:
     2:
     :
0000
0000
0000
0000
,
0000
0000
0000
0000
,
0000
0000
0000
0000
,
0000
0000
0000
0000
,
0000
0000
0000
0000
,
0001
0000
0001
0000
,
0001
0000
0000
0000
,
1000
0000
1000
0000
,
1000
0000
0000
0000
,
0010
0000
0000
0000
,
0010
0000
0000
0000
,
0100
0000
0100
0000
,
0100
0000
0000
0000
,
0001
0000
0000
0000
,
1000
0000
0000
0000
,
0001
0000
0000
0000
,
1001
0000
0000
0000
,
0001
0000
0000
0000
,
0010
0000
0000
0000
,
0100
0000
0000
0000
,
1000
0000
0000
0000
,
0001
0000
0000
0000
,
0001
0000
0000
0000
,
0100
0000
0000
0000
,
0100
0000
0000
0000
,
0010
0000
0000
0000
,
1000
0000
0000
0000
,
0010
0000
0000
0000
,
1000
0000
0000
0000
,
0001
0000
0000
0000
,
0100
0000
0000
0000
,
0001
0000
0000
0000
,
0010
0000
0000
0000
,
0001
0000
0001
0000
,
0001
0000
0000
0000
,
0100
0000
0100
0000
,
0100
0000
0000
0000
,
0010
0000
0000
0000
,
1000
0000
0000
0000
,
0001
0000
0000
0000
,
0100
0000
0000
0000
,
0010
0000
0000
0000
,
1001
0000
0000
0000
,
0001
0000
1000
0000
,
0001
0000
0000
0000
,
1000
0000
0001
0000
,
1000
0000
0000
0000
,
0010
0000
0010
0000
,
0010
0000
0000
0000
,
0100
0000
0100
0000
,
0100
0000
0000
0000
,
0001
0000
1000
0000
,
0001
0000
0000
0000
,
1000
0000
0001
0000
,
1000
0000
0000
0000
,
0010
0000
0100
0000
,
0010
0000
0000
0000
,
0100
0000
0010
0000
,
0100
0000
0000
0000
,
0001
0000
0000
0000
,
1000
0000
0000
0000
,
0010
0000
0000
0000
,
0100
0000
0000
0000
,
0001
0000
0000
0000
,
1000
0000
0000
0000
,
0001
0000
1000
0000
,
0001
0000
0000
0000
,
1001
0000
0000
0000
,
0000
0000
0000
0000
;
#NOTES:
     dance-single:
     :
     Easy:
     5:
     :
0000
0000
0000
0000
,
0000
0000
0000
0000
,
0000
0000
0000
0000
,
0000
0000
0000
0000
,
0000
0000
0000
1000
,
0001
0000
0100
0000
,
0010
0000
1000
0100
,
0010
0000
0001
0000
,
1000
0000
0010
0100
,
0001
0000
1000
0000
,
0001
0010
0001
0000
,
1000
0100
0010
0001
,
1000
0010
0100
0000
,
0001
0000
1000
0000
,
0010
0100
0010
0000
,
0100
0000
0001
0000
,
1000
1000
1000
0000
,
0010
0000
0100
0000
,
0001
0000
0010
0001
,
1000
0000
0010
0000
,
0100
0010
0100
0000
,
0001
0000
0001
0000
,
1000
0000
1000
0000
,
0010
0000
0010
0000
,
1000
0010
0100
0001
,
1000
0000
0010
0000
,
0100
0001
0100
0000
,
0010
0000
0100
0000
,
0001
1000
0001
0000
,
0100
0000
0010
0000
,
1000
0000
0001
0000
,
0100
0000
0100
0000
,
0001
1000
0001
1000
,
0010
0000
0100
0000
,
0001
0000
0001
0000
,
1000
0010
0100
0100
,
0001
1000
0010
0000
,
0100
0000
0001
0000
,
1000
0000
0010
0000
,
0100
0000
0100
0000
,
0010
0000
0010
0000
,
1000
0001
0010
0100
,
1000
0000
0000
0001
,
1000
0000
0010
0000
,
0100
0100
0010
0000
,
1000
0000
0100
0000
,
0010
0010
0001
0000
,
0100
0000
0010
0000
,
1000
1000
0001
0000
,
0100
0010
0100
0010
,
1000
0001
1000
0001
,
0100
0000
0110
0000
,
0100
0100
0001
0000
,
0001
0000
1001
0000
,
1000
1000
0010
0000
,
0100
0000
0110
0000
,
0010
0010
1000
0000
,
0001
0010
0100
1000
,
0010
0100
0001
0000
,
2000
3000
0100
0000
,
0020
0030
0001
0000
,
0002
0003
0100
0000
,
0020
0030
1000
0000
,
0100
0100
0010
0010
,
0001
1000
0000
0000
,
0010
0000
0100
0000
,
2002
0000
3003
0000
,
0001
1000
0100
0020
,
0000
0000
0000
0000
,
0030
0000
0000
0000
,
0000
0000
0000
0000
;
#NOTES:
     dance-single:
     :
     Medium:
     9:
     :
0000
0000
0000
0000
,
0000
0000
0000
0000
,
0000
0000
0000
0000
,
0000
0000
0000
0000
,
0000
0000
0000
2000
,
3001
0001
0100
0010
,
1000
0000
0001
0000
0010
0100
0010
0000
,
0001
1000
0010
0100
,
0001
0000
0001
0000
0100
0010
1000
0000
,
0100
0000
0010
0000
0001
0000
0001
0100
,
0010
0000
1000
0000
0100
0010
0001
0000
,
0010
0000
0100
0000
1000
0010
1000
0000
,
0001
0010
0100
1000
0000
1000
0010
0000
,
0110
0000
0001
0000
0100
0010
1000
0000
,
0001
0000
0001
0000
1000
0100
0010
0000
,
0001
0000
0100
0000
0010
1000
0100
0000
,
0010
0010
0010
1001
,
0000
0010
0100
0001
,
1000
0100
0010
0001
,
0100
1000
0100
0010
,
1000
0000
0001
0000
0100
0000
0100
0010
,
1000
0001
0100
0010
,
0100
0100
0001
1000
,
0010
0000
0110
0000
1000
0000
0001
0010
,
0000
0100
0000
1000
0000
0010
0100
0001
,
1000
0010
0010
0100
,
0001
0000
1000
0000
0010
0100
0001
0000
,
0010
0000
0100
0000
1000
0000
0100
0020
,
0001
0000
0000
0000
0130
0000
0100
1000
,
0001
0100
0010
0100
,
0001
0000
0000
0000
1000
0000
0000
0000
0001
0000
0000
0010
0000
0000
0100
0000
,
2000
0000
0000
3001
0200
0000
0000
0000
,
0310
1000
0001
1001
,
1000
0100
0010
0001
,
0100
0000
0010
1000
0000
0001
0100
0000
,
1000
1100
0001
0011
,
0100
0000
0101
0000
0001
0000
1000
0010
,
0100
0000
0110
0000
0100
0000
0001
1000
,
0010
0100
0010
0010
,
1000
0100
0010
0001
,
0100
0000
0010
0100
0001
0000
0010
0100
,
1000
0000
0000
0100
0000
0000
0010
0000
,
0011
0000
1000
0001
0000
0001
0010
0100
,
2000
3001
0100
0010
,
1000
0000
0001
0000
1000
0010
0100
0000
,
0001
0100
0001
0010
,
0001
0000
1000
0000
0100
0010
0100
0000
,
2000
0000
3001
0000
0010
0100
1000
0000
,
0010
0100
0001
1000
,
0001
0100
0010
1000
0000
0100
0000
0010
,
0000
0001
0010
0100
0000
1000
0010
0000
,
0200
0000
0301
0000
0010
0100
0010
0000
,
0001
1000
0010
0010
,
1000
0000
0001
0000
0100
0010
0100
0000
,
0001
0010
0100
1000
,
0200
0310
0001
1000
,
0010
0100
0001
0001
,
1000
0000
0010
0100
0000
0001
0000
0010
,
0000
0100
1000
0100
0010
0000
1001
0000
,
0100
0010
1000
0001
,
0010
0000
0100
1000
0100
0000
0010
0000
,
0011
0001
1000
0010
,
0110
0000
0010
0100
0010
0000
0100
0000
,
0001
1000
1000
0001
,
0100
0010
0100
0000
0000
0000
0000
0000
,
1002
0000
0000
0023
0000
0000
0130
0000
,
2002
0000
0000
3003
,
0010
0000
1000
0000
0100
0010
0001
0200
,
0000
0000
0000
0000
,
0300
0000
0000
0000
,
0000
0000
0000
0000
;
#NOTES:
     dance-single:
     :
     Hard:
     11:
     :
0000
0000
0000
0000
,
0000
0000
0000
0000
,
0000
0000
0000
0000
,
0000
0000
0000
0000
,
0000
0000
0000
2000
,
3002
0000
0010
0000
1003
0010
0100
0001
,
0020
0000
0030
0100
0000
0010
0001
1000
,
0200
0000
0001
0000
1300
0001
0010
0100
,
2000
0000
3000
0010
0000
0100
0001
0100
,
0020
0000
1030
0000
0100
0010
0001
0010
,
0100
0000
0100
2000
0001
0000
3001
0000
,
1000
0010
0100
0001
0010
0100
1000
0010
,
1000
0100
0010
0001
0000
0100
0001
0010
,
0200
0000
1300
0000
1000
0100
0010
0100
,
1000
0000
0001
1000
0010
0100
0001
0000
,
0100
0000
0100
0001
0010
0100
0010
0000
,
0210
0010
0310
1001
,
0000
0010
0100
0001
,
1000
0000
0100
0000
0100
0010
0001
0010
,
0100
1000
0010
0100
,
0001
0000
0001
0000
0100
0000
0100
0010
,
2000
3100
0020
0031
,
0002
0013
0200
1300
,
1000
0000
1010
0000
1000
0100
1000
0001
,
0010
0100
0000
1000
0000
0010
0100
0001
,
1000
1100
0001
0101
,
0100
0000
0100
0010
1000
0100
0010
0000
,
0002
0000
0103
0010
1000
0000
0100
0020
,
0001
0000
0001
0000
0100
0030
0100
1000
,
0001
0000
1000
0010
0100
0000
0001
0000
,
0011
0000
0000
0000
1000
0000
0000
0000
0001
0000
0000
0010
0000
0000
0100
0000
,
1000
0000
1000
0001
0102
0000
0100
0000
,
1003
0100
1000
0010
1000
0100
0010
0000
,
1000
0000
0010
0000
0001
0100
0010
0000
,
0100
0000
0010
1000
0001
0010
0100
0000
,
1000
0100
0002
0000
0103
1000
0002
0000
,
0013
0100
2000
0000
3001
0010
1000
0010
,
0001
0000
1100
0000
0100
0010
0100
1000
,
0001
0000
0001
0100
0010
0000
1010
0000
,
2100
0100
0010
0010
,
0001
0000
3001
0100
0010
0000
1000
0010
,
0100
0001
1000
0100
0010
0001
0100
0010
,
1010
0000
1000
0001
0000
0001
0010
0100
,
1000
0000
0101
0000
0100
0010
1000
0000
,
0100
0000
0100
0000
1000
0010
0100
0001
,
0010
0000
0100
0000
1000
0010
1000
0000
,
0001
0000
0001
0000
0010
0001
1000
0010
,
0100
0000
0101
0000
1000
0001
0100
0010
,
1000
0000
0100
0000
1000
0100
0010
0001
,
0100
0010
0100
0001
0000
0001
1000
0010
,
0100
0001
0010
0100
0000
1000
0010
0100
,
0001
0000
1100
0000
0010
0100
0010
0000
,
1000
0000
0100
0000
0010
0001
0100
0010
,
1000
0000
0001
0000
0100
0010
1000
0001
,
0010
0000
0100
0000
1000
0100
0010
0001
,
1000
0000
0011
0000
0001
0100
0010
1000
,
0100
0000
0010
0000
0001
0100
0010
0000
,
1000
0100
0010
0001
0000
0100
0010
1000
,
0001
0010
0100
0010
0001
0000
1001
0000
,
2000
0010
3002
0010
,
0203
0000
0010
0000
0302
0000
0013
0001
,
2000
0000
3100
0010
0002
0000
0103
0000
,
0020
0000
1030
0001
0200
0000
0310
0000
,
1000
1100
1100
1010
,
0001
0100
0010
0000
0000
0000
0000
0000
,
0012
0000
0000
0203
0000
0000
0310
0000
,
2002
0000
0003
3001
,
0001
0010
0100
1000
0010
0100
0001
0020
,
0000
0000
0000
0000
,
0030
0000
0000
0000
,
0000
0000
0000
0000
;
#NOTES:
     dance-double:
     :
     Easy:
     5:
     :
00000000
00000000
00000000
00000000
,
00000000
00000000
00000000
00000000
,
00000000
00000000
00000000
00000000
,
00000000
00000000
00000000
00000000
,
00000000
00000000
00000000
10000000
,
00010000
00000000
01000000
00000000
,
00100000
00000000
00100000
01000000
,
00010000
00000000
00100000
00000000
,
00001000
00000000
00001000
00010000
,
00000100
00000000
00000100
00000000
,
00000010
00000000
00000010
00000000
,
00000001
00001000
00000100
00000010
,
00000001
00000100
00000010
00000000
,
00001000
00000000
00000100
00000000
,
00010000
00001000
00010000
00000000
,
00001000
00000000
00100000
00000000
,
00010000
00100000
01000000
00000000
,
10000000
00000000
00100000
00000000
,
01000000
00000000
01000000
00100000
,
01000000
00000000
00010000
00000000
,
00010000
00100000
00010000
00000000
,
00100000
00000000
00001000
00000000
,
00010000
00000000
00010000
00000000
,
00000100
00000000
00001000
00000000
,
00000010
00001000
00000100
00000010
,
00000001
00000000
00000100
00000000
,
00000010
00001000
00000010
00000000
,
00001000
00000000
00000100
00000000
,
00010000
00001000
00010000
00000000
,
00001000
00000000
00100000
00000000
,
00010000
00000000
01000000
00000000
,
00100000
00000000
10000000
00000000
,
00010000
10000000
00010000
10000000
,
00100000
00000000
00010000
00000000
,
00001000
00000000
00010000
00000000
,
00001000
00010000
00000100
00001000
,
00000010
00000100
00001000
00000100
,
00000010
00000000
00000100
00000000
,
00001000
00000000
00010000
00000000
,
00000100
00000000
00000100
00000000
,
00001000
00000000
00001000
00000000
,
00000001
00001000
00000100
00000010
,
00000001
00000000
00000000
00000001
,
00000100
00000000
00000010
00000000
,
00001000
00000100
00001000
00000000
,
00000100
00000000
00010000
00000000
,
00001000
00010000
00001000
00000000
,
00100000
00000000
00010000
00000000
,
10000000
00010000
10000000
00000000
,
01000000
00100000
01000000
00100000
,
00010000
01000000
00010000
00100000
,
00001000
00000000
00011000
00000000
,
00001000
00010000
00000100
00000000
,
00001000
00000000
00001100
00000000
,
00000100
00000010
00000001
00000000
,
00000100
00000000
00000110
00000000
,
00000010
00001000
00000100
00000000
,
00000100
00010000
00001000
00000100
,
00001000
00010000
00000100
00000000
,
00010000
00000000
00010000
00000000
,
00001000
00000000
00001000
00000000
,
00100000
00000000
00100000
00000000
,
00010000
00000000
00010000
00000000
,
10000000
00100000
00100000
01000000
,
00010000
00100000
00000000
00000000
,
00010000
00000000
00000000
00100000
00000000
00000000
00001000
00000000
,
00022000
00000000
00000000
00033000
,
00001000
00000000
00000100
00000000
00000010
00000000
00001000
00000002
,
00000000
00000000
00000000
00000000
,
00000003
00000000
00000000
00000000
,
00000000
00000000
00000000
00000000
;
#NOTES:
     dance-double:
     :
     Medium:
     9:
     :
00000000
00000000
00000000
00000000
,
00000000
00000000
00000000
00000000
,
00000000
00000000
00000000
00000000
,
00000000
00000000
00000000
00000000
,
00000000
00000000
00000000
20000000
,
30010000
00100000
01000000
10000000
,
00100000
00000000
01000000
00000000
00010000
00000000
00100000
00001000
,
00010000
00100000
00010000
00001000
,
00100000
00000000
00001000
00000000
00010000
00000000
00000100
00001000
,
00000100
00000000
00000010
00000000
00000001
00000000
00000010
00000001
,
00000100
00000000
00001000
00000100
00001000
00000000
00010000
00000000
,
00001000
00000000
00100000
00000000
00010000
01000000
00100000
00000000
,
00100000
00000000
10000000
00100000
00000000
00100000
01000000
00000000
,
00020000
00000000
01030000
00000000
01000000
00010000
00100000
00000000
,
00001000
00000000
00010000
00000000
00100000
00010000
00001000
00000000
,
00010000
00000000
00000100
00000000
00001000
00000100
00010000
00000000
,
00001000
00000100
00000010
00001010
,
00000000
00001000
00001000
00000010
,
00000100
00000000
00000001
00000000
00000010
00000100
00000010
00000000
,
00000001
00000100
00000010
00000010
,
00001000
00000000
00000100
00000000
00010000
00001000
00010000
00000000
,
00002000
00000000
00000000
00103000
00000000
00000000
00010000
00000000
,
00020000
00000000
00000000
01030000
00000000
00000000
01000000
00000000
,
00100000
00000000
10100000
00000000
10000000
00000000
00100000
01000000
,
00000000
00010000
00000000
00100000
00000000
00001000
00010000
00100000
,
00010000
00001000
00010000
00000100
,
00010000
00000000
00010000
00000100
00000000
00001000
00000010
00000000
,
00000200
00000000
00000000
00000320
00000000
00000000
00001030
00000002
,
00000000
00000000
00000100
00000000
00000100
00000000
00000103
00000010
,
00002000
00000000
00000000
00003200
00000000
00000000
00020300
00000000
,
00031000
00000000
00000000
00000000
00101000
00000000
00000000
00000000
00100000
00000000
00000000
00010000
00000000
00000000
01000000
00000000
,
00100000
00000000
00000000
00100000
20000000
00000000
00000000
00000000
,
00010000
00010000
00010000
30010000
,
00100000
01000000
10000000
00100000
,
01000000
00000000
01000000
00000000
00010000
00100000
00001000
00000000
,
00010000
00011000
00010000
00010100
,
00000100
00000000
00001100
00000000
00001000
00000010
00000100
00000001
,
00000010
00000000
00000100
00000000
00001000
00000010
00000100
00000000
,
00001000
00000000
00000000
00000100
00000000
00000000
00000010
00000000
,
00001000
00000100
00000100
00010000
,
00001000
00000000
00010000
00001000
00000000
00100000
00010000
00000000
,
01000000
00000000
00000000
00100000
00000000
00000000
01000000
00000000
,
00100000
10000000
01000000
00010000
00000000
01000000
10000000
00100000
,
02000000
03010000
00100000
00100000
,
00010000
00000000
01000000
00000000
00001000
00010000
00001000
00000000
,
00010000
00000000
00000100
00000000
00001000
00000010
00000100
00000000
,
00001000
00000000
00000100
00000000
00000001
00000010
00000100
00000000
,
00002000
00003010
00010000
00010000
,
00001000
00000000
00100000
00000000
00001000
00010000
00100000
00000000
,
01000000
00000000
10000000
01000000
00000000
00010000
00000000
00100000
,
00000000
00010000
00100000
01000000
00000000
10000000
00100000
01000000
,
00020000
00130000
00001000
00001000
,
00010000
00000000
00000100
00000000
00001000
00000010
00001000
00000000
,
00000001
00000000
00000001
00000000
00000010
00000100
00000010
00000000
,
00000001
00000000
00001000
00000000
00000100
00001000
00000100
00000000
,
00020000
00000000
00031000
00000000
00001000
00010000
00100000
00000000
,
00010000
00000000
00001000
00000000
00100000
00000000
00010000
01000000
,
00100000
00000000
01000000
00010000
00000000
00100000
00000000
00001000
,
00000000
00100000
00010000
00100000
01000000
00000000
10010000
00000000
,
10000000
00100000
01000000
01000000
,
00010000
00000000
00100000
00010000
00100000
00000000
00001000
00000000
,
00010000
00000000
00001000
00010000
00000100
00000000
00000100
00000000
,
00000010
00000000
00000001
00001000
00000010
00000000
00000010
00000000
,
00000200
00001000
00001000
00001300
,
00010000
00001000
00010000
00000000
00000000
00000000
00000000
00000000
,
00002000
00000000
00000000
00203000
00000000
00000000
00310000
00000000
,
20020000
00000000
00030000
30010000
,
00010000
00000000
01000000
00000000
00100000
00010000
00001000
00020000
,
00000000
00000000
00000000
00000000
,
00030000
00000000
00000000
00000000
,
00000000
00000000
00000000
00000000
;
#NOTES:
     dance-double:
     :
     Hard:
     11:
     :
00000000
00000000
00000000
00000000
,
00000000
00000000
00000000
00000000
,
00000000
00000000
00000000
00000000
,
00000000
00000000
00000000
00000000
,
00000000
00000000
00000000
20000000
,
30100000
00000000
01000000
00000000
00010000
00100000
01000000
00100000
,
00010000
00000000
10000000
00100000
00000000
01000000
00010000
00000000
,
00110000
00000000
00100000
00000000
00001000
00010000
00001000
00000100
,
00000010
00000000
00000100
00000001
00000000
00001000
00000010
00000000
,
00000110
00000000
00000010
00000000
00001000
00000100
00000010
00000100
,
00001000
00000000
00000100
00020000
00001000
00000000
00031000
00000000
,
00010000
00001000
00100000
01000000
00100000
00010000
01000000
00000000
,
00100000
10000000
00100000
02000000
00000000
03010000
00100000
01000000
,
20000000
00000000
30100000
00000000
00100000
01000000
00100000
00010000
,
00001000
00000000
00010000
00001000
00010000
00000000
00000100
00000000
,
00001000
00000000
00010000
01000000
00100000
00000000
01100000
00000000
,
00100000
00000000
00010000
00000000
00001000
00010000
00000100
00000000
,
00000000
00000010
00000001
00001000
,
00000200
00000000
00000000
00000000
00000310
00000001
00000010
00000100
,
00001000
00000100
00000100
00010000
,
00001000
00000000
00010000
00000000
00100000
00000000
01000000
00010000
,
20000000
00000000
00000000
30200000
00000000
00000000
01300000
00000000
,
00020000
00000000
00000000
00230000
00000000
00000000
00301000
00000000
,
00010000
00000000
00011000
00000000
00001000
00010000
00001000
00000100
,
00000000
00000010
00000000
00000001
00000000
00000010
00000100
00001000
,
00000100
00000110
00000001
00000101
,
00001000
00000000
00001000
00000100
00000000
00000010
00000001
00000000
,
00000200
00000000
00000000
00000320
00000000
00000000
00010030
00002000
,
00000000
00000000
00000100
00000000
00000100
00003000
00000100
00001000
,
00010000
00000000
00000000
00100000
00000000
00000000
01000000
00000000
,
00100000
00000000
00000000
00000000
10000000
00000000
00000000
00000000
10000000
00000000
00000000
01000000
00000000
00000000
00100000
00000000
,
00010000
00000000
00000000
10000000
00200000
00000000
00000000
00000000
,
01300000
00010000
01000000
10000000
01000000
00100000
01000000
00000000
,
00010000
00000000
00100000
00000000
00001000
00010000
00100000
00000000
,
00010000
00000000
00001000
00010000
00000010
00001000
00000100
00000000
,
00010000
00001000
00200000
00000000
00301000
00010000
00200000
00000000
,
00310000
00001000
00200000
00000000
00301000
00010000
00100000
01000000
,
00100000
00000000
00110000
00000000
00100000
00010000
00001000
00010000
,
00100000
00000000
00010000
00000100
00001000
00000000
00001010
00000000
,
00000002
00000100
00000100
00000010
,
00000010
00000003
00000100
00000010
00001000
00000000
00000100
00010000
,
00000010
00000100
00001000
00010000
00001000
00100000
00010000
01000000
,
00100000
00010000
00001000
00010000
00000000
00010000
00001000
00000100
,
00000010
00000000
00000110
00000000
00000010
00000100
00000001
00000000
,
00000010
00000100
00001000
00000100
,
00010000
00000000
00010000
00000000
00001000
00010000
00100000
00000000
,
01000000
00000000
00100000
00000000
10000000
00100000
00010000
00001000
,
00010000
00000000
00011000
00000000
00001000
00010000
00001000
00000100
,
00000010
00000000
00001000
00000010
00000100
00001000
00000100
00000001
,
00000010
00000100
00001000
00000100
00000000
00010000
00001000
00010000
,
00100000
01000000
00010000
00100000
00000000
00100000
00001000
00010000
,
00000100
00000000
00001100
00000000
00000100
00000010
00000001
00000000
,
00000100
00000000
00000100
00000000
00000010
00001000
00000001
00000010
,
00000100
00000000
00001000
00000000
00000010
00000100
00001000
00010000
,
00001000
00000000
00001000
00000000
00100000
00001000
00010000
00100000
,
00010000
00000000
00110000
00000000
00100000
10000000
00010000
01000000
,
00100000
00000000
00100000
01000000
00100000
00010000
00001000
00010000
,
00000100
00010000
00001000
00100000
00000000
00100000
00010000
10000000
,
00100000
00010000
00001000
00000100
00001000
00000000
00011000
00000000
,
00001000
00000000
00000100
00000000
00000010
00000100
00000001
00000000
,
00000010
00000000
00000100
00000010
00000100
00001000
00000100
00000000
,
00010000
00000000
00001000
00010000
00100000
00000000
01000000
00000000
,
00100000
00000000
10000000
00010000
01000000
00100000
00010000
00000000
,
00021000
00001000
00001000
00030100
,
00000100
00010000
00001000
00000000
00000000
00000000
00000000
00000000
,
00002000
00000000
00000000
00203000
00000000
00000000
00310000
00000000
,
20020000
00000000
00030000
30010000
,
00010000
01000000
00010000
00100000
00001000
00010000
00100000
20000000
,
00000000
00000000
00000000
00000000
,
30000000
00000000
00000000
00000000
,
00000000
00000000
00000000
00000000
;
