
//----- song ID: fksb -----//
#TITLE:FUNKY SUMMER BEACH;
#ARTIST:P*Light;
#BANNER:FUNKY SUMMER BEACH.png;
#BACKGROUND:FUNKY SUMMER BEACH-bg.png;
#CDTITLE:./CDTitles/jubeat saucer fulfill.png;
#MUSIC:FUNKY SUMMER BEACH.ogg;
#SAMPLESTART:82.286;
#SAMPLELENGTH:15;
#BPMS:0=87.5,20=175,148=87.5,163=175;
#STOPS:148=2.057,163=1.029;
#BGSTAGE:14;
#NOTES:
     dance-single:
     :
     Beginner:
     3:
     :
0000
0000
0000
0000
,
0000
0000
0000
0000
,
0000
0000
0000
0000
,
1000
0000
1000
0000
,
0001
0000
1001
0000
,
0010
0000
0010
0000
,
0001
0000
0000
0000
,
1000
0000
1000
0000
,
0100
0000
0000
0000
,
0001
0000
0100
0000
,
1000
0000
0100
0000
,
0001
0000
1000
0000
,
1001
0000
0000
0000
,
2000
0000
0000
3000
,
0000
0000
0000
0100
,
0100
0000
0000
0000
,
0020
0000
0030
0000
,
0002
0000
0003
0000
,
0200
0000
0300
0000
,
0001
0000
1000
0000
,
1001
0000
0000
0000
,
0001
0000
1000
0000
,
0100
0000
0100
0000
,
0010
0000
0001
0000
,
1000
0000
0000
0000
,
0001
0000
1000
0000
,
0200
0000
0300
0000
,
0010
0000
0001
0000
,
1001
0000
0000
0000
,
1000
0000
1000
0000
,
1000
0000
0100
0000
,
0010
0000
0010
0000
,
0001
0000
0000
0000
,
0001
0000
0001
0000
,
0010
0000
0010
0000
,
0100
0000
1000
0000
,
2002
0000
3003
0000
,
1001
1000
1000
0100
,
0000
0001
0001
0010
,
0000
0002
0003
2000
,
3000
0020
0030
0110
,
1000
0000
1000
0000
,
0100
0000
0000
0000
,
0001
0000
0001
0000
,
0010
0000
0000
0000
,
0001
0000
0001
0000
,
1000
0000
1000
0000
,
0001
0000
1000
0000
,
1001
0000
0000
0000
,
0001
0000
1000
0000
,
0100
0000
0100
0000
,
0010
0000
0001
0000
,
1000
0000
0000
0000
,
0001
0000
1000
0000
,
0200
0000
0300
0000
,
0010
0000
0001
0000
,
1001
0000
0000
0000
,
1000
0000
1000
0000
,
1000
0000
0100
0000
,
0010
0000
0010
0000
,
0001
0000
0000
0000
,
0001
0000
0001
0000
,
0010
0000
0010
0000
,
0100
0000
1000
0000
,
2002
0000
3003
0000
,
1001
0000
0000
0000
,
0000
0000
0000
0000
;
#NOTES:
     dance-single:
     :
     Easy:
     6:
     :
0000
0000
0000
0000
,
0000
0000
0000
0000
,
0000
0000
0000
0000
,
1000
1000
0010
0100
,
0001
0001
1001
0000
,
0010
0001
0001
0000
,
0010
0100
1000
0001
,
0100
0010
0010
0000
,
0001
1000
0001
1000
,
0010
0100
0100
0000
,
1000
0001
1000
0000
,
0110
0000
0110
0000
,
1000
0100
0010
0001
,
2000
0000
0000
3000
,
0200
0000
0000
0300
,
0020
0000
0000
0030
,
0001
1000
0001
1000
,
0020
0000
0000
0030
,
0200
0000
0000
0300
,
0001
1000
0010
0000
,
1001
0000
0000
0000
,
0001
1000
0100
1000
,
0100
0010
0110
0000
,
1000
0001
1000
0001
,
0010
0100
0110
0000
,
0001
1000
0100
0010
,
0002
0000
2003
0000
,
3100
0100
0010
0010
,
0001
1000
1001
0000
,
1000
0100
0010
0001
,
1000
0100
0010
0000
,
0100
1000
0001
1000
,
0001
0010
0100
0100
,
0001
1000
0100
0000
,
0010
0001
1000
0000
,
0100
0001
1000
0001
,
0100
0010
0100
0000
,
1001
1000
1000
0001
,
0000
0010
0010
0200
,
0300
0001
0001
1000
,
1000
0010
0010
0110
,
1000
0000
1000
0000
,
0001
0000
0000
0000
,
0010
0000
0010
0000
,
0200
0000
0000
0300
,
0001
0000
0001
0000
,
1000
0000
1000
0000
,
0010
0001
1000
0001
,
1001
0000
0000
0000
,
0001
1000
0100
1000
,
0100
0010
0110
0000
,
1000
0001
1000
0001
,
0010
0100
0110
0000
,
0001
1000
0100
0010
,
0002
0000
2003
0000
,
3100
0100
0010
0010
,
0001
1000
1001
0000
,
1000
0100
0010
0001
,
1000
0100
0010
0000
,
0100
1000
0001
1000
,
0001
0010
0100
0100
,
0001
1000
0100
0000
,
0010
0001
1000
0000
,
0100
0001
1000
0001
,
0100
0010
0100
0000
,
1001
0000
0000
0000
,
0000
0000
0000
0000
;
#NOTES:
     dance-single:
     :
     Medium:
     10:
     :
0000
0000
0000
0000
,
0000
0000
0000
0000
,
0000
0000
0000
0000
,
1000
0100
0000
0100
0000
0001
1000
0001
,
0100
0010
0000
0010
0000
0001
0100
0001
,
1000
0000
0001
0100
0000
0100
0010
0000
,
1000
0001
0010
0110
,
1000
0000
0100
0010
0000
0010
0001
0000
,
2000
0000
3010
1001
,
0001
0000
0100
0010
0000
0010
0100
0000
,
0001
1000
0100
0110
,
1000
0100
1000
0000
0001
0010
0001
0000
,
1000
0001
0010
0001
,
0020
0001
0001
0031
,
2000
0100
0100
3100
,
0020
0100
0100
0130
,
1001
0100
1001
0100
,
0010
0100
0010
0100
0010
0100
0000
0000
,
0001
1000
0001
1000
0200
0000
0000
0000
,
0310
0001
0010
0000
0100
1000
0100
0000
,
1001
0000
0000
0000
,
0010
1000
0100
0000
0010
0001
0100
0000
,
1000
0000
0001
1000
0000
1000
0001
0000
,
0010
1000
0001
0000
0100
0001
1000
0000
,
0001
0010
0100
1000
,
0100
0010
0001
0000
1000
0100
0010
0000
,
1000
0000
0001
1000
0000
1000
0001
0000
,
0010
0100
1000
0000
0001
0010
0100
0000
,
0001
0100
0010
1000
,
0001
0100
0000
0100
0000
0010
0000
0010
,
0000
1000
0000
1000
0001
0000
0001
0000
,
0010
0100
0000
0100
0000
1000
0000
1000
,
0000
0001
1000
0001
0000
0100
0010
0100
,
0000
0010
0000
0010
0000
0001
1000
0001
,
0000
1000
0000
1000
0010
0001
0010
0000
,
1000
1000
0010
0000
0100
0100
0001
0000
,
0010
0100
0010
0100
0000
0001
1000
0001
,
1001
0000
2000
0010
0000
0010
0000
3010
,
0100
0001
0010
0100
1000
0000
0001
1000
,
0010
0000
0002
1000
0000
1000
0000
1003
,
0100
0001
0100
0010
0100
1000
1001
0000
,
1001
0000
0000
0000
0000
0000
0000
0010
,
0100
0000
0000
0000
0001
1000
0001
0000
,
0110
0000
0000
0000
0000
0000
0000
0001
,
1000
0000
1000
0000
1000
0001
1000
0000
,
0010
0001
0010
0000
0100
0000
1000
0000
,
0001
0100
0001
0000
1000
0000
0100
0000
,
0010
0001
0010
0000
0100
1000
0100
0000
,
1001
0000
0000
0000
,
0010
1000
0100
0000
0010
0001
0100
0000
,
1000
0000
0001
1000
0000
1000
0001
0000
,
0010
1000
0001
0000
0100
0001
1000
0000
,
0001
0010
0100
1000
,
0100
0010
0001
0000
1000
0100
0010
0000
,
1000
0000
0001
1000
0000
1000
0001
0000
,
0010
0100
1000
0000
0001
0010
0100
0000
,
0001
0100
0010
1000
,
0001
0100
0000
0100
0000
0010
0000
0010
,
0000
1000
0000
1000
0001
0000
0001
0000
,
0010
0100
0000
0100
0000
1000
0000
1000
,
0000
0001
1000
0001
0000
0100
0010
0100
,
0000
0010
0000
0010
0000
0001
1000
0001
,
0000
1000
0000
1000
0010
0001
0010
0000
,
1000
1000
0010
0000
0100
0100
0001
0000
,
0010
0100
0010
0100
0000
0001
1000
0001
,
1001
0000
0000
0000
,
0000
0000
0000
0000
;
#NOTES:
     dance-single:
     :
     Hard:
     14:
     :
0000
0000
0000
0000
,
0000
0000
0000
0000
,
0000
0000
0000
0000
,
1001
0000
0001
0010
0100
0000
1000
0001
0100
0001
0100
0000
0010
0000
1000
0000
,
1001
0000
0000
0100
0000
0000
0010
0000
1000
0000
0000
0000
0001
0000
0010
0000
0100
0000
1000
0000
0001
0000
0000
0000
0110
0000
0000
0000
1001
0000
0000
0000
,
0000
0000
0001
0000
1000
0000
0100
0000
0010
0100
0010
0000
0001
0000
0000
0000
,
0100
0000
0001
1000
0001
0000
0010
0000
0100
0000
1000
0000
0001
0000
0000
0000
,
1000
0100
0010
0001
1000
0010
0001
0000
,
0010
0000
1000
0000
0001
0000
0010
0000
0100
1000
0100
0000
0010
0000
0001
0000
,
0000
1000
0100
1000
0010
0100
1000
0100
,
0001
0010
1000
0010
0001
0100
0010
0000
,
0200
0001
0301
0000
0020
1000
1030
0000
,
0001
0010
0100
1000
0100
0010
0001
0000
,
1000
0100
0001
0010
,
0100
1000
0010
1001
,
0110
0001
1000
0100
,
1001
0110
1001
0110
,
1000
0000
0001
0010
0000
0001
0010
0000
0100
0000
1000
0000
0000
0000
0000
0000
,
0010
0000
1000
0001
0000
1000
0001
0000
0010
0100
0010
0100
0010
0000
0000
0000
,
0010
0001
0100
0010
1000
0100
0010
0000
,
1001
0000
0000
0000
,
0001
0000
0100
0010
0000
0100
0010
0000
1000
0000
0100
0000
0001
0000
0100
0000
,
0010
0000
0001
1000
0000
0001
1000
0000
0010
0000
0100
0000
0001
0000
1000
0000
,
0100
0000
0010
0001
0000
0010
0001
0000
0100
0000
1000
0000
0100
0000
0001
0000
,
0010
0000
0000
0100
0000
0000
0100
0000
1000
0000
0100
0000
0001
0000
0000
0000
,
0100
0000
0010
0001
0000
0010
0001
0000
1000
0000
0100
0000
0001
0000
0100
0000
,
0010
0000
0001
0100
0000
0001
0100
0000
0010
0000
1000
0000
0001
0000
0010
0000
,
0100
0000
1000
0001
0000
1000
0001
0000
0100
0000
1000
0000
0100
0000
0010
0000
,
0110
0000
0000
0101
0000
0000
0011
0000
0100
0000
1000
0000
1001
0000
0000
0000
,
0000
0011
0000
1100
0000
1010
0000
0101
,
0000
1100
0000
1001
0010
0100
0010
0100
,
0000
1010
0000
0101
0000
0011
0000
1100
,
0000
0010
0001
0020
0000
0130
1000
0100
,
0000
1100
0000
0110
0000
0001
0010
0001
,
0000
0011
0000
0110
0001
1000
0001
1000
,
0001
0100
1000
0001
0010
1000
0001
0100
,
0010
1000
0010
0000
0100
0001
0100
0000
0001
0010
0001
0000
0010
0100
0010
0000
,
2002
3003
0000
0000
0000
0000
0000
0000
0001
0000
0000
0000
1000
0000
0100
0000
0010
0000
0001
0000
0100
0000
0010
0000
1000
0000
0000
0000
0001
0000
0000
0000
,
0010
0100
1000
0000
0100
1000
0100
0010
0001
0100
0010
1000
0001
0000
0010
0100
,
0010
0000
0001
0000
1000
0010
0001
0010
0100
0000
0001
0100
0001
1000
0100
0010
,
0100
0000
0000
0000
0010
0000
0001
0000
1000
0000
0100
0000
0010
0000
0001
0000
0000
0000
2000
0000
0000
0000
0200
0000
0000
3300
0000
0000
0000
0000
0000
0000
,
0001
0000
1000
0100
0010
0001
0100
0010
,
1000
0000
0001
0000
0010
0100
1000
0000
,
0100
1000
0100
0010
0001
0100
0010
1000
,
0001
0000
0010
0100
0010
0000
0001
0000
,
0100
0001
0010
0100
1000
0010
0100
0010
,
1000
0100
0001
0100
1000
0010
0001
0010
,
0100
0010
0100
0000
0010
1000
0010
0000
1000
0100
1000
0000
0100
0010
0100
0000
,
1001
0000
0000
0000
,
1000
0000
0010
0100
0000
0010
0100
0000
0001
0000
0100
0000
1000
0000
0100
0000
,
0010
0000
1000
0100
0000
1000
0100
0000
0010
0000
0001
0000
1000
0000
0010
0000
,
0100
0000
0010
1000
0000
0010
1000
0000
0001
0000
0010
0000
0100
0000
1000
0000
,
0100
0000
0010
0001
0000
0010
0001
0000
1000
0000
0100
0000
0110
0000
0000
0000
,
1000
0000
0010
0100
0000
0010
0100
0000
0001
0000
1000
0000
0100
0000
0010
0000
,
1000
0000
0010
0001
0000
0010
0001
0000
0010
0000
0100
0000
1000
0000
0010
0000
,
0100
0000
0001
0010
0000
0001
0010
0000
0100
0000
1000
0000
0001
0000
0100
0000
,
0110
0000
0000
0101
0000
0000
0011
0000
0000
0110
0000
0000
1001
0000
0000
0000
,
0000
0011
0000
1100
0000
1010
0000
0101
,
0000
1100
0000
1001
0010
0100
0010
0100
,
0000
1010
0000
0101
0000
0011
0000
1100
,
0000
0010
0001
0020
0000
0130
1000
0100
,
0000
1100
0000
0110
0000
0001
0010
0001
,
0000
0011
0000
0110
0001
1000
0001
1000
,
0001
0100
1000
0001
0010
1000
0001
0100
,
0010
1000
0010
0000
0100
0001
0100
0000
0001
0010
0001
0000
0010
0100
0010
0000
,
1001
0000
0000
0000
,
0000
0000
0000
0000
;
#NOTES:
     dance-single:
     :
     Challenge:
     17:
     :
0000
0000
0000
0000
,
0000
0000
0000
0000
,
0000
0000
0000
0000
,
0110
0000
0000
0000
0001
0000
0100
0010
1000
0000
0000
0000
0001
0000
0100
0010
1000
0000
0100
0000
0010
0000
0000
0000
0011
0000
0000
0000
1100
0000
0000
0000
,
0110
0000
0000
1000
0000
0000
0100
0010
0001
0000
0000
0000
1000
0000
0100
0010
0001
0000
0100
0000
0010
0000
0000
0000
1010
0000
0000
0000
0101
0000
0000
0000
,
0000
0000
1000
0000
0100
0000
0010
0001
0010
0001
0100
0000
0010
0000
1000
0100
,
1000
0010
0100
0000
0001
0000
1000
0100
1000
0001
0100
0000
0110
0000
0000
0000
,
0000
0001
0100
0010
1000
0000
0100
0000
0010
0100
0010
0000
0001
0000
1000
0000
,
0011
0000
1010
0000
1100
0000
0101
0000
1000
0100
0010
0000
0001
0000
1000
0000
,
0000
1000
0100
0010
0001
0000
1000
0000
0001
0100
0010
0000
1000
0000
0100
0010
,
0001
0000
1000
0000
0001
0100
0001
0100
0010
1000
0010
1000
0100
0000
0010
0000
,
0011
1010
1100
0001
0011
0101
1100
1000
,
0001
0100
0001
0000
1000
0010
1000
0000
0010
1000
0100
0010
0001
0100
0010
0000
,
2001
3100
0002
0103
,
0001
0000
0010
0100
0000
0100
0010
0000
0001
1000
0010
0100
0001
1000
0010
0000
,
2001
3010
1002
0013
,
0110
0000
0000
1100
0000
0000
0101
0000
0001
0010
0100
1000
0001
0000
0000
0000
,
1000
0001
0100
0010
1000
0001
0100
0010
1000
0001
0100
0010
0200
0000
0000
0000
,
0301
1000
0100
0010
0001
1000
0100
0010
0001
1000
0001
1000
0001
0000
1000
0100
,
0010
0001
0010
0001
0100
0010
0100
0010
1000
0100
1000
0100
0010
0001
0100
0000
,
0010
0000
0010
0000
0100
0000
0100
0000
0010
0100
0010
0100
0110
0000
0000
0000
,
1000
0000
0100
1000
0000
0100
1000
0000
0001
0000
0100
0000
0010
0100
0010
0000
,
1000
0000
0100
0010
0000
0100
0010
0000
0001
0010
0001
0000
1000
0100
1000
0000
,
0001
0000
0100
0001
0000
0100
0001
0000
0010
0000
0100
0000
1000
0001
1000
0000
,
0010
0000
0000
0100
0000
0000
0010
0000
1000
0001
1000
0000
1001
0000
0000
0000
,
0001
0000
0010
0001
0000
0010
0001
0000
1000
0010
0100
0010
1000
0100
0010
0100
,
1000
0000
0010
0100
0000
0010
0100
0000
0001
0010
0100
0010
0001
0100
0010
0100
,
0001
0000
1000
0100
0000
1000
0100
0000
0010
0001
1000
0001
0010
0100
1000
0001
,
0100
0000
0000
0010
0000
0000
0100
0000
0001
1000
0001
0000
1001
0000
0000
0000
,
0000
0000
0010
1000
0100
0000
0010
0001
0100
0000
0010
1000
0100
0000
0010
0001
,
0100
0000
0001
1000
0100
0000
1000
0001
0100
0000
0101
0000
1100
0000
1010
0000
,
0000
0000
0100
0001
0010
0000
0100
1000
0010
0000
0100
0001
0010
0000
0100
1000
,
0010
0000
1000
0001
0020
0000
0100
0000
0030
0000
0110
0000
0011
0000
0101
0000
,
0000
0000
0001
1000
0010
0000
1000
0001
0010
0000
0011
0000
0101
0000
1100
0000
,
0000
0000
1000
0001
0010
0000
0001
1000
0010
0000
0110
0000
1010
0000
0011
0000
,
0000
0000
0100
0001
0010
0000
0100
1000
0010
0000
0100
0001
0010
0000
0100
1000
,
0010
0000
0100
0010
0100
0000
0020
0000
0000
0000
1030
0000
0010
0000
0100
0000
,
0220
0000
0330
0000
0000
0000
0000
0000
0000
0000
0000
0000
0000
0000
0000
0000
1001
0000
0000
0000
0000
0000
0000
0000
0001
0000
0000
0000
0010
0000
0000
0000
1000
0000
0000
0000
0010
0000
0000
0000
0001
0000
0000
0000
1000
0000
0000
0000
0010
0100
0000
0000
0000
0000
0000
0000
0100
0010
0000
0000
0000
0000
0000
0000
,
0100
0000
0000
0000
0010
0000
0000
0000
0100
0001
0000
0000
0000
0000
0000
0000
0001
0000
0000
0000
0100
0000
0000
0000
1000
0000
0000
0000
0100
0000
0000
0000
0001
0000
0000
0000
0010
0000
0000
0000
0100
0000
0000
0000
1000
0000
0000
0000
0001
1000
0000
0000
0000
0000
0000
0000
1000
0000
0000
0000
0001
0000
0000
0000
,
1000
0100
0000
0000
0000
0000
0000
0000
0010
0001
0000
0000
0000
0000
0000
0000
1000
0000
0000
0000
0010
0000
0000
0000
0100
0000
0000
0000
0001
0000
0000
0000
1000
0001
0000
0000
0000
0000
0000
0000
0001
0000
0000
0000
0010
0000
0000
0000
1000
0000
0000
0000
0010
0000
0000
0000
0001
0000
0000
0000
1000
0000
0000
0000
,
0010
0100
0000
0000
0000
0000
0000
0000
0100
0000
0000
0000
0010
0000
0000
0000
1000
0000
0000
0000
0001
0000
0000
0000
0010
0000
0000
0000
0100
0010
0000
0000
0000
0000
0000
0000
0010
0100
0000
0000
0000
0000
0000
0000
2000
0002
0000
0000
0000
3003
0000
0000
0000
0000
0000
0000
0000
0000
0000
0000
0000
0000
0000
0000
,
0110
0000
0001
0100
0010
1000
0100
1100
,
1001
0000
0110
0000
0011
0110
1100
0000
,
1001
1000
0001
0010
0100
0010
0001
0011
,
1001
0000
1100
0001
0101
0011
1010
0000
,
0110
0010
1000
0100
0110
0010
0001
0100
,
0101
0001
0100
0010
1010
1000
0100
0010
,
0010
0001
0010
0001
1000
0010
1000
0010
0100
0001
0010
0100
1000
0010
0100
0001
,
0010
0000
0100
0000
0110
0000
0010
0100
0010
0100
0010
0000
1001
0000
0000
0000
,
0001
0000
0100
1000
0000
0100
0001
0000
0010
1000
0000
0010
0001
0000
0100
0000
,
0001
0000
0010
1000
0000
0010
0001
0000
0100
1000
0000
0100
0001
0000
0100
0000
,
0010
0000
0100
1000
0000
0100
0001
0000
0010
1000
0000
0010
0001
0000
0100
0000
,
0010
0000
0100
0001
0000
0010
1000
0000
0010
0001
0000
0100
0010
0000
1000
0000
,
1000
0000
0010
0001
0000
0010
1000
0000
0100
0001
0100
1000
0001
0010
0100
1000
,
0010
0000
0100
0001
0000
0100
1000
0000
0100
0001
1000
0010
0001
0010
0100
0010
,
1000
0000
0010
0001
0000
0010
1000
0000
0100
0001
0000
0100
1000
0010
0100
0000
,
0110
0000
0000
1100
0000
0000
0101
0000
0010
0100
0010
0000
1001
0000
0000
0000
,
0000
0000
0100
0001
1000
0000
0100
1000
0001
0000
0100
0001
1000
0000
0100
1000
,
0001
0000
1000
0010
0100
0000
0001
0010
0100
0000
0110
0000
0011
0000
1001
0000
,
0000
0000
0010
1000
0001
0000
0010
0001
1000
0000
0010
1000
0001
0000
0010
0001
,
1000
0000
0001
0100
0010
0000
2000
0000
0000
0000
3010
0100
0001
0000
1001
0000
,
0000
0000
0001
0100
1000
0000
1000
0100
0001
0000
0101
0000
1001
0000
1010
0000
,
0000
0000
0001
0010
1000
0000
1000
0010
0001
0000
0011
0000
1001
0000
1100
0000
,
0000
0000
0001
0010
1000
0000
1000
0010
0001
0000
1000
0100
0001
0000
1000
0010
,
0001
0100
0001
0100
1000
0100
1000
0100
0001
0010
0100
1000
0100
0010
0001
0000
,
1001
0000
0000
0000
,
0000
0000
0000
0000
;
#NOTES:
     dance-double:
     :
     Easy:
     6:
     :
00000000
00000000
00000000
00000000
,
00000000
00000000
00000000
00000000
,
00000000
00000000
00000000
00000000
,
10000000
10000000
01000000
01000000
,
00010000
00010000
00011000
00000000
,
00000010
00000001
00000001
00000000
,
00000010
00000100
00001000
00000001
,
00000100
00000010
00000010
00000000
,
00010000
00001000
00010000
00001000
,
00100000
01000000
01000000
00000000
,
10000000
00010000
10000000
00000000
,
01100000
00000000
01100000
00000000
,
10000000
01000000
00100000
00010000
,
20000000
00000000
00000000
30000000
,
02000000
00000000
00000000
03000000
,
00020000
00000000
00000000
00030000
,
00001000
00010000
00001000
00010000
,
00000020
00000000
00000000
00000030
,
00000200
00000000
00000000
00000300
,
00000001
00001000
00000100
00000010
,
00001001
00000000
00000000
00000000
,
00000001
00001000
00000100
00001000
,
00000010
00000100
00000110
00000000
,
00001000
00010000
00001000
00010000
,
00100000
10000000
10010000
00000000
,
00010000
10000000
01000000
00100000
,
00020000
00000000
20030000
00000000
,
31000000
01000000
00010000
00010000
,
00001000
00010000
00001000
00010000
,
00001000
00000010
00000001
00001000
,
00000100
00000010
00000001
00000000
,
00000100
00001000
00010000
00001000
,
00010000
00100000
01000000
01000000
,
00010000
10000000
01000000
00000000
,
00100000
00010000
10000000
00000000
,
01000000
00010000
00001000
00010000
,
00001000
00000010
00000001
00000000
,
00001001
00001000
00001000
00000001
,
00000001
00000010
00000010
00000200
,
00000300
00010000
00010000
00001000
,
00001000
00010000
00010000
01100000
,
10000000
00000000
10000000
00000000
,
00010000
00000000
00010000
00000000
,
00100000
00000000
00100000
00000000
,
02000000
00000000
00000000
03000000
,
00010000
00000000
00010000
00000000
,
00001000
00000000
00001000
00000000
,
00000010
00000001
00001000
00000001
,
00001001
00000000
00000000
00000000
,
00000001
00001000
00000100
00001000
,
00000010
00000100
00000110
00000000
,
00001000
00010000
00001000
00010000
,
00100000
10000000
10010000
00000000
,
00010000
10000000
01000000
00100000
,
00020000
00000000
20030000
00000000
,
31000000
01000000
00010000
00010000
,
00001000
00010000
00001000
00010000
,
00001000
00000010
00000001
00001000
,
00000100
00000010
00000001
00000000
,
00000100
00001000
00010000
00001000
,
00010000
00100000
01000000
01000000
,
00010000
10000000
01000000
00000000
,
00100000
00010000
10000000
00000000
,
01000000
00010000
00001000
00010000
,
00001000
00000010
00000001
00000000
,
00001001
00000000
00000000
00000000
,
00000000
00000000
00000000
00000000
;
#NOTES:
     dance-double:
     :
     Medium:
     10:
     :
00000000
00000000
00000000
00000000
,
00000000
00000000
00000000
00000000
,
00000000
00000000
00000000
00000000
,
10000000
01000000
00000000
01000000
00000000
00010000
00001000
00010000
,
00001000
00000010
00000000
00000010
00000000
00000001
00000100
00000001
,
00001000
00000000
00000001
00000100
00000000
00000100
00000010
00000000
,
00001000
00010000
01000000
01100000
,
10000000
00000000
01000000
00100000
00000000
00100000
00010000
00000000
,
00002000
00000000
00003100
00001001
,
00000001
00000000
00000010
00000100
00000000
00000100
00000010
00000000
,
00001000
00010000
01000000
01100000
,
10000000
01000000
10000000
00000000
00010000
00100000
00010000
00000000
,
10000000
00010000
00100000
00010000
,
00200000
00010000
00010000
00310000
,
00002000
00000100
00000100
00003100
,
00000020
00001000
00001000
00001030
,
00010000
00001000
00010000
00001000
,
00100000
01000000
00100000
01000000
00100000
01000000
00000000
00000000
,
00010000
00001000
00010000
00001000
00000000
00000000
00000000
00000000
,
00000010
00000001
00000010
00000000
00000100
00001000
00000100
00000000
,
00001001
00000000
00000000
00000000
,
00000010
00001000
00000100
00000000
00000010
00000001
00000100
00000000
,
00001000
00000000
00010000
00001000
00000000
00001000
00010000
00000000
,
00100000
10000000
00010000
00000000
01000000
00010000
10000000
00000000
,
00010000
00100000
01000000
10000000
,
01000000
00100000
00010000
00000000
10000000
01000000
00100000
00000000
,
00001000
00000000
00010000
00001000
00000000
00001000
00010000
00000000
,
00000010
00000100
00001000
00000000
00000100
00000001
00000010
00000000
,
00000001
00000100
00000010
00001000
,
00000001
00000100
00000000
00000100
00000000
00000010
00000000
00000010
,
00000000
00001000
00000000
00001000
00010000
00000000
00010000
00000000
,
01000000
00100000
00000000
00100000
00000000
10000000
00000000
10000000
,
00000000
00010000
10000000
00010000
00000000
00100000
01000000
00100000
,
00000000
01000000
00000000
01000000
00000000
00010000
00001000
00010000
,
00000000
00001000
00000000
00001000
00000010
00000001
00000010
00000000
,
00000001
00001000
00000100
00000000
00000010
00000001
00001000
00000000
,
00000010
00000100
00000010
00000100
00000000
00000001
00001000
00000001
,
00000000
00000000
00000200
00000010
00000000
00000010
00000000
00000310
,
00001000
00000001
00000010
00001000
00010000
00000000
00001000
00010000
,
00100000
00000000
02000000
10000000
00000000
10000000
00000000
13000000
,
01000000
00010000
00100000
01000000
00100000
00000000
10010000
00000000
,
10010000
00000000
00000000
00000000
00000000
00000000
00000000
00100000
,
01000000
00000000
00000000
00000000
00010000
10000000
00010000
00000000
,
01100000
00000000
00000000
00000000
00000000
00000000
00000000
00010000
,
00001000
00000000
00001000
00000000
00001000
00010000
00001000
00000000
,
00000010
00000001
00000010
00000000
00000100
00000000
00001000
00000000
,
00000001
00000100
00000001
00000000
00001000
00000000
00000100
00000000
,
00000010
00000001
00000010
00000000
00000100
00001000
00000100
00000000
,
00001001
00000000
00000000
00000000
,
00000010
00001000
00000100
00000000
00000010
00000001
00000100
00000000
,
00001000
00000000
00010000
00001000
00000000
00001000
00010000
00000000
,
00100000
10000000
00010000
00000000
01000000
00010000
10000000
00000000
,
00010000
00100000
01000000
10000000
,
01000000
00100000
00010000
00000000
10000000
01000000
00100000
00000000
,
00001000
00000000
00010000
00001000
00000000
00001000
00010000
00000000
,
00000010
00000100
00001000
00000000
00000100
00000001
00000010
00000000
,
00000001
00000100
00000010
00001000
,
00000001
00000100
00000000
00000100
00000000
00000010
00000000
00000010
,
00000000
00001000
00000000
00001000
00010000
00000000
00010000
00000000
,
01000000
00100000
00000000
00100000
00000000
10000000
00000000
10000000
,
00000000
00010000
10000000
00010000
00000000
00100000
01000000
00100000
,
00000000
01000000
00000000
01000000
00000000
00010000
00001000
00010000
,
00000000
00001000
00000000
00001000
00000010
00000001
00000010
00000000
,
00000001
00001000
00000100
00000000
00000010
00000001
00001000
00000000
,
00000010
00000100
00000010
00000100
00000000
00000001
00001000
00000001
,
00000000
00000000
00000000
00000000
;
#NOTES:
     dance-double:
     :
     Hard:
     14:
     :
00000000
00000000
00000000
00000000
,
00000000
00000000
00000000
00000000
,
00000000
00000000
00000000
00000000
,
10010000
00000000
00010000
00100000
01000000
00000000
00010000
00001000
00000010
00000001
00000010
00000000
00000100
00000000
00001000
00000000
,
00001001
00000000
00000000
00000100
00000000
00000000
00000010
00000000
00001000
00000000
00000000
00000000
00000001
00000000
00000010
00000000
00001000
00000000
00010000
00000000
01000000
00000000
00000000
00000000
01100000
00000000
00000000
00000000
10010000
00000000
00000000
00000000
,
00000000
10000000
00100000
01000000
00001000
00010000
01000000
00000000
,
00100000
00010000
10000000
01000000
00010000
00001000
00000010
00000000
,
00000001
00000100
00000010
00010000
00001000
00000010
00000001
00000000
,
00000100
00001000
00010000
00100000
10000000
01000000
00100000
00010000
,
00000000
10000000
01000000
10000000
00100000
01000000
00001000
00010000
,
00100000
00010000
00001000
00000010
00000001
00000100
00000010
00000000
,
00000200
00010000
00010300
00000000
00002000
01000000
01003000
00000000
,
00010000
00100000
01000000
10000000
01000000
00100000
00010000
00000000
,
00012000
00000100
00000001
00000010
,
00023000
01000000
10000000
00100000
,
00032000
00000100
00000001
00003010
,
00011000
01010000
10010000
00110000
,
00001000
00000000
00100000
00010000
00000000
00100000
00010000
00000000
10000000
00000000
01000000
00000000
00000000
00000000
00000000
00000000
,
00100000
00000000
00001000
00010000
00000000
00001000
00010000
00000000
00000200
00000000
00000000
00000000
00000300
00000000
00000000
00000000
,
00000010
00000001
00000100
00000010
00001000
00000100
00000010
00000000
,
00001001
00000000
00000000
00000000
,
00000001
00000000
00000100
00000010
00000000
00000100
00000010
00000000
00001000
00000000
00000100
00000000
00000001
00000000
00000100
00000000
,
00000010
00000000
00000001
00001000
00000000
00000001
00001000
00000000
00000010
00000000
00000100
00000000
00001000
00000000
00010000
00000000
,
00100000
00000000
10000000
00010000
00000000
10000000
00010000
00000000
00100000
00000000
10000000
00000000
00100000
00000000
00010000
00000000
,
01000000
00000000
00000000
00100000
00000000
00000000
00100000
00000000
10000000
00000000
01000000
00000000
00010000
00000000
00000000
00000000
,
00001000
00000000
00000010
00000001
00000000
00000010
00000001
00000000
00001000
00000000
00000100
00000000
00000001
00000000
00000100
00000000
,
00000010
00000000
00000001
00000100
00000000
00000001
00000100
00000000
00000010
00000000
00001000
00000000
00010000
00000000
01000000
00000000
,
00100000
00000000
10000000
00010000
00000000
10000000
00010000
00000000
01000000
00000000
10000000
00000000
01000000
00000000
00100000
00000000
,
10000000
01000000
00020000
00000000
00032000
00000000
00003010
00000000
,
00000000
00000011
00000000
00001100
00000000
00001010
00000000
00000101
,
00000000
00001100
00000000
00011000
00100000
01000000
00100000
01000000
,
00000000
10100000
00000000
01010000
00000000
00110000
00000000
11000000
,
00000000
00100000
00010000
00200000
00000000
00301000
00010000
00001000
,
00000000
00001100
00000000
00000110
00000000
00000001
00000010
00000001
,
00000000
00000011
00000000
00000110
00000001
00001000
00000001
00001000
,
00000001
00000100
00001000
00010000
00100000
10000000
01000000
00010000
,
00000000
00001000
00000010
00002000
00000000
00003010
00000001
00000020
,
00000000
00000000
00000000
00000000
00000031
00000000
00001000
00000100
00000010
00000001
00000100
00000010
00001000
00000000
00000001
00000000
,
00000010
00001000
00010000
00000000
01000000
10000000
01000000
00100000
00010000
01000000
00100000
00010000
00001000
00000000
00000100
00000001
,
00000100
00000000
00000010
00000000
00001000
00000010
00000001
00000010
00000100
00000000
00000001
00000100
00001000
00000100
00000001
00000010
,
00001000
00000000
00010000
01000000
00100000
01000000
10000000
00010000
00000000
02000000
00000000
20000000
33000000
00000000
00000000
00000000
,
00000001
00000000
00001000
00000100
00000010
00000001
00000100
00000010
,
00001000
00000000
00000001
00000000
00000010
00001000
00010000
00000000
,
01000000
10000000
01000000
00100000
00010000
01000000
00100000
00010000
,
00001000
00000000
00000100
00000001
00000100
00000000
00000010
00000000
,
00000100
00000001
00000010
00001000
00010000
01000000
00100000
01000000
,
00010000
00001000
00010000
00100000
10000000
00100000
00010000
00001000
,
00000010
00000001
00000010
00000000
00000100
00001000
00000100
00000000
00010000
00001000
00010000
00000000
01000000
00100000
01000000
00000000
,
10010000
00000000
00000000
00000000
,
10000000
00000000
00100000
01000000
00000000
00100000
01000000
00000000
00010000
00000000
01000000
00000000
10000000
00000000
01000000
00000000
,
00001000
00000000
00100000
00001000
00000000
00100000
00001000
00000000
00010000
00000000
00000100
00000000
00000010
00000000
00000000
00000000
,
00000001
00000000
00000010
00000100
00000000
00000010
00000100
00000000
00000001
00000000
00000100
00000000
00001000
00000000
00000010
00000000
,
00000100
00000000
00001000
00010000
00000000
00001000
00010000
00000000
00100000
00000000
01000000
00000000
01100000
00000000
00000000
00000000
,
10000000
00000000
00100000
01000000
00000000
00100000
01000000
00000000
00010000
00000000
10000000
00000000
01000000
00000000
00100000
00000000
,
10000000
00000000
00100000
00010000
00000000
00100000
00010000
00000000
00000010
00000000
00000100
00000000
00001000
00000000
00000000
00000000
,
00000001
00000000
00000010
00001000
00000000
00000010
00001000
00000000
00010000
00000000
00100000
00000000
10000000
00000000
00010000
00000000
,
10000000
01000000
00020000
00000000
00032000
00000000
00003010
00000000
,
00000000
00000011
00000000
00001100
00000000
00001010
00000000
00000101
,
00000000
00001100
00000000
00011000
00100000
01000000
00100000
01000000
,
00000000
10100000
00000000
01010000
00000000
00110000
00000000
11000000
,
00000000
00100000
00010000
00200000
00000000
00301000
00010000
00001000
,
00000100
00000001
00000010
00001000
00010000
01000000
00100000
01000000
,
00010000
00001000
00010000
00100000
10000000
00100000
00010000
00001000
,
00000010
00000001
00000010
00000000
00000100
00001000
00000100
00000000
00010000
00001000
00010000
00000000
01000000
00100000
01000000
00000000
,
00000000
10000000
00010000
20000000
00000000
30100000
01000000
00100000
,
10010000
00000000
00000000
00000000
,
00000000
00000000
00000000
00000000
;
#NOTES:
     dance-double:
     :
     Challenge:
     17:
     :
00000000
00000000
00000000
00000000
,
00000000
00000000
00000000
00000000
,
00000000
00000000
00000000
00000000
,
00000110
00000000
00000000
00000000
00000001
00000000
00000010
00000100
00001000
00000000
00000000
00000000
00000001
00000000
00000100
00000010
00001000
00000000
00000010
00000000
00010000
00000000
00000000
00000000
00011000
00000000
00000000
00000000
01001000
00000000
00000000
00000000
,
01010000
00000000
00000000
10000000
00000000
00000000
00100000
01000000
00100000
00000000
00000000
00000000
10000000
00000000
00100000
00000000
00010000
00000000
00100000
00000000
10000000
00000000
00000000
00000000
10100000
00000000
00000000
00000000
01010000
00000000
00000000
00000000
,
00000000
00000000
00010000
00000000
01000000
00000000
00010000
00100000
00010000
00100000
00001000
00000000
00010000
00000000
00000100
00001000
,
00000100
00001000
00000010
00000000
00000100
00000000
00000001
00000010
00000001
00001000
00000010
00000000
00000110
00000000
00000000
00000000
,
00000000
00000001
00000100
00000010
00001000
00000000
00000100
00000000
00000010
00000100
00000010
00000000
00000100
00000000
00010000
00000000
,
00001000
00000000
00100000
00000000
00010000
00000000
01000000
00000000
00100000
10000000
00100000
00000000
10000000
00000000
00010000
00000000
,
00000000
10000000
00100000
01000000
00010000
00000000
10000000
00000000
01000000
00100000
00010000
00000000
00100000
00000000
00001000
00010000
,
00000010
00000000
00000100
00000000
00000010
00001000
00000010
00001000
00000001
00000100
00000001
00000010
00000001
00000000
00000000
00000000
,
00000001
00000100
00001010
00000000
00010000
00100000
11000000
00000000
,
10000000
01000000
00100000
00010000
00001000
00000100
00000010
00000000
,
00000001
00000100
00000001
00000100
00000010
00001000
00000100
00001000
,
00000010
00010000
00001000
00010000
00100000
01000000
01100000
00100000
,
10100000
10000000
01000000
10000000
01000000
00100000
01000000
00100000
,
00001000
00000000
00010000
00001000
00000000
00010000
00001000
00000000
00000010
00000000
00000001
00000000
00000100
00000000
00000000
00000000
,
00000001
00000010
00000001
00000010
00000100
00001000
00000100
00001000
00000100
00010000
00000100
00010000
00002000
00000000
00000000
00000000
,
00103000
00010000
00100000
00010000
00100000
01000000
00100000
01000000
10000000
00010000
10000000
00010000
10000000
00000000
00100000
01000000
,
00010000
01000000
00010000
01000000
00001000
00010000
00001000
00010000
00000100
00001000
00000100
00000010
00000001
00000010
00000100
00001000
,
00000001
00000000
00000001
00000000
00001000
00000000
00001000
00000000
00000100
00000010
00000100
00000010
00000110
00000000
00000000
00000000
,
00000001
00000000
00001000
00000010
00000000
00001000
00000010
00000000
00000100
00000000
00001000
00000000
00010000
00000000
00100000
00000000
,
01000000
00000000
00010000
00100000
00000000
00010000
00100000
00000000
01000000
00000000
00010000
00000000
00001000
00000000
00000010
00000000
,
00000100
00000000
00001000
00000100
00000000
00001000
00000100
00000000
00000010
00000000
00001000
00000000
00010000
00000000
01000000
00000000
,
00100000
00000000
00000000
00001000
00000000
00000000
00010000
00000000
00000100
00001000
00000010
00000000
00000110
00000000
00000000
00000000
,
00000001
00000000
00000100
00000010
00000000
00000100
00000010
00000000
00001000
00000100
00010000
00000000
00001000
00100000
00001000
00100000
,
00010000
00000000
01000000
00010000
00000000
01000000
00010000
00000000
10000000
01000000
00100000
00000000
00010000
00100000
01000000
10000000
,
01000000
00000000
00010000
01000000
00000000
00010000
01000000
00000000
00100000
00001000
00010000
00000000
00001000
00010000
00000010
00001000
,
00000100
00000000
00000000
00001000
00000000
00000000
00000010
00000000
00001000
00000001
00001000
00000000
00001001
00000000
00000000
00000000
,
00000000
00000000
00000010
00001000
00000100
00000000
00000010
00000001
00000100
00000000
00000010
00001000
00000100
00000000
00000010
00000001
,
00000100
00000000
00000010
00001000
00000100
00000000
00000010
00000001
00000100
00000000
00001000
00000000
00010000
00000000
01100000
00000000
,
00000000
00000000
00100000
10000000
01000000
00000000
00100000
00010000
01000000
00000000
00100000
10000000
01000000
00000000
00100000
00010000
,
01000000
00000000
00100000
10000000
01000000
00000000
00020000
00000000
00000000
00000000
01030000
00100000
00010000
00000000
10010000
00000000
,
00000000
00000000
00100000
00010000
10000000
00000000
00100000
10000000
00010000
00000000
00110000
00000000
00101000
00000000
00011000
00000000
,
00000000
00000000
00000010
00001000
00000001
00000000
00000010
00000001
00001000
00000000
00001010
00000000
00010010
00000000
00011000
00000000
,
00000000
00000000
00001000
00100000
00010000
00000000
01000000
00010000
00100000
00000000
00001000
00010000
00000010
00000000
00001000
00000100
,
00010000
00001000
00010000
00000100
00001000
00000100
00001000
00000010
00000100
00000010
00000100
00000001
00001000
00000001
00001000
00000000
,
00002002
00000000
00003003
00000000
00000000
00000000
00000000
00000000
00000000
00000000
00000000
00000000
00000000
00000000
00000000
00000000
00001001
00000000
00000000
00000000
00000000
00000000
00000000
00000000
00000010
00000000
00000000
00000000
00000001
00000000
00000000
00000000
00000100
00000000
00000000
00000000
00000010
00000000
00000000
00000000
00001000
00000000
00000000
00000000
00000100
00000000
00000000
00000000
00010000
00001000
00000000
00000000
00000000
00000000
00000000
00000000
00001000
00010000
00000000
00000000
00000000
00000000
00000000
00000000
,
01000000
00000000
00000000
00000000
10000000
00000000
00000000
00000000
01000000
00000000
00000000
00000000
00000000
00000000
00000000
00000000
10000000
00000000
00000000
00000000
00100000
00000000
00000000
00000000
10000000
00000000
00000000
00000000
00100000
00000000
00000000
00000000
00010000
00000000
00000000
00000000
00001000
00000000
00000000
00000000
00010000
00000000
00000000
00000000
00000100
00000000
00000000
00000000
00001000
00000100
00000000
00000000
00000000
00000000
00000000
00000000
00000010
00000000
00000000
00000000
00000001
00000000
00000000
00000000
,
00001000
00000100
00000000
00000000
00000000
00000000
00000000
00000000
00000001
00000100
00000000
00000000
00000000
00000000
00000000
00000000
00001000
00000000
00000000
00000000
00000010
00000000
00000000
00000000
00000100
00000000
00000000
00000000
00001000
00000000
00000000
00000000
00010000
00000000
00000000
00000000
00000000
00000000
00000000
00000000
00010000
00000000
00000000
00000000
01000000
00000000
00000000
00000000
10000000
00000000
00000000
00000000
01000000
00000000
00000000
00000000
00010000
00000000
00000000
00000000
00001000
00000000
00000000
00000000
,
00010000
00001000
00000000
00000000
00000000
00000000
00000000
00000000
00010000
00000000
00000000
00000000
00000100
00000000
00000000
00000000
00001000
00000000
00000000
00000000
00000010
00000000
00000000
00000000
00000100
00000000
00000000
00000000
00000001
00000100
00000000
00000000
00000000
00000000
00000000
00000000
00000100
00000010
00000000
00000000
00000000
00000000
00000000
00000000
00002000
00000002
00000000
00000000
00000000
00003003
00000000
00000000
00000000
00000000
00000000
00000000
00000000
00000000
00000000
00000000
00000000
00000000
00000000
00000000
,
00001001
00000000
00000001
00000100
00000010
00001000
00010000
01000000
,
01100000
00000000
10010000
00000000
00010000
10000000
11000000
00000000
,
01100000
01000000
00010000
00001000
00000010
00000001
00000100
00000100
,
00000110
00000000
00001010
00010000
00011000
00001000
00011000
00000000
,
00101000
00100000
00010000
01000000
01100000
00100000
10000000
01000000
,
01100000
00100000
00001000
00010000
00011000
00001000
00000010
00000100
,
00001000
00000100
00001000
00000100
00001000
00000010
00001000
00000010
00000100
00001000
00000100
00001000
00010000
00001000
00010000
00001000
,
00010000
00000000
00001000
00000000
00011000
00000000
00001000
00010000
00001000
00010000
00001000
00000000
00011000
00000000
00000000
00000000
,
00010000
00000000
01000000
10000000
00000000
01000000
00010000
00000000
00001000
00010000
00000000
00100000
10000000
00000000
00010000
00000000
,
00100000
00000000
01000000
00010000
00000000
00001000
00000010
00000000
00000001
00000100
00000000
00001000
00000100
00000000
00000001
00000000
,
00001000
00000000
00000100
00000001
00000000
00000100
00001000
00000000
00000001
00000100
00000000
00001000
00010000
00000000
00100000
00000000
,
10000000
00000000
00010000
01000000
00000000
10000000
01000000
00000000
00010000
00100000
00000000
01000000
10000000
00000000
00100000
00000000
,
10000000
00000000
01000000
00010000
00000000
00001000
00000010
00000000
00000001
00000100
00000000
00001000
00000100
00000000
00000001
00000000
,
00001000
00000000
00000100
00000001
00000000
00000100
00001000
00000000
00010000
00100000
00000000
01000000
10000000
00000000
00010000
00000000
,
01000000
00000000
10000000
01000000
00000000
00010000
00100000
00000000
01000000
00010000
00000000
00001000
00000010
00000000
00000001
00000000
,
00000101
00000000
00000000
00001100
00000000
00000000
00000011
00000000
00000100
00000010
00000100
00000000
00001001
00000000
00000000
00000000
,
00000000
00000000
00000100
00001000
00000010
00000000
00000100
00000001
00000010
00000000
00000100
00001000
00000010
00000000
00000100
00000001
,
00000010
00000000
00000100
00001000
00000010
00000000
00000100
00000001
00000010
00000000
00001000
00000000
00010000
00000000
01100000
00000000
,
00000000
00000000
01000000
10000000
00100000
00000000
01000000
00010000
00100000
00000000
01000000
10000000
00100000
00000000
01000000
00010000
,
00100000
00000000
01000000
10000000
00100000
00000000
00020000
00000000
00000000
00000000
00130000
01000000
00010000
00000000
10010000
00000000
,
00000000
00000000
01000000
00010000
10000000
00000000
01000000
10000000
00010000
00000000
01010000
00000000
01001000
00000000
00011000
00000000
,
00000000
00000000
00000100
00001000
00000001
00000000
00000100
00000001
00001000
00000000
00001100
00000000
00010100
00000000
00011000
00000000
,
00000000
00000000
00001000
01000000
00010000
00000000
00100000
00010000
01000000
00000000
00001000
00010000
00000100
00000000
00001000
00000010
,
00010000
00000000
00001000
00010000
00001000
00000000
00020000
00000000
00000000
00000000
00031000
00000000
00000100
00000000
00000001
00000000
,
00001001
00000000
00000000
00000000
,
00000000
00000000
00000000
00000000
;
