
//----- song id: fuji
#TITLE:FUJIMORI -祭- FESTIVAL;
#ARTIST:VENUS;
#TITLETRANSLIT:FUJIMORI -Matsuri- FESTIVAL;
#BANNER:FUJIMORI -Matsuri- FESTIVAL.png;
#BACKGROUND:FUJIMORI -Matsuri- FESTIVAL-bg.png;
#CDTITLE:./CDTitles/Reflec beat groovin'!!.png;
#MUSIC:FUJIMORI -Matsuri- FESTIVAL.ogg;
#SAMPLESTART:50.696;
#SAMPLELENGTH:15;
#BPMS:0=158;
#NOTES:
     dance-single:
     :
     Beginner:
     3:
     :
0000
0000
0000
0000
,
0000
0000
0000
0000
,
0000
0000
0000
0000
,
0000
0000
0000
0000
,
0000
0000
0000
0000
,
0001
0000
0000
1000
,
1000
0000
0000
0001
,
0001
0000
0000
0100
,
0100
0000
0000
0001
,
0001
0000
0000
0100
,
0100
0000
0000
1000
,
1000
0000
0000
0000
,
0010
0010
0010
0000
,
1000
0000
0000
0000
,
0001
0000
0100
0000
,
0001
0000
0000
0000
,
1000
0000
0100
0000
,
0010
0010
0010
0000
,
0100
0100
0100
0000
,
1000
1000
1000
0000
,
0001
0001
0001
0001
,
0000
0001
0000
1000
,
0000
0001
0000
1000
,
0000
0100
0000
0010
,
0010
0010
0010
0000
,
0000
1000
0000
0001
,
0000
1000
0000
0001
,
0000
0100
0000
0010
,
0000
0010
0000
0100
,
0100
0000
0010
0000
,
0100
0000
0010
0000
,
0010
0010
0010
0000
,
2002
0000
0000
3003
,
0000
0000
0000
0000
,
1000
1000
1000
0000
,
0001
0001
0001
0000
,
0001
0000
0001
0000
,
0100
0000
0100
0000
,
0000
0001
0000
1000
,
0000
0001
0000
1000
,
0000
0001
0000
1000
,
1000
1000
1000
0000
,
0001
0001
0001
0000
,
1000
1000
1000
0000
,
1000
0000
1000
0000
,
0100
0000
0100
0000
,
0000
1000
0000
0001
,
0000
1000
0000
0001
,
0000
1000
0000
0001
,
0001
0001
0001
0001
,
0001
0000
0000
1000
,
1000
0000
0000
0001
,
0001
0000
0000
0100
,
0100
0000
0000
0001
,
0001
0000
0000
0100
,
0100
0000
0000
1000
,
1000
0000
0000
0000
,
0010
0010
0010
0000
,
1000
0000
0001
0000
,
1000
0000
0000
0000
,
0010
0000
0000
0000
,
1000
1000
1000
0000
,
0001
0000
0000
0000
,
1000
0000
0000
0000
,
1000
0000
0010
0000
,
0001
0000
0000
0000
,
1001
0000
0000
0000
,
0100
0100
0100
0000
,
0000
0000
0000
0000
;
#NOTES:
     dance-single:
     :
     Easy:
     5:
     :
0000
0000
0000
0000
,
0000
0000
0000
0000
,
0000
0000
0000
0000
,
0000
0000
0000
0000
,
0000
0000
0000
0000
,
0010
0000
0010
1000
,
0010
0000
0010
0001
,
0100
0000
0100
1000
,
0100
0100
0100
0000
,
0010
0000
0010
0001
,
0010
0000
0010
1000
,
2002
0000
0000
3003
,
0010
0010
0010
0010
,
1000
0001
0100
0000
,
0001
0010
0100
0000
,
0001
1000
0100
0000
,
1000
0010
0100
0000
,
0010
0000
1001
0000
,
0100
0000
0110
0000
,
1000
0000
0110
0000
,
0100
0010
1001
0000
,
0001
0000
1000
0000
,
0001
0100
1000
0001
,
0001
0000
1000
0000
,
0001
0100
0001
1000
,
1000
0000
0001
0000
,
1000
0100
0001
1000
,
1000
0000
0001
0000
,
1000
0100
1000
0000
,
0100
0100
0001
0001
,
0100
0100
1000
1000
,
0010
0010
0010
0010
,
1001
2002
0000
3003
,
0100
0000
0000
0000
,
0001
0010
0001
0000
,
0001
0001
1000
0001
,
1000
0000
1000
0000
,
0100
0000
0100
0000
,
0001
0100
1000
0100
,
0001
0100
1000
0100
,
0001
0100
1000
0100
,
0100
0000
0000
0000
,
1000
0010
1000
0000
,
1000
1000
0001
1000
,
0001
0000
0001
0000
,
0100
0100
0100
0000
,
1000
0100
0001
0100
,
1000
0100
0001
0100
,
1000
0000
0001
0000
,
0100
0100
0100
0100
,
0010
0000
0010
1000
,
0010
0000
0010
0001
,
0100
0000
0100
1000
,
0100
0100
0100
0000
,
0010
0000
0010
0001
,
0010
0000
0010
1000
,
2002
0000
0000
3003
,
0010
0010
0010
0000
,
1000
0100
1000
0100
,
1000
0000
0001
0000
,
2000
0000
3001
1000
,
0100
1000
1000
0000
,
0001
0000
0010
0000
,
1000
1000
1000
0100
,
1000
0000
0010
0000
,
0001
0010
0001
1000
,
1001
0000
0000
0000
,
0010
0010
2002
0000
,
0000
3003
0000
0000
,
0000
0000
0000
0000
;
#NOTES:
     dance-single:
     :
     Medium:
     9:
     :
0000
0000
0000
0000
,
0000
0000
0000
0000
,
0000
0000
0000
0000
,
0000
0000
0000
0000
,
0000
0000
0000
0000
,
1000
0000
0000
0001
1000
0000
0000
0000
1000
0000
0000
0000
1100
0000
0000
0000
,
0001
0000
0000
1000
0001
0000
0000
0000
0001
0000
0000
0000
0101
0000
0000
0000
,
0001
0000
0000
1000
0001
0000
0000
0000
0001
0000
0000
0000
0011
0000
0000
0000
,
1000
1000
0110
1001
,
0001
0000
0000
1000
0001
0000
0000
0000
0001
0000
0000
0000
0101
0000
0000
0000
,
1000
0000
0000
0001
1000
0000
0000
0000
1000
0000
0000
0000
1100
0000
0000
0000
,
0020
0000
0200
0330
,
1100
0101
1100
0000
,
0002
0000
0000
1003
0000
1000
0100
0000
,
1000
0000
1000
0001
1000
0000
1000
0100
,
2000
0000
0000
3001
0000
0001
0100
0000
,
1000
0100
0010
0010
,
0001
0000
0001
0100
0001
0000
0101
0000
,
1000
0000
0100
1000
0100
0000
1100
0000
,
0010
0000
0010
0100
0010
0000
0110
0000
,
0001
0000
0100
0001
0100
0000
1001
0000
,
0010
0001
1100
0100
,
0001
0000
0100
0000
0001
0000
1000
1000
,
0010
1000
0101
0100
,
1000
0000
0100
0000
1000
0000
0001
0001
,
0010
0001
0101
0100
,
0001
0000
0100
0000
0001
0000
1000
1000
,
0001
0010
1000
0100
,
1001
0100
0010
1001
,
0001
0010
0001
0000
1000
0010
1000
0000
,
0001
0100
0001
0000
1000
0100
1000
0000
,
0010
0001
0100
1000
,
0001
1000
0001
0000
0010
0000
0100
0000
,
1001
0000
0000
0000
,
0001
0000
0010
0100
0001
0000
0100
0000
,
0001
0000
1000
0100
1000
0000
0001
0000
,
1100
0000
0001
1000
0000
0010
1000
0200
,
0000
1300
1000
0100
,
1000
0000
0001
0100
0001
0000
0100
0000
,
0100
0000
0001
1000
0100
0000
0100
0000
,
0001
0100
1000
0100
,
0010
0000
0000
0000
0100
0001
0100
0000
,
1000
0000
0010
0100
1000
0000
0100
0000
,
1000
0000
0001
0100
0001
0000
1000
0000
,
0101
0000
1000
0001
0000
0010
0001
0200
,
0000
0301
0001
0100
,
0001
0000
1000
0100
1000
0000
0100
0000
,
0100
0000
1000
0001
0100
0000
0100
0000
,
0020
0000
0200
0330
,
1100
0101
1100
0101
,
1000
0000
0000
0001
1000
0000
0000
0000
1000
0000
0000
0000
1100
0000
0000
0000
,
0001
0000
0000
1000
0001
0000
0000
0000
0001
0000
0000
0000
0101
0000
0000
0000
,
0001
0000
0000
1000
0001
0000
0000
0000
0001
0000
0000
0000
0011
0000
0000
0000
,
1000
0000
0000
0001
1000
0000
0000
0000
0110
0000
0000
0000
1001
0000
0000
0000
,
0001
0000
0000
1000
0001
0000
0000
0000
0001
0000
0000
0000
0110
0000
0000
0000
,
1000
0000
0000
0001
1000
0000
0000
0000
1000
0000
0000
0000
0110
0000
0000
0000
,
0010
0001
0100
1000
,
0011
0101
1100
0000
,
1000
0000
0010
0002
1000
0000
0100
0003
,
1000
0020
0000
0230
0000
0302
0000
1000
,
2003
0000
0000
3000
0001
0000
1000
0000
,
0100
0000
1000
0100
0010
0100
1000
0000
,
0001
0100
0010
0000
1000
0000
1000
0000
,
0001
1000
0001
1000
0001
0000
0100
0000
,
2002
3003
0220
0330
,
0001
1010
0001
1000
,
0101
0000
0001
0000
0010
0000
0001
1000
,
0000
0010
0100
0000
1001
0000
0020
0000
,
0000
0030
0000
0000
,
0000
0000
0000
0000
;
#NOTES:
     dance-single:
     :
     Hard:
     12:
     :
0000
0000
0000
0000
,
0000
0000
0000
0000
,
0000
0000
0000
0000
,
0000
0000
0000
0000
,
0000
0000
0000
0000
,
1000
0000
0000
0001
1000
0000
0100
0000
0001
0000
0000
0000
0101
0000
0000
0000
,
0001
0000
0000
1000
0001
0000
0010
0000
0001
0000
0000
0000
0101
0000
0000
0000
,
0001
0000
0000
1000
0001
0000
0100
0000
0010
0000
0000
0000
1001
0000
0000
0000
,
0001
0000
0000
1000
0001
0000
0010
0000
0100
0000
0000
0000
1001
0000
0000
0000
,
1000
0000
0000
0001
1000
0000
0100
0000
0001
0000
0000
0000
0101
0000
0000
0000
,
1000
0000
0000
0001
1000
0000
0010
0000
0100
0000
0000
0000
1100
0000
0000
0000
,
1000
0000
0000
0001
1000
0000
0100
0000
0010
0000
0000
0000
0011
0000
0000
0000
,
0010
0000
0100
0000
1100
0000
0010
1000
,
0002
0000
0000
1003
0000
0001
0100
0001
,
1000
0000
0000
0001
1000
0000
0001
0000
1000
0000
0000
0000
1000
0000
0100
0000
,
0002
0000
0000
0103
0000
1000
0001
0001
,
1000
0000
0000
0001
1000
0000
0001
0000
0100
0000
0000
0000
0001
0000
1000
0000
,
0001
0000
0000
1000
0001
0000
0010
0000
0100
0000
0000
0000
0110
0000
0000
0000
,
1000
0000
0000
0001
0100
0000
0010
0000
1000
0000
0000
0000
0110
0000
0000
0000
,
1000
0000
0000
0001
1000
0000
0100
0000
0010
0000
0000
0000
0110
0000
0000
0000
,
0001
0000
0000
0100
1000
0000
0100
0000
0001
0000
0000
0000
1001
0000
0000
0000
,
0000
0000
0010
0000
1000
0000
0100
0000
1000
0000
0000
0010
0100
0000
0001
0000
,
1000
0000
0000
0001
0100
0000
0010
0000
1000
0000
0000
0000
0001
0000
0000
0000
,
0010
0000
0100
0000
1000
0000
0001
0000
0010
0000
0000
0100
1000
0000
0010
0000
,
0100
0000
0000
0010
1000
0000
0001
0000
1000
0000
0000
0000
1001
0000
0000
0000
,
0000
0000
1000
0000
0001
0000
0100
0000
0001
0000
0000
0010
0100
0000
1000
0000
,
0001
0000
0000
1000
0100
0000
0010
0000
0001
0000
0000
0000
1000
0000
0000
0000
,
0010
0000
0100
0000
0001
0000
1000
0000
0010
0000
0000
0100
0001
0000
0010
0000
,
0001
1000
0001
0100
0010
0000
1000
0000
,
1100
1000
1000
0000
0101
0001
0001
0000
,
1010
0010
0010
0000
0011
0010
0010
0000
,
1000
0001
0100
0001
1000
0001
0010
0100
,
1000
0000
0001
0000
1001
0000
0000
0000
0010
0100
0010
0100
0010
0100
0010
0100
,
0010
0000
0000
0001
1000
0010
0100
0000
,
1000
0000
0001
0010
0000
0000
0100
0000
1000
0000
0001
0000
0100
0000
0010
0000
,
1000
0000
0100
1000
0000
0000
0100
0000
0001
0000
0100
0000
1000
0000
0001
0000
,
0100
0000
1000
0001
0000
0010
0100
0220
,
0000
0330
0000
0010
0001
0010
0100
1000
,
0001
0000
1000
0100
0000
1000
0001
0100
,
0000
0010
0000
1000
0000
0100
0010
0100
,
1000
0100
0001
0101
0000
1010
0000
0001
,
0100
0000
0000
1000
0001
0010
0100
0000
,
0010
0000
0100
1000
0000
0000
0001
0000
1000
0000
0001
0000
0100
0000
0010
0000
,
1000
0000
0001
1000
0000
0000
0100
0000
1000
0000
0100
0000
0001
0000
0010
0000
,
0001
0000
1000
0001
0000
0011
0000
1100
,
0000
0000
0000
0010
1000
0010
0100
0001
,
1000
0000
0001
0100
0000
0001
0000
0100
,
0000
0010
1000
0001
0000
0100
0010
0100
,
0002
0000
1000
1003
,
1001
1100
0101
1001
,
1000
0000
0000
0001
1000
0000
0100
0000
1000
0000
0000
0000
1100
0000
0000
0000
,
0001
0000
0000
1000
0001
0000
0010
0000
0001
0000
0000
0000
0101
0000
0000
0000
,
0001
0000
0000
1000
0001
0000
0100
0000
0001
0000
0000
0000
0101
0000
0000
0000
,
1000
0000
0000
0001
1000
0000
0010
0000
0100
0000
0010
0000
1001
0000
0000
0000
,
0001
0000
0000
1000
0001
0000
0100
0000
0001
0000
0000
0000
0110
0000
0000
0000
,
1000
0000
0000
0001
1000
0000
0010
0000
1000
0000
0000
0000
0110
0000
0000
0000
,
1000
0000
0000
0001
1000
0000
0100
0000
0010
0000
0000
0000
0011
0000
0000
0000
,
0010
0100
0010
0001
1000
0000
0000
0000
,
0010
0000
0100
0002
1000
0000
0100
0003
,
1000
0020
0000
0230
0000
0302
0000
1000
,
2003
0000
0000
3100
0001
0100
1000
0001
,
0100
0000
1000
0010
1000
0001
0100
0000
,
1000
0100
0010
0001
0100
0010
1000
0100
,
1000
0010
0100
0001
0001
0010
0100
1000
,
0001
0000
1000
0100
0010
0001
0100
0010
,
1000
0100
0010
0001
1000
0010
1000
0001
,
1001
0000
0100
0010
1000
0100
0001
0100
,
0000
0010
0100
0000
1001
0010
0200
0000
,
0000
0300
0000
0000
,
0000
0000
0000
0000
;
#NOTES:
     dance-double:
     :
     Easy:
     5:
     :
00000000
00000000
00000000
00000000
,
00000000
00000000
00000000
00000000
,
00000000
00000000
00000000
00000000
,
00000000
00000000
00000000
00000000
,
00000000
00000000
00000000
00000000
,
00100000
00000000
10000000
01000000
,
00010000
00000000
00001000
00000010
,
00000001
00000000
00000001
00000100
,
00001000
00000000
00010000
00001000
,
00100000
00000000
10000000
01000000
,
00010000
00000000
00001000
00000010
,
00000001
00000000
00000001
00000100
,
00001000
00010000
00011000
00000000
,
00001000
00010000
01000000
00000000
,
10000000
00100000
01000000
00000000
,
10000000
01000000
00010000
00000000
,
00001000
00000010
00000001
00000000
,
00000100
00000000
00011000
00000000
,
00100000
00000000
10100000
00000000
,
10000000
00000000
11000000
00000000
,
00010000
00001000
00011000
00000000
,
00001000
00000000
00000100
00000000
,
00000001
00000100
00000001
00000100
,
00001000
00000000
00010000
00000000
,
00010000
01000000
10000000
10000000
,
10000000
00000000
00010000
00000000
,
00001000
00000100
00000001
00000001
,
00000001
00000000
00000100
00000000
,
00010000
00100000
10000000
00000000
,
01000000
01000000
00010000
00010000
,
00001000
00001000
00000100
00000100
,
00000010
00000010
00000010
00000010
,
00001001
00002002
00000000
00003003
,
00000100
00000000
00000000
00000000
,
00010000
00000010
00010000
00000000
,
00010000
01000000
10000000
00010000
,
10000000
00000000
01000000
00000000
,
00010000
00000000
00001000
00000000
,
00001000
00000100
00000001
00000100
,
00001000
00000100
00000001
00000100
,
00001000
00010000
01000000
10000000
,
01000000
00000000
00000000
00000000
,
00001000
00100000
00001000
00000000
,
00001000
00000100
00000001
00001000
,
00000001
00000000
00000100
00000000
,
00001000
00000000
00010000
00000000
,
00010000
01000000
10000000
01000000
,
00010000
01000000
10000000
01000000
,
00010000
00000000
00001000
00000000
,
00011000
00011000
00011000
00011000
,
00010000
00000000
00100000
10000000
,
00100000
00000000
10000000
01000000
,
00010000
00000000
00001000
00000010
,
00000001
00000000
00000001
00000100
,
00001000
00000000
00100000
00010000
,
00100000
00000000
00100000
00010000
,
20020000
00000000
00000000
30030000
,
00100000
00100000
00100000
00000000
,
10000000
01000000
00010000
00001000
,
00010000
00000000
00000000
00000000
,
00001000
00000000
00000001
00001000
,
00000100
00001000
00010000
01000000
,
00000000
00000000
00000000
00000000
,
10000000
10000000
10000000
01000000
,
10000000
00000000
00100000
00000000
,
00010000
00001000
00000100
00000001
,
00001001
00000000
00000000
00000000
,
00001000
00010000
02200000
00000000
,
00000000
03300000
00000000
00000000
,
00000000
00000000
00000000
00000000
;
#NOTES:
     dance-double:
     :
     Medium:
     8:
     :
00000000
00000000
00000000
00000000
,
00000000
00000000
00000000
00000000
,
00000000
00000000
00000000
00000000
,
00000000
00000000
00000000
00000000
,
00000000
00000000
00000000
00000000
,
10000000
01000000
10000000
00000000
10000000
00000000
00010000
00000000
,
10000000
01000000
00010000
00000000
00001000
00000000
00010000
00000000
,
00001000
00000100
00000001
00000000
00001000
00000000
00001000
00000000
,
00000001
00000100
00001000
00011000
,
00010000
01000000
10000000
00000000
00010000
00000000
10000000
00000000
,
10000000
01000000
00010000
00000000
00001000
00000000
00010000
00000000
,
00001000
00000100
00000001
00000000
00001000
00000000
00001000
00000000
,
00000001
00000100
00001000
00010000
,
00020000
00000000
00031000
01000000
,
00100000
00000000
10000000
00010000
10000000
00000000
10000000
01000000
,
20000000
00000000
30000000
00010000
,
10000000
01000000
00010000
00001000
,
00010000
00000000
00001000
00000100
00000001
00000000
00001000
00000000
,
00000001
00000000
00000100
00000001
00000100
00000000
00000001
00000000
,
00000010
00000000
00000001
00000100
00001000
00000000
00010000
00000000
,
00010000
00000000
01000000
10000000
01000000
00000000
10010000
00000000
,
00100000
00010000
11000000
01000000
,
10000000
00000000
01000000
00000000
00010000
00000000
00001000
00000100
,
00000010
00000010
00001100
00000100
,
00000001
00000000
00000100
00000000
00001000
00000000
00010000
00100000
,
10000000
00010000
01010000
01000000
,
10000000
01000000
00010000
00001000
,
00000100
00000010
00001000
00000100
,
00001001
00000100
00000010
00001001
,
00000100
00001000
00000100
00000000
00010000
00001000
00010000
00000000
,
00001000
00100000
00010000
00000000
10000000
01000000
10000000
00000000
,
00100000
10000000
01000000
00010000
,
00001000
00010000
00002000
00000000
00010000
00000000
00010000
00000000
,
00013000
00000000
00000000
00000000
,
00010000
00000000
00100000
10000000
01000000
00000000
01000000
00000000
,
10000000
00000000
10000000
01000000
00010000
00000000
00001000
00000000
,
00000100
00000000
00000001
00001000
00000000
00000010
00001000
00000200
,
00000000
00001300
00001000
00000100
,
00000010
00000000
00000001
00000100
00001000
00000000
00010000
00000000
,
01000000
00000000
10000000
00010000
01000000
00000000
01000000
00000000
,
10000000
01000000
00010000
00001000
,
00000100
00000001
00000100
00000101
,
00001000
00000000
00000010
00000001
00000100
00000000
00000100
00000000
,
00000001
00000000
00000001
00000100
00001000
00000000
00010000
00000000
,
01000000
00000000
10000000
00010000
00000000
00100000
00010000
02000000
,
00000000
03010000
00010000
01000000
,
00100000
00000000
10000000
01000000
00010000
00000000
00001000
00000000
,
00000100
00000000
00000001
00001000
00000100
00000000
00000100
00000000
,
00000001
00000100
00001000
00010000
,
01010000
00110000
10100000
11000000
,
10000000
01000000
10000000
00000000
10000000
00000000
00010000
00000000
,
10000000
01000000
00010000
00000000
00001000
00000000
00010000
00000000
,
00001000
00000100
00000001
00000000
00001000
00000000
00001000
00000000
,
00000001
00000100
00001000
00011000
,
00010000
01000000
10000000
00000000
00010000
00000000
10000000
00000000
,
10000000
01000000
00010000
00000000
00001000
00000000
00010000
00000000
,
00001000
00000100
00000001
00000000
00001000
00000000
00001000
00000000
,
00000001
00000100
00000110
00000000
,
00001000
00000000
00010000
00002000
01000000
00000000
01003000
00000000
,
00010000
00100000
00000000
10000000
00000000
00010000
00000000
01000000
,
20000000
00000000
31000000
00010000
,
00100000
00000000
00001000
00010000
00001000
00010000
00001000
00000000
,
00010000
00001000
00000100
00000001
,
00001000
00000001
00001000
00000001
00001000
00000000
00000100
00000000
,
00022000
00033000
02200000
03300000
,
00010000
00000000
10000000
00000000
00010000
00000000
10000000
01000000
,
00010000
00000000
00010000
00000000
00001000
00000000
00000100
00000001
,
00000000
00000010
00000100
00000000
00001001
00000000
00000200
00000000
,
00000000
00000300
00000000
00000000
,
00000000
00000000
00000000
00000000
;
#NOTES:
     dance-double:
     :
     Hard:
     12:
     :
00000000
00000000
00000000
00000000
,
00000000
00000000
00000000
00000000
,
00000000
00000000
00000000
00000000
,
00000000
00000000
00000000
00000000
,
00000000
00000000
00000000
00000000
,
10000000
00000000
00000000
00010000
10000000
00000000
01000000
00000000
10000000
00000000
00000000
00000000
01100000
00000000
00000000
00000000
,
00010000
00000000
00000000
00001000
00010000
00000000
00000010
00000000
00001000
00000000
00000000
00000000
00000110
00000000
00000000
00000000
,
00000001
00000000
00000000
00001000
00000001
00000000
00000100
00000000
00000001
00000000
00000000
00000000
00001100
00000000
00000000
00000000
,
00000001
00000000
00000000
00001000
00000001
00000000
00000010
00000000
00001000
00000000
00000000
00000000
00011000
00000000
00000000
00000000
,
00010000
00000000
00000000
00001000
00010000
00000000
00001000
00000000
00100000
00000000
00000000
00000000
01100000
00000000
00000000
00000000
,
10000000
00000000
00000000
00010000
10000000
00000000
00100000
00000000
10000000
00000000
00000000
00000000
01010000
00000000
00000000
00000000
,
10000000
00000000
00000000
00010000
10000000
00000000
01000000
00000000
00010000
00000000
00000000
00000000
00001000
00000000
00000000
00000000
,
00000100
00000000
00000001
00000000
00000010
00000000
00000010
00000001
,
00002000
00000000
00000000
00003001
00000000
00001000
00000100
00001000
,
00000001
00000000
00000001
00000100
00001000
00000000
00010000
01000000
,
20000000
30010000
01000000
10000000
,
01000000
00000000
00010000
00001000
00010000
00000000
00001000
00010000
,
00001000
00000000
00010000
00000100
00010000
00000000
00010100
00000000
,
00001000
00000000
00000010
00000100
00000001
00000000
00000101
00000000
,
00000001
00000000
00000001
00000100
00001000
00000000
00011000
00000000
,
00010000
00000000
01000000
10000000
01000000
10000000
01000000
00000000
,
00000000
00100000
00010000
01000000
00010000
00000000
10000000
00000000
,
01000000
00000000
00010000
00001000
00000100
00000001
00000001
00000001
,
00000000
00000010
00000001
00000100
00000001
00000000
00000100
00000000
,
00000001
00000000
00000100
00001000
00010000
00000000
00011000
00000000
,
00000000
01000000
10000000
01000000
10000000
00000000
00100000
00000000
,
10000000
00000000
01000000
00010000
00001000
00000000
00000100
00000000
,
00000010
00000100
00000001
00000000
00000010
00000100
00001000
00000000
,
00000001
00000100
00001000
00010000
,
01000000
10000000
00010000
00000000
00010000
10000000
10010000
00000000
,
01000000
00010000
10000000
00000000
10000000
00010000
10010000
00000000
,
10000000
01100000
00010000
00001000
,
00000010
00000000
00000100
00000000
00000110
00000000
00000000
00000000
00000010
00000100
00000010
00000100
00000010
00000100
00000010
00000100
,
00000010
00000000
00000000
00001000
00000001
00000010
00000100
00001000
,
00000001
00000000
00000010
00000000
00001000
00010000
01000000
00100000
,
00010000
01000000
00010000
01000000
00010000
00000000
10000000
00000000
,
01010000
00000000
10000000
01000000
00000000
00010000
00001000
00022000
,
00000000
00033000
00000000
00001000
00000100
00000001
00000100
00000001
,
00001000
00000000
00000001
00000100
00000000
00001000
00000000
00010000
,
01000000
10000000
00000000
01000000
00000000
00100000
01000000
00100000
,
00010000
00100000
00010000
10000000
00000000
01000000
00000000
00010000
,
00000000
00000000
00000000
00010000
10000000
00100000
01000000
00010000
,
10000000
00000000
00100000
00000000
00010000
00001000
00000100
00000010
,
00001000
00000100
00001000
00000100
00001000
00000000
00000001
00000000
,
00001100
00000000
00000001
00000100
00000000
00001000
00010000
00022000
,
00000000
00033000
00000000
00010000
01000000
10000000
01000000
10000000
,
00010000
00000000
10000000
01000000
00000000
00010000
00000000
00001000
,
00000100
00000001
00000000
00000100
00000000
00000010
00000100
00000010
,
00000200
00000000
00000000
00000300
,
00000110
00001000
00010000
01100000
,
10000000
00000000
00000000
00010000
10000000
00000000
01000000
00000000
10000000
00000000
00000000
00000000
01100000
00000000
00000000
00000000
,
00010000
00000000
00000000
00001000
00010000
00000000
00000010
00000000
00001000
00000000
00000000
00000000
00000110
00000000
00000000
00000000
,
00000001
00000000
00000000
00001000
00000001
00000000
00000100
00000000
00000001
00000000
00000000
00000000
00001100
00000000
00000000
00000000
,
00000001
00000000
00000000
00001000
00000001
00000000
00000010
00000000
00001000
00000000
00000000
00000000
00011000
00000000
00000000
00000000
,
00010000
00000000
00000000
00001000
00010000
00000000
00001000
00000000
00100000
00000000
00000000
00000000
01100000
00000000
00000000
00000000
,
10000000
00000000
00000000
00010000
10000000
00000000
00100000
00000000
10000000
00000000
00000000
00000000
01010000
00000000
00000000
00000000
,
10000000
00000000
00000000
00010000
10000000
00000000
01000000
00000000
00010000
00000000
00000000
00000000
00001000
00000000
00000000
00000000
,
00000100
00000001
00001001
00000000
,
00000100
00000001
00000100
00000002
00001000
00000000
00000103
00000000
,
00000001
00000100
00000000
00002000
00000000
00013000
00000000
00010000
,
01000000
00000000
00000000
10000000
00100000
01000000
00010000
10000000
,
01000000
00000000
10000000
01000000
00100000
01000000
00010000
00000000
,
00001000
00000100
00000001
00001000
00000100
00000010
00000001
00000100
,
00000001
00001000
00000001
00001000
00000001
00000010
00000100
00001000
,
00000001
00000000
00000100
00001000
00010000
00000000
00100000
10000000
,
00010000
01000000
00100000
10000000
00010000
00000000
11000000
00000000
,
10000000
01000000
00010000
00001000
00000100
00000001
00000001
00000001
,
00000000
00001000
00000100
00000000
00001200
00000000
00000301
00000000
,
00000000
00000000
00000000
00000000
;
