
//----- song id: esed
#TITLE:Everybody Say EDOGAWA;
#ARTIST:EDOist 【東京】;
#ARTISTTRANSLIT:EDOist [Tokyo];
#BANNER:Everybody Say EDOGAWA.png;
#BACKGROUND:Everybody Say EDOGAWA-bg.png;
#CDTITLE:./CDTitles/DDR (2014).png;
#MUSIC:Everybody Say EDOGAWA.ogg;
#SAMPLESTART:59.155;
#SAMPLELENGTH:15;
#BPMS:0=142;
#NOTES:
     dance-single:
     :
     Beginner:
     1:
     :
0000
0000
0000
0000
,
0000
0000
0000
0000
,
0000
0000
0000
0000
,
1000
0000
0000
0000
,
0001
0000
0000
0000
,
1000
0000
0000
0000
,
0001
0000
0000
0000
,
0100
0000
0000
0000
,
0010
0000
0000
0000
,
0100
0000
0000
0000
,
0010
0000
0000
0000
,
1001
0000
0000
0000
,
0000
0000
0000
0000
,
1001
0000
0000
0000
,
0000
0000
0000
0000
,
1001
0000
0000
0000
,
0000
0000
0000
0000
,
1001
0000
0000
0000
,
0000
0000
0000
0000
,
0001
0000
0000
0000
,
1000
0000
0000
0000
,
0010
0000
0000
0000
,
0100
0000
0000
0000
,
0001
0000
0001
0000
,
0001
0000
0000
0000
,
1000
0000
1000
0000
,
1000
0000
0000
0000
,
0010
0000
0000
0000
,
0100
0000
0000
0000
,
0001
0000
0000
0000
,
1000
0000
0000
0000
,
0001
0000
0000
0000
,
0010
0000
0000
0000
,
0100
0000
0000
0000
,
1001
0000
0000
0000
,
1000
0000
0000
0000
,
0001
0000
0000
0000
,
1000
0000
0000
0000
,
0001
0000
0000
0000
,
0100
0000
0000
0000
,
0010
0000
0000
0000
,
0100
0000
0000
0000
,
0010
0000
0000
0000
,
1001
0000
0000
0000
,
0001
0000
0001
0000
,
0001
0000
0000
0000
,
0100
0000
0100
0000
,
0100
0000
0000
0000
,
0010
0000
0010
0000
,
0010
0000
0000
0000
,
1000
0000
0000
0000
,
1000
0000
1000
0000
,
1000
0000
0000
0000
,
1001
0000
0000
1001
,
0000
0000
0000
0000
;
#NOTES:
     dance-single:
     :
     Easy:
     5:
     :
0000
0000
0000
0000
,
0000
0000
0000
0000
,
0000
0000
0000
0000
,
1000
0010
0100
0100
,
0001
1000
0001
1000
,
0010
0000
0010
0000
,
1000
0001
1000
0000
,
0010
0100
0001
0001
,
1000
0010
1000
0010
,
0200
0300
0020
0030
,
2000
3000
0001
0100
,
0010
0000
0000
0010
0000
0000
0010
0000
,
0000
0000
0100
0100
,
0001
0000
0000
0001
0000
0000
0001
0000
,
0000
1000
1000
1000
,
0100
0000
0000
0100
0000
0000
0100
0000
,
0000
0000
0000
1000
,
2002
0000
0000
0000
,
0000
0000
3003
0000
,
1000
1000
0001
0010
,
0001
0001
1000
0000
,
1000
0010
0100
0001
,
1000
0010
0100
0000
,
1000
0010
0100
0000
,
0010
0100
0001
0000
,
1000
0001
0100
1000
,
1001
0000
0000
0000
,
1000
0000
1001
0000
,
0010
0000
0110
0000
,
0001
0000
1001
0000
,
0100
0000
0110
0000
,
2000
0000
3000
0000
,
0002
0000
0003
0000
,
1000
0000
0000
1000
0000
0000
1000
0000
,
0000
0000
0000
0000
,
1000
0010
1000
0010
,
0100
0001
0100
0000
,
0001
1000
0001
1000
,
0010
0100
0010
0000
,
0001
0100
0001
0100
,
0010
1000
0010
1000
,
0002
0003
0200
0300
,
0020
0030
1000
0001
,
0100
0100
0100
0100
,
0001
0100
0001
0100
,
0010
1000
0010
0000
,
1000
0001
1000
0001
,
0100
0010
0100
0000
,
1000
0010
1000
0010
,
0100
0001
0100
0001
,
2000
0000
0000
3000
,
0002
0003
0100
0010
,
0100
0000
0000
0000
,
0001
0001
0000
1000
1000
0000
0001
0001
,
0000
0000
0000
0000
;
#NOTES:
     dance-single:
     :
     Medium:
     7:
     :
0000
0000
0000
0000
,
0000
0000
0000
0000
,
0000
0000
0000
0000
,
0001
0000
1000
0000
0010
0100
0000
0001
,
1000
1000
1000
1000
,
0010
0100
0001
1000
,
0001
0010
0100
0000
1000
0000
1001
0000
,
0001
0000
1000
0000
0010
0100
0000
0001
,
1000
1000
1000
1000
,
0010
0000
0000
0100
0001
0000
0000
0001
,
1000
0000
0000
0100
1000
0001
0010
0000
,
0001
1000
0000
0001
1000
0000
0001
1000
,
0000
0000
0010
0010
,
0100
0010
0000
0100
0010
0000
0100
0010
,
0000
0100
0100
0100
,
0001
1000
0000
0001
1000
0000
0001
1000
,
0000
0000
0000
0000
0000
0001
0010
0100
,
2000
0000
0010
3000
,
0002
0000
0010
0003
,
1000
1000
0001
0001
,
1000
0010
0100
0000
0001
0000
0000
0000
,
0001
0001
0100
0100
,
0010
1000
0001
0000
0100
0000
0000
0000
,
0001
0010
0001
0001
,
1000
0010
0100
0100
,
0001
1000
0010
0100
,
0001
1000
0100
0010
0001
0000
0001
0000
,
1000
0000
0000
0010
0100
0000
0001
0000
,
0001
0000
0000
0100
0001
0000
0100
0010
,
1000
0000
0000
0100
1000
0000
0010
0000
,
0010
0000
0000
1000
0001
0000
0101
0000
,
1000
0000
0000
0010
1000
0000
0100
0000
,
0001
0000
0000
0100
0001
0000
0100
0000
,
1000
0010
0000
0100
0001
0000
0010
1000
,
0000
0000
0002
1003
,
1010
1010
1100
1100
,
1000
0010
0100
0000
,
0011
0011
0101
0101
,
0001
0100
0010
0000
,
1001
1001
1010
1010
,
0001
0100
0010
0000
,
1000
0000
0000
0010
0100
0000
0000
0001
,
1000
0000
0000
0100
1000
0000
0010
0000
,
2000
0001
0001
3001
,
1001
1001
0101
0101
,
1000
0010
0100
0000
,
1001
1001
1100
1100
,
0010
0100
0001
0000
,
1001
1001
0101
0101
,
1000
0010
0100
0000
,
0201
0000
1000
0000
,
0310
0000
0000
0010
0100
0001
1000
0000
,
0100
0100
0100
0100
,
1000
0010
0000
0010
0100
0000
0001
1001
,
0000
0000
0000
0000
;
#NOTES:
     dance-single:
     :
     Hard:
     10:
     :
0000
0000
0000
0000
,
0000
0000
0000
0000
,
0000
0000
0000
0000
,
0011
0000
1000
0000
0010
0100
0000
0002
,
1000
1000
1000
1003
,
0010
0100
0001
0000
1000
0010
0100
0000
,
0001
0010
0100
1000
0100
0000
0110
0000
,
1001
0000
0010
0000
0100
0001
0000
2000
,
0010
0000
0010
0000
3010
0100
0001
1000
,
0010
0000
0000
0010
1000
0000
0000
0100
,
0010
0000
0000
0001
1000
0100
0010
0100
,
1000
1000
0000
0001
0001
0000
0100
0100
,
0000
0000
0010
0110
,
0010
0010
0000
1000
1000
0000
0001
0001
,
0000
0100
0100
0100
,
0001
1000
0000
1000
0001
0000
0001
1000
,
0000
0000
0000
0000
0000
0001
0010
0100
,
2000
3100
0002
0103
,
2000
3100
0002
0103
,
1000
0010
1000
0000
0001
0000
0001
1000
,
0010
0100
0010
0000
0110
0000
0001
0000
,
1000
0001
1000
0010
0100
0000
0100
0010
,
1000
0001
0010
0100
1000
0000
1001
0000
,
0001
0000
0010
0000
0001
0100
0001
0000
,
1000
0000
0001
0000
0100
0010
0100
0000
,
0001
0000
1000
0000
0010
0100
0010
0000
,
1000
0001
0010
0100
1000
0000
1001
0000
,
2000
0000
3000
0100
1000
0010
0100
0001
,
0000
0100
0010
1000
0001
0000
0011
0000
,
2000
0000
3010
0010
1000
0100
0010
0001
,
0000
0001
0100
0010
1000
0000
1100
0000
,
0100
0100
1000
0001
1000
0100
0010
0000
,
0001
0001
1000
0001
0100
0001
0010
0100
,
1000
1000
0000
0001
0001
0000
0010
0110
,
0000
0000
2000
3001
,
1010
0000
1010
0000
1000
0100
0000
0100
,
1000
0010
1000
0100
0010
0000
0110
0000
,
0011
0000
0011
0000
0001
0010
0000
0010
,
0001
0010
0100
1000
0100
0000
0110
0000
,
1001
0000
1001
0000
1000
0010
0000
0010
,
1000
0100
1000
0010
0100
0001
0010
0100
,
1000
0000
1000
0010
0100
0000
0100
0001
,
1000
0000
1000
0100
0010
0001
0100
0000
,
1010
1010
1010
1010
,
1001
0000
1001
0000
0001
0100
0000
0100
,
0010
1000
0001
0010
0100
0000
1100
0000
,
1001
0000
1001
0000
1000
0100
0000
0100
,
0010
0001
1000
0001
0100
0000
0110
0000
,
1001
0000
1001
0000
0001
0010
0000
0010
,
0100
1000
0100
0010
0100
1000
0001
0010
,
0200
0000
1000
0000
0001
0000
1300
0001
,
0010
0000
0010
0001
0100
0010
1000
0100
,
1000
0001
1000
0001
1000
0100
0010
0001
,
0100
0100
0000
0001
0001
0000
1001
1001
,
0000
0000
0000
0000
;
#NOTES:
     dance-double:
     :
     Easy:
     5:
     :
00000000
00000000
00000000
00000000
,
00000000
00000000
00000000
00000000
,
00000000
00000000
00000000
00000000
,
10000000
00100000
01000000
01000000
,
00010000
10000000
00010000
01000000
,
00100000
00000000
00100000
00000000
,
01000000
00010000
00100000
00000000
,
00001000
00010000
00001000
00001000
,
00010000
00000100
00001000
00000010
,
00002000
00003000
00000002
00000003
,
00000200
00000300
00000010
00001000
,
00000010
00000000
00000000
00000100
00000000
00000000
00000010
00000000
,
00000000
00000000
00001000
00001000
,
00010000
00000000
00000000
00001000
00000000
00000000
00010000
00000000
,
00000000
00010000
00010000
00010000
,
00100000
00000000
00000000
01000000
00000000
00000000
00100000
00000000
,
00000000
00000000
00000000
10000000
,
02000000
00000000
00100000
00000000
,
00100000
00000000
00100000
03000000
,
00100000
00100000
00010000
00010000
,
01000000
00100000
01000000
00000000
,
00100000
10000000
01000000
01000000
,
00010000
00001000
00010000
00000000
,
00000010
00001000
00000010
00000000
,
00010000
00000100
00001000
00000000
,
00000010
00000100
00000001
00001000
,
00000010
00000100
00000110
00000000
,
00001000
00000000
00000100
00000000
,
00010000
00000000
00011000
00000000
,
00001000
00000000
00100000
00000000
,
00010000
00000000
00110000
00000000
,
10000000
01000000
10000000
00000000
,
00010000
00100000
00010000
00000000
,
10000000
00000000
00000000
00010000
00000000
00000000
10000000
00000000
,
00000000
00000000
00000000
10010000
,
10000000
00100000
10000000
00100000
,
01000000
00010000
01000000
00000000
,
00010000
00100000
00010000
00100000
,
00001000
00010000
00011000
00000000
,
00001000
00010000
00001000
00010000
,
00000100
00001000
00000100
00001000
,
00000002
00000003
00000200
00000300
,
00000020
00000030
00001000
00000100
,
00000110
00000000
00000000
00000000
,
00000001
00000100
00000001
00000100
,
00000010
00001000
00000010
00000000
,
00001000
00000100
00001000
00000100
,
00010000
00001000
00011000
00000000
,
00100000
00001000
00100000
00001000
,
01000000
00010000
01000000
00010000
,
20000000
00000000
00000000
30000000
,
00020000
00030000
01000000
00100000
,
01000000
00000000
00000000
00000000
,
00010000
00010000
00000000
10000000
10000000
00000000
00010000
00010000
,
00000000
00000000
00000000
00000000
;
#NOTES:
     dance-double:
     :
     Medium:
     7:
     :
00000000
00000000
00000000
00000000
,
00000000
00000000
00000000
00000000
,
00000000
00000000
00000000
00000000
,
00010000
00000000
10000000
00000000
00100000
01000000
00000000
00020000
,
00000000
00000000
00000000
00130000
,
00001000
00001000
00010000
00010000
,
00000100
00001000
00000100
00000000
00000010
00000000
00000011
00000000
,
00000001
00000000
00000100
00000000
00000010
00001000
00000000
00000200
,
00000000
00000000
00000000
00001300
,
00000100
00000000
00000000
00000100
00010000
00000000
00000000
00010000
,
00001000
00000000
00000000
00001000
00100000
00010000
01000000
00000000
,
00010000
01000000
00000000
00010000
01000000
00000000
00010000
01000000
,
00000000
00000000
00001000
00011000
,
00001000
00010000
00000000
00001000
00010000
00000000
00001000
00010000
,
00000000
00000100
00000100
00000100
,
00001000
00000001
00000000
00001000
00000001
00000000
00001000
00000001
,
00000000
00000000
00000000
00000000
00000000
00000001
00000100
00000010
,
00001000
00000000
00001100
00000000
,
00010000
00000000
00011000
00000000
,
00100000
00100000
00010000
00010000
,
10000000
00100000
01000000
00000000
01100000
00000000
00000000
00000000
,
00100000
00100000
01000000
01000000
,
00010000
00100000
00001000
00000000
00011000
00000000
00000000
00000000
,
00001000
00010000
00000100
00000100
,
00001000
00000010
00000100
00000100
,
00000001
00001000
00000010
00000010
,
00010000
00001000
00010000
00001000
00010000
00000000
00001100
00000000
,
00000100
00000000
00000000
00000100
00001000
00000000
00000100
00000000
,
00010000
00000000
00000000
00010000
00001000
00000000
00011000
00000000
,
00001000
00000000
00000000
00001000
00100000
00000000
00010000
00000000
,
01000000
00000000
00000000
01000000
00100000
00000000
01100000
00000000
,
00100000
00000000
00000000
10000000
01000000
00000000
00100000
00000000
,
00010000
00000000
00000000
00100000
00001000
00000000
00010000
00000000
,
00001000
00010000
00000000
00000100
00001000
00000000
00000010
00000100
,
00000000
00000000
00000002
00001003
,
00001010
00001010
00001100
00001100
,
00001000
00000100
00001000
00000000
,
00001100
00001100
00010100
00010100
,
00010000
00001000
00010000
00000000
,
00110000
00110000
01010000
01010000
,
01000000
00000000
00100000
00000000
01000000
00000000
00000000
00100000
,
01000000
00000000
00000000
00010000
01000000
00000000
00000000
00100000
,
01000000
00000000
00000000
00010000
01000000
00000000
00010000
00000000
,
00200000
00001000
00001000
00301000
,
00101000
00101000
00011000
00011000
,
00010000
00000100
00001000
00000000
,
00001010
00001010
00000110
00000110
,
00000010
00001000
00000001
00000000
,
00000101
00000101
00000110
00000110
,
00000010
00000000
00001000
00000000
00000100
00000000
00000000
00000100
,
00002000
00000100
00000100
00003100
,
00010000
00000000
00000000
00001000
00100000
00010000
01000000
00000000
,
01100000
01000000
01000000
01000000
,
00010000
10000000
00000000
01000000
00100000
00000000
00010000
10000000
,
00000000
00000000
00000000
00000000
;
#NOTES:
     dance-double:
     :
     Hard:
     10:
     :
00000000
00000000
00000000
00000000
,
00000000
00000000
00000000
00000000
,
00000000
00000000
00000000
00000000
,
10100000
00000000
10000000
00000000
01000000
00100000
00000000
00020000
,
00000000
01000000
00100000
01030000
,
00100000
01000000
00010000
00000000
00100000
00001000
00010000
00000000
,
00001000
00010000
00001000
00000100
00000010
00000000
00000110
00000000
,
00000001
00000000
00000100
00000000
00000010
00001000
00000000
00000200
,
00000000
00000000
00010000
00000000
00010300
00001000
00100000
00010000
,
01000000
00000000
00000000
00100000
10000000
00000000
00000000
01000000
,
00100000
00000000
00000000
00010000
10000000
00010000
00100000
01000000
,
10000000
10000000
00000000
00010000
00010000
00000000
01000000
01000000
,
00000000
00000000
00001000
00011000
,
00010000
00010000
00000000
00000100
00000100
00000000
00001000
00001000
,
00000000
00000010
00000010
00000010
,
00001000
00000001
00000000
00000001
00001000
00000000
00001000
00000001
,
00000000
00000000
00000000
00000000
00000000
00000001
00000100
00000010
,
00001000
00000100
00010000
00011000
,
00100000
00010000
01000000
01100000
,
10000000
00100000
10000000
00000000
00010000
00000000
00010000
10000000
,
00100000
01000000
00100000
00000000
01100000
00000000
00000000
00000000
,
00100000
01000000
00100000
00010000
00001000
00000000
00011000
00000000
,
00001000
00010000
00000100
00000000
00001100
00000000
00000000
00000000
,
00001000
00000000
00000001
00000000
00000100
00000010
00000100
00000000
,
00001000
00000000
00000100
00000000
00000010
00001000
00000100
00000000
,
00010000
00000000
00001000
00000000
00010000
00000100
00010000
00000000
,
00001000
00010000
00100000
01000000
00100000
00000000
01100000
00000000
,
00200000
00000000
00300000
01000000
00010000
00100000
01000000
00100000
,
00000000
00010000
00100000
00001000
00010000
00000000
00011000
00000000
,
00000200
00000000
00001300
00001000
00000001
00000100
00000010
00000100
,
00000000
00000100
00001000
00010000
00001000
00000000
00011000
00000000
,
00010000
00020000
00000000
00130000
01000000
10000000
01000000
00000000
,
01000000
02000000
00000000
03100000
00010000
00001000
00000100
00001000
,
00010000
00010000
00000000
00001000
00001000
00000000
00010000
00011000
,
00000000
00000000
00000020
00001030
,
00001010
00000000
00001010
00000000
00001000
00000100
00000000
00000100
,
00001000
00000001
00000010
00000100
00001000
00000000
00001100
00000000
,
00010100
00000000
00010100
00000000
00010000
00001000
00000000
00001000
,
00100000
00010000
01000000
00100000
10000000
00000000
11000000
00000000
,
10010000
00000000
10010000
00000000
10000000
00100000
00000000
00100000
,
01000000
00100000
00010000
00001000
00100000
00001000
00010000
00000100
,
00001000
00000000
00000000
00000010
00001000
00000000
00000000
00000001
,
00000100
00000000
00000000
00000010
00001000
00000001
00000010
00000100
,
00001000
00000100
00011000
00011000
,
00001010
00000000
00001010
00000000
00000001
00000100
00000000
00000100
,
00000010
00001000
00000100
00000010
00000100
00000000
00001100
00000000
,
00010100
00000000
00010100
00000000
00010000
00001000
00000000
00001000
,
00100000
00010000
00100000
01000000
10000000
00000000
11000000
00000000
,
10010000
00000000
10010000
00000000
00010000
00100000
00000000
00100000
,
00001000
00010000
00100000
00010000
00000000
00001000
00000100
00000010
,
00000200
00000000
00001000
00000000
00000001
00000000
00001300
00010000
,
00001000
00000000
00010000
00000100
00001000
00000001
00000010
00000100
,
00002000
00000000
00000000
00000000
,
00003100
00000100
00000000
00010000
00010000
00000000
00011000
00011000
,
00000000
00000000
00000000
00000000
;
