#TITLE:Engraved Mark;
#ARTIST:Ryu☆ ∞ Des-ROW;
#BANNER:Engraved Mark.png;
#BACKGROUND:Engraved Mark-bg.png;
#CDTITLE:./CDTITLES/DDR (2014).png;
#MUSIC:Engraved Mark.ogg;
#SAMPLESTART:65.081;
#SAMPLELENGTH:15;
#BPMS:0=188;
#NOTES:
     dance-single:
     :
     Beginner:
     3:
     :
0000
0000
0000
0000
,
0000
0000
0000
0000
,
0000
0000
0000
0000
,
0000
0000
0000
0000
,
0000
0000
0000
0000
,
0000
0000
0000
0000
,
0001
0001
0001
0000
,
0010
0010
0010
0000
,
1000
1000
1000
0000
,
0100
0100
0100
0000
,
0000
0001
0000
0010
,
0000
1000
0000
0010
,
0000
0001
0000
0010
,
0000
1000
0000
0010
,
0000
1001
0000
0000
,
0000
1001
0000
0000
,
0010
0000
0000
0000
,
0100
0100
0100
0100
,
0100
0000
0000
0000
,
0000
0000
0000
0000
,
0000
0000
0000
0000
,
0000
0000
0000
0000
,
0001
0000
0000
0000
,
0010
0000
1000
0000
,
0100
0000
0000
0000
,
0000
0001
0001
0001
,
0001
0000
0000
0000
,
0100
0000
0001
0000
,
0010
0000
0000
0000
,
0100
0100
0100
0100
,
0100
0000
0000
0000
,
1000
0000
0001
0000
,
1000
0000
0000
0000
,
0000
0010
0010
0010
,
0010
0000
0000
0000
,
0100
0000
0001
0000
,
1000
0000
0000
0000
,
0100
0000
0000
0000
,
1001
0000
0000
0000
,
0000
0000
0000
0000
,
1001
0000
0000
0000
,
0000
0000
0000
0000
,
1001
0000
0000
0000
,
0000
0000
0000
0000
,
1001
0000
0000
0000
,
0000
0000
0000
0000
,
0001
0000
0000
0000
,
1000
0000
0000
0000
,
0001
0000
0010
0000
,
1000
0000
0010
0000
,
0000
0000
0000
0000
,
0000
0000
0000
0000
,
0000
0010
0000
1000
,
0000
0100
0000
0010
,
0000
0001
0000
0100
,
0000
0010
0010
0010
,
0000
1000
0000
0001
,
0000
0010
0000
1000
,
0000
0001
0000
0100
,
0100
0000
0000
0000
,
0001
0001
0001
0000
,
1000
1000
1000
0000
,
0100
0100
0100
0000
,
0010
0010
0010
0000
,
0001
0000
0010
0000
,
1000
0000
0010
0000
,
0001
0000
0100
0000
,
1000
0000
0000
0000
,
0010
0010
0010
0010
,
0010
0000
0000
0000
,
0100
0100
0100
0100
,
0100
0000
0000
0000
,
0001
0001
0001
0001
,
0001
0000
0000
0000
,
1000
1000
1000
1000
,
1000
0000
0000
0000
,
0000
0001
0000
0100
,
0000
1000
0000
0100
,
0000
0001
0000
0100
,
0000
1000
0000
0001
,
0000
1001
0000
1000
,
0000
1001
0000
0001
,
0001
0000
0000
0000
,
0010
0010
0010
0010
,
0010
0000
0000
0000
,
0000
0000
0000
0000
;
#NOTES:
     dance-single:
     :
     Easy:
     8:
     :
0000
0000
0000
0000
,
0000
0000
0000
0000
,
0000
0000
0000
0000
,
0000
0000
0000
0000
,
0000
0000
0000
0000
,
0000
0000
0000
0000
,
0010
1001
0100
0010
,
0001
0100
0010
1000
,
0001
1000
0000
0100
0000
0001
0000
0010
,
0000
1000
0000
0100
0010
0000
0010
0000
,
0100
0000
1000
1000
1000
0000
0010
0000
,
0100
0001
0010
0010
,
0100
0010
0000
0001
0000
0100
0000
1000
,
0000
0010
0000
0001
0100
0000
0100
0000
,
0010
1001
0100
0100
,
0010
1001
0100
0100
,
0020
0000
0000
0030
,
0001
0100
0001
0000
1000
0100
1000
0000
,
2002
0000
0000
0000
,
0000
0000
0000
0000
,
0000
0000
0000
0000
,
0000
0000
0000
3003
,
0001
0100
0000
0100
,
0010
0100
0001
0010
,
0100
1000
0000
1000
,
0010
0100
0001
1000
,
0001
0010
0000
0010
,
0100
1000
0001
0100
,
0010
1000
0000
1000
,
0100
0010
0100
1000
,
0020
0000
0000
0000
,
0230
0000
0302
0000
,
2003
0000
0000
0000
,
0000
3100
0010
0001
,
2000
0000
0000
0000
,
3020
0000
0000
0000
,
0230
0000
0000
0000
,
0302
0000
1003
0000
,
0100
0000
0000
0100
0000
0100
0000
0200
,
0000
0000
0000
0300
,
0001
0000
0000
0001
0000
0001
0000
0002
,
0000
0000
0000
0003
,
0010
0000
0000
0010
0000
0010
0000
0020
,
0000
0000
0000
0030
,
1000
0000
0000
1000
0000
1000
0000
1000
,
0000
1000
0000
1000
0100
0000
0100
0000
,
1001
0000
0000
0000
,
0110
0000
0000
0000
,
1001
0000
0110
0000
,
1001
0110
1001
0110
,
0000
0000
0000
0000
,
1000
0001
0010
0100
,
1000
0100
0010
0001
,
0100
0000
0010
0000
1000
0010
1000
0000
,
0001
0100
1000
0100
,
0001
0000
1000
0000
0100
0100
0100
0000
,
0010
1001
0010
0001
,
0100
1000
0010
1000
,
0001
0001
0100
0001
,
0020
0000
0130
0110
,
0001
0100
0001
0010
,
0100
0000
1000
0000
0100
1000
0100
0000
,
0010
0001
1000
0010
,
0100
0010
0100
0100
,
0010
1001
0010
1000
,
0100
1001
0010
0001
,
0100
0001
0010
0001
,
0100
1000
0001
0110
,
1000
0010
1000
0100
,
0010
0000
0001
0000
0100
0001
0100
0000
,
0000
0010
0000
1000
0000
0100
0000
0001
,
0000
0010
0000
1000
0010
0010
0010
0000
,
0100
1001
0010
0001
,
0100
1000
0010
1000
,
0001
0001
0010
0001
,
2000
0000
3010
0110
,
0001
0010
0001
0100
,
0010
0000
1000
0000
0001
0100
0001
0000
,
0000
0010
0000
0001
0000
0100
0000
1000
,
0000
0010
0000
0001
0010
0000
0010
0000
,
0100
1001
0010
1000
,
0100
1001
0010
0001
,
0200
0000
0000
0300
,
0010
1000
0010
0000
0100
0001
0100
0000
,
0010
0000
0000
0000
,
0000
0000
0000
0000
;
#NOTES:
     dance-single:
     :
     Medium:
     12:
     :
0000
0000
0000
0000
,
0000
0000
0000
0000
,
0000
0000
0000
0000
,
0000
0000
0000
0000
,
0000
0000
0000
0000
,
0000
0000
0000
0000
,
0010
0000
1001
0000
0010
0001
0100
0010
,
1000
0010
1000
0010
0100
0001
0100
0000
,
1000
0001
0000
0010
0000
1000
0000
0100
,
0000
0010
0001
0010
0100
1000
0100
0000
,
0010
0000
0010
0001
0000
0001
0100
0000
,
0010
0000
1000
0010
0100
0001
0100
0000
,
0010
0100
0000
1000
0000
0010
0000
0001
,
0000
0100
0000
0010
1000
0001
1000
0000
,
0100
0000
1001
0000
0010
1000
0100
0000
,
0010
0000
1001
0000
0010
0001
0100
0000
,
0010
1000
0100
0010
0001
0100
0010
0100
,
0001
0010
0100
1000
0001
0100
0010
0000
,
2002
0000
0000
0000
,
0000
0000
0000
0000
,
0000
0000
0000
0000
,
0000
0000
0000
3003
,
1000
0000
0010
0010
0010
0000
0100
0001
,
0100
0000
0010
0000
1000
0100
1000
0100
,
0010
0000
0001
0001
0001
0000
1000
0001
,
0100
0000
0010
0000
0100
0010
0100
0010
,
1000
0000
0001
0001
0001
0000
0010
0100
,
0010
0000
0001
0000
1000
0010
1000
0010
,
0100
0000
0001
0001
0001
0000
1000
0100
,
1000
0000
0001
0000
1000
0001
0010
0000
,
0100
0000
0001
0001
0001
0000
1000
0100
,
0010
0000
0001
0000
0100
0001
0100
0001
,
1000
0000
0010
0010
0010
0000
1000
0001
,
0100
0000
0010
0000
0100
0010
0100
0010
,
1000
0000
0001
0001
0001
0000
0010
0100
,
0010
0000
1000
0000
0001
0010
0001
0010
,
0100
0000
1000
1000
1000
0000
0001
0100
,
0001
0000
1000
0000
0001
1000
0100
0000
,
0010
0001
1000
0010
0000
0010
0000
0020
,
0000
0000
0000
0030
,
0010
1000
0001
0010
0000
0010
0000
0020
,
0000
0000
0000
0030
,
0010
0001
1000
0010
0000
0010
0000
0020
,
0000
0000
0000
0030
,
0010
1000
0001
0010
0000
0010
0000
0010
,
0000
0010
0000
0010
0001
0010
0100
0000
,
1000
0001
0100
0001
0000
0001
0000
0001
,
1000
0010
0100
0010
0000
0010
1000
0100
,
0010
0001
0100
0000
0010
1000
0100
0000
,
0001
0100
0010
1000
0001
0010
0100
1000
,
0000
0000
0000
0000
,
1001
0000
0110
0000
1000
0100
0010
0000
,
0001
1000
0010
1000
0001
0100
0010
1000
,
0100
0010
0100
1000
0001
1000
0100
0000
,
0010
0001
1000
0001
0100
0010
1000
0100
,
0010
0000
0100
0000
0010
0010
0010
0000
,
0100
0000
1001
0000
0100
0010
1000
0100
,
0010
0000
0001
1000
0010
0100
0001
0000
,
1000
0010
1000
0001
0010
0001
1000
0001
,
1000
0010
0100
0110
,
1000
0001
0010
0001
1000
0100
0010
0001
,
0100
0010
0100
0001
1000
0001
0100
0000
,
0010
0000
0000
1000
0000
0000
0001
0000
0000
1000
0000
0000
0100
0000
1000
0000
,
0010
0100
0010
0010
,
0100
0000
1001
0000
0100
0010
0001
0100
,
0010
0000
1001
0000
0100
0010
1000
0100
,
0010
0001
1000
0001
0100
0010
1000
0100
,
0010
0001
1000
0110
,
0001
1000
0100
1000
0001
0010
0100
1000
,
0010
0100
0010
1000
0001
1000
0010
0000
,
0000
0101
0000
0011
0000
1010
0000
1100
,
0000
0101
0000
0011
0100
0100
0100
0000
,
0010
0000
1001
0000
0010
0100
1000
0010
,
0100
0000
0001
1000
0100
0010
0001
0000
,
1000
0100
1000
0001
0100
0001
1000
0001
,
1000
0100
0010
0110
,
1000
0001
0100
0001
1000
0010
0100
0001
,
0010
0100
0010
0001
1000
0001
0010
0000
,
0000
1100
0000
1010
0000
0011
0000
0101
,
0000
1100
0000
1010
0100
0000
0100
0000
,
0010
0000
1001
0000
0010
0100
0001
0010
,
0100
0000
1001
0000
0010
0100
1000
0010
,
0100
0001
1000
0001
0010
0100
1000
0010
,
0100
0000
0001
0000
1000
0100
0010
0001
,
1000
0000
0000
0000
,
0000
0000
0000
0000
;
#NOTES:
     dance-single:
     :
     Hard:
     15:
     :
0000
0000
0000
0000
,
0000
0000
0000
0000
,
0000
0000
0000
0000
,
0000
0000
0000
0000
,
0000
0000
0000
0000
,
0000
0000
0000
0000
,
0010
0000
1001
0100
0010
1000
0100
0010
,
0001
0010
0001
0010
0100
1000
0100
0000
,
0101
1000
0000
0010
0000
0001
0000
0100
,
0000
0000
0010
0000
1000
0000
0010
0000
0100
0010
0100
0000
0001
0000
0100
0000
,
0010
0000
0000
0000
0010
0000
1000
0100
1000
0001
0100
0001
1000
0000
0001
0000
,
0010
0000
0001
0010
0100
1000
0100
0000
,
1010
0100
0000
0001
0000
0010
0000
1000
,
0000
0100
0000
0010
0001
1000
0001
0000
,
0100
0010
0100
0010
1000
0000
0000
0000
0100
0000
0000
0000
0100
0000
0000
0000
,
0010
0001
0010
0001
1000
0000
0000
0000
0010
0000
0000
0000
0010
0000
0000
0000
,
0100
0010
1000
0000
0100
0000
0010
0000
0001
0000
0100
0000
0010
0000
1000
0000
,
0001
1000
0100
0000
0010
0000
0001
0000
1000
0000
0010
0000
0100
0000
0001
0000
,
2000
0000
0000
0000
,
0000
0000
0000
0000
,
0000
0000
0000
0000
,
0000
0000
0000
0000
,
3001
0000
0000
0000
0010
0000
0010
0000
0010
0000
0000
0000
1000
0100
1000
0100
,
0010
0000
0000
0000
0001
0000
0000
0000
0100
0001
0100
0001
0100
0001
0100
0001
,
1000
0000
0000
0000
0010
0000
0010
0000
0010
0000
0000
0000
0010
0100
0010
0100
,
0001
0000
0000
0000
0010
0000
0000
0000
0100
1000
0100
1000
0100
1000
0100
1000
,
0001
0000
0000
0000
1000
0000
1000
0000
1000
0000
0000
0000
0010
0100
0010
0100
,
0010
0000
0000
0000
1000
0000
0000
0000
0001
0010
0001
0010
0001
0010
0001
0010
,
0100
0000
0000
0000
1000
0000
1000
0000
1000
0000
0000
0000
0001
0100
0001
0100
,
0001
0000
0000
0000
1000
0000
0000
0000
0001
1000
0100
0000
0010
0000
0000
0000
,
0100
0000
0000
0000
1000
0000
1000
0000
1000
0000
0000
0000
0001
0100
0001
0100
,
0010
0000
0000
0000
1000
0000
0000
0000
0100
1000
0100
1000
0100
1000
0100
1000
,
0001
0000
0000
0000
0010
0000
0010
0000
0010
0000
0000
0000
0010
0100
0010
0100
,
1000
0000
0000
0000
0010
0000
0000
0000
0100
0001
0100
0001
0100
0001
0100
0001
,
1000
0000
0000
0000
0001
0000
0001
0000
0001
0000
0000
0000
0010
0100
0010
0100
,
0010
0000
0000
0000
0001
0000
0000
0000
1000
0010
1000
0010
1000
0010
1000
0010
,
0100
0000
0000
0000
0001
0000
0001
0000
0001
0000
0000
0000
1000
0100
1000
0100
,
1000
0000
0000
0000
0001
0000
0000
0000
1000
0001
0100
0000
0010
0000
0000
0000
,
1000
0001
0010
0100
0000
0100
0000
0200
,
0000
0000
0000
0300
,
1000
0001
0100
0010
0000
0010
0000
0020
,
0000
0000
0000
0030
,
1000
0001
0010
0100
0000
0100
0000
0200
,
0000
0000
0000
0300
,
1000
0001
0100
0010
0000
0010
0000
0010
,
0000
0010
0000
0010
1000
0010
0100
0010
,
1000
0001
0100
1000
0000
1000
0000
1000
,
0100
0001
1000
0100
0000
0100
0010
0100
,
1000
0100
0010
0001
1000
0100
0010
0001
,
1000
0010
1000
0010
1000
0010
1000
0010
0100
0001
0100
0001
0100
0001
0100
0001
,
0000
0000
0000
0000
,
1001
0000
0110
0000
0001
0100
0010
0100
,
0001
0000
1000
0100
1000
0000
0001
0000
1000
0010
1000
0000
0001
0000
1000
0000
,
0001
0000
0010
0100
0010
0000
0001
0000
0100
0010
0100
0000
0001
0000
0000
0000
,
1000
0000
0001
0100
0001
0000
1000
0000
0001
0010
0001
0000
1000
0000
0001
0000
,
1000
0000
0010
0000
0100
0100
0100
0100
,
0010
0000
0000
0000
1001
0000
0010
0000
0100
0001
0100
0000
0010
0000
1000
0000
,
0100
0000
1000
0100
1000
0000
0001
0000
0100
0001
0100
0000
0010
0000
0000
0000
,
1000
0000
0001
0010
0001
0000
1000
0000
0001
0100
0001
0000
1000
0000
0000
0000
,
0001
0000
0010
0000
0100
0010
0110
0000
,
1000
0000
0001
0100
0001
0000
1000
0000
0001
0010
0001
0000
1000
0000
0001
0000
,
1000
0000
0010
0100
0010
0000
1000
0000
0100
0010
0100
0000
1000
0000
0000
0000
,
0101
0000
0000
1100
0000
0000
0101
0000
0000
1100
0000
0000
0001
0000
1000
0000
,
0001
0000
0010
0000
0100
0010
0100
0000
,
0010
0000
0000
0000
1001
0000
0010
0000
0100
1000
0100
0000
0010
0000
0100
0000
,
0010
0000
0000
0000
1001
0000
0010
0000
0100
0001
0100
0000
0010
0000
1000
0000
,
0001
0000
1000
0001
0000
0010
0001
1000
,
0010
0100
0001
1000
0100
0010
1001
0000
,
0001
0000
1000
0010
1000
0000
0001
0000
1000
0100
1000
0000
0001
0000
1000
0000
,
0001
0000
0100
0010
0100
0000
0001
0000
0010
0100
0010
0000
0001
0000
0000
0000
,
1000
0000
0001
0010
0000
0000
0010
1000
0000
0000
1000
0100
0000
0000
0100
0001
,
0000
0000
0001
0010
0000
0000
0010
1000
0010
0000
0010
0000
0010
0000
0010
0000
,
0100
0000
0000
0000
1001
0000
0100
0000
0010
0001
0010
0000
0100
0000
1000
0000
,
0010
0000
1000
0010
1000
0000
0001
0000
0010
0001
0010
0000
0100
0000
0000
0000
,
1000
0000
0001
0100
0001
0000
1000
0000
0001
0010
0001
0000
1000
0000
0000
0000
,
0001
0000
0100
0010
0000
0100
0001
0000
,
1000
0000
0001
0010
0001
0000
1000
0000
0001
0100
0001
0000
1000
0000
0001
0000
,
1000
0000
0100
0010
0100
0000
1000
0000
0010
0100
0010
0000
1000
0000
0000
0000
,
0001
0000
0010
0001
0000
0000
0001
0100
0000
0000
0100
1000
0000
0000
1000
0010
,
0000
0000
0010
0001
0000
0000
0001
0100
0010
0000
0100
0000
0010
0000
0000
0000
,
0100
0000
0000
0000
1001
0000
0100
0000
0010
1000
0010
0000
0100
0000
0010
0000
,
0100
0000
0000
0000
1001
0000
0100
0000
0010
0001
0010
0000
0100
0000
1000
0000
,
0001
1000
0001
1000
0001
1000
0010
0100
0010
0100
0010
0100
0010
0100
0010
0100
,
0001
0000
1000
0010
0100
0001
1000
0100
,
0010
0000
0000
0000
,
0000
0000
0000
0000
;
#NOTES:
     dance-double:
     :
     Easy:
     8:
     :
00000000
00000000
00000000
00000000
,
00000000
00000000
00000000
00000000
,
00000000
00000000
00000000
00000000
,
00000000
00000000
00000000
00000000
,
00000000
00000000
00000000
00000000
,
00000000
00000000
00000000
00000000
,
00100000
10000000
01000000
00010000
,
00001000
00000100
00000001
00000010
,
00000100
00000010
00000000
00000010
00000000
00000001
00000000
00000001
,
00000000
00000100
00000000
00000100
00001000
00000000
00010000
00000000
,
00100000
00000000
01000000
01000000
01000000
00000000
00100000
00000000
,
10000000
01000000
00100000
00100000
,
00001000
00010000
00000000
00000010
00000000
00001000
00000000
00000001
,
00000000
00000100
00000000
00000010
00001000
00000000
00000001
00000000
,
00000010
00001100
00000000
00000001
,
00000100
00000110
00000000
00000010
,
00020000
00000000
00000000
00030000
,
00001000
00010000
00001000
00000000
00100000
00010000
00100000
00000000
,
02200000
00000000
00000000
00000000
,
00000000
00000000
00000000
00000000
,
00000000
00000000
00000000
00000000
,
00000000
00000000
00000000
03300000
,
10000000
01000000
00000000
01000000
,
00010000
00001000
00000100
00000001
,
00001000
00000100
00000000
00000100
,
00000010
00000001
00000100
00000010
,
00001000
00000100
00000000
00000100
,
00000010
00001000
00010000
01000000
,
00100000
00010000
00000000
00010000
,
01000000
00100000
01000000
00010000
,
00200000
00000000
00000000
00000000
,
02300000
00000000
23000000
00000000
,
30200000
00000000
00000000
00000000
,
00000000
00310000
00001000
00010000
,
00002000
00000000
00000000
00000000
,
00003200
00000000
00000000
00000000
,
00000302
00000000
00000000
00000000
,
00002003
00000000
00003010
00000000
,
00000100
00000000
00000000
00000100
00000000
00000100
00000000
00000200
,
00000000
00000000
00000000
00000300
,
00001000
00000000
00000000
00001000
00000000
00001000
00000000
00002000
,
00000000
00000000
00000000
00003000
,
00010000
00000000
00000000
00010000
00000000
00010000
00000000
00020000
,
00000000
00000000
00000000
00030000
,
00100000
00000000
00000000
00100000
00000000
00100000
00000000
00100000
,
00000000
00100000
00000000
00100000
01000000
00000000
01000000
00000000
,
10010000
00000000
00000000
00000000
,
01100000
00000000
00000000
00000000
,
10010000
00000000
01100000
00000000
,
10100000
10010000
01010000
00011000
,
00000000
00000000
00000000
00000000
,
00010000
00001000
00000010
00000001
,
00001000
00000010
00000100
00000001
,
00001000
00000000
00000100
00000000
00000010
00000100
00000010
00000000
,
00000100
00010000
00001000
01000000
,
00100000
00000000
10000000
00000000
01000000
01000000
01000000
00000000
,
00100000
10010000
00100000
10000000
,
01000000
00010000
00001000
00000100
,
00000001
00000100
00001000
00000100
,
00000020
00000000
00000130
00000110
,
00001000
00000001
00000100
00001000
,
00010000
00000000
00100000
00000000
01000000
00100000
01000000
00000000
,
00100000
10000000
01000000
00100000
,
00010000
10000000
00100000
01000000
,
00001000
00011000
00000000
00010000
,
00000010
00001010
00000000
00000100
,
00000001
00001000
00000100
00000010
,
00000001
00000010
00000100
00000110
,
00001000
00000100
00000010
00001000
,
00010000
00000000
00100000
00000000
01000000
00100000
01000000
00000000
,
00000000
00100000
00000000
10000000
00000000
01000000
00000000
00010000
,
00000000
00100000
00000000
10000000
00100000
00100000
00100000
00000000
,
01000000
10010000
01000000
10000000
,
00100000
00010000
00001000
00000010
,
00000001
00000010
00001000
00000010
,
00000200
00000000
00000310
00000110
,
00001000
00000001
00000010
00001000
,
00010000
00000000
01000000
00000000
00100000
01000000
00100000
00000000
,
00000000
01000000
00000000
10000000
00000000
00100000
00000000
01000000
,
00000000
00010000
00000000
10000000
01000000
00000000
00100000
00000000
,
00001000
00011000
00000000
00010000
,
00000100
00001100
00000000
00000010
,
00000002
00000000
00000200
00000303
,
00000010
00000100
00000010
00000000
00001000
00000001
00001000
00000000
,
00001100
00000000
00000000
00000000
,
00000000
00000000
00000000
00000000
;
#NOTES:
     dance-double:
     :
     Medium:
     13:
     :
00000000
00000000
00000000
00000000
,
00000000
00000000
00000000
00000000
,
00000000
00000000
00000000
00000000
,
00000000
00000000
00000000
00000000
,
00000000
00000000
00000000
00000000
,
00000000
00000000
00000000
00000000
,
00001000
00000000
00011000
00000000
00100000
00010000
00100000
01000000
,
10000000
00100000
01000000
00010000
00100000
00001000
00010000
00000000
,
00001000
00000010
00000000
00000001
00000000
00000100
00000000
00001000
,
00000000
00010000
01000000
00100000
00010000
10000000
00100000
00000000
,
01000000
00000000
00010000
00100000
00000000
01000000
00100000
00000000
,
00010000
00000000
10000000
00100000
00010000
00001000
00010000
00000000
,
00001000
00000100
00000000
00000001
00000000
00000010
00000000
00001000
,
00000000
00010000
00000000
00100000
10000000
00010000
10000000
00000000
,
00100000
00000000
10010000
00000000
01000000
00100000
01000000
00000000
,
00001000
00000000
00011000
00000000
00000100
00001000
00000010
00000000
,
00000100
00000001
00001000
00000100
00000010
00000001
00000010
00000100
,
00010000
00001000
00100000
00010000
01000000
00100000
10000000
00000000
,
20020000
00000000
00000000
00000000
,
00000000
00000000
00000000
00000000
,
00000000
00000000
00000000
00000000
,
00000000
00000000
00000000
30030000
,
00100000
00000000
01000000
01000000
01000000
00000000
00001000
00010000
,
00001000
00000000
00000010
00000000
00000100
00001000
00000100
00001000
,
00000001
00000000
00000100
00000100
00000100
00000000
00000010
00010000
,
00000100
00000000
00001000
00000000
00010000
00001000
00010000
00001000
,
00010000
00000000
01000000
01000000
01000000
00000000
00100000
00010000
,
01000000
00000000
00010000
00000000
10000000
00100000
10000000
00100000
,
01000000
00000000
00010000
00010000
00010000
00000000
00001000
00010000
,
00001000
00000000
00000010
00000000
00000001
00000100
00000010
00000000
,
00000100
00000000
00000010
00000010
00000010
00000000
00001000
00000100
,
00000001
00000000
00000100
00000000
00010000
00001000
00010000
00001000
,
00100000
00000000
01000000
01000000
01000000
00000000
10000000
00010000
,
01000000
00000000
00100000
00000000
01000000
00010000
01000000
00010000
,
10000000
00000000
01000000
01000000
01000000
00000000
00010000
00001000
,
00010000
00000000
00001000
00000000
00000010
00000100
00000010
00000100
,
00001000
00000000
00000001
00000001
00000001
00000000
00000100
00000010
,
00001000
00000000
00000100
00000000
00010000
00001000
00010000
00000000
,
00100000
00010000
10000000
00100000
00000000
00100000
00000000
00200000
,
00000000
00000000
00000000
00300000
,
01000000
00010000
10000000
01000000
00000000
01000000
00000000
02000000
,
00000000
00000000
00000000
03000000
,
00010000
00001000
00010000
00000100
00000000
00000100
00000000
00000200
,
00000000
00000000
00000000
00000300
,
00001000
00000001
00000100
00000001
00000000
00000001
00000000
00000001
,
00000000
00000001
00000000
00000001
00000010
00000100
00001000
00000000
,
00000010
00000100
00000010
00010000
00000000
00010000
00000000
00010000
,
00001000
01000000
00100000
01000000
00000000
01000000
00010000
00100000
,
01000000
10000000
00100000
00000000
01000000
00010000
00100000
00000000
,
00010000
10000000
01000000
00100000
00010000
00001000
00000100
00000010
,
00000000
00000000
00000000
00000000
,
00001001
00000000
00001010
00000000
00000100
00000001
00000010
00000000
,
00000001
00001000
00000010
00001000
00000010
00000100
00001000
00010000
,
00100000
01000000
00100000
10000000
00010000
10000000
01000000
00000000
,
00100000
00001000
01000000
00010000
00100000
01000000
10000000
00100000
,
01000000
00000000
00001000
00000000
00010000
00010000
00010000
00000000
,
00000100
00000000
00001100
00000000
00000010
00000001
00000100
00000010
,
00001000
00000000
00000100
00010000
00001000
00000010
00000001
00000000
,
00001000
00000100
00001000
00000001
00000100
00000010
00010000
00001000
,
00010000
00100000
01000000
01100000
,
10000000
00010000
00100000
00010000
00100000
01000000
00010000
00001000
,
00000010
00000100
00000010
00000001
00001000
00000001
00000100
00000000
,
00000010
00000000
00000000
00010000
00000000
00000000
00000100
00000000
00000000
00000010
00000000
00000000
00001000
00000000
00010000
00000000
,
00001000
00000000
00100000
00000000
00010000
00010000
00010000
00000000
,
01000000
00000000
01010000
00000000
00100000
10000000
01000000
00100000
,
00010000
00000000
01100000
00000000
00010000
00100000
10000000
00100000
,
00010000
01000000
00010000
10000000
01000000
00100000
00001000
00010000
,
00001000
00000010
00000100
00000110
,
00000001
00001000
00000100
00001000
00000100
00000010
00001000
00010000
,
01000000
00100000
01000000
10000000
00010000
10000000
00100000
00000000
,
00000000
01010000
00000000
00110000
00000000
01100000
00000000
11000000
,
00000000
01010000
00000000
00011000
00001000
00010000
00001000
00000000
,
00000010
00000000
00001010
00000000
00000100
00000001
00000010
00000100
,
00001000
00000000
00000010
00010000
00001000
00000100
00000001
00000000
,
00001000
00000010
00001000
00000001
00000010
00000100
00010000
00001000
,
00010000
01000000
00100000
01100000
,
10000000
00010000
01000000
00010000
01000000
00100000
00010000
00001000
,
00000100
00000010
00000100
00000001
00001000
00000001
00000010
00000000
,
00000000
00001100
00000000
00001010
00000000
00011000
00000000
00110000
,
00000000
10100000
00000000
01010000
00010000
10000000
00010000
00000000
,
00100000
00000000
00110000
00000000
01000000
10000000
00100000
01000000
,
00010000
00000000
01100000
00000000
00010000
01000000
10000000
01000000
,
00010000
00100000
00010000
10000000
00100000
01000000
00001000
00010000
,
00001000
00000000
00000100
00000000
00000010
00001000
00000001
00000010
,
00000100
00000000
00000000
00000000
,
00000000
00000000
00000000
00000000
;
#NOTES:
     dance-double:
     :
     Hard:
     15:
     :
00000000
00000000
00000000
00000000
,
00000000
00000000
00000000
00000000
,
00000000
00000000
00000000
00000000
,
00000000
00000000
00000000
00000000
,
00000000
00000000
00000000
00000000
,
00000000
00000000
00000000
00000000
,
00000010
00000000
00001001
00000100
00000010
00000001
00000100
00000010
,
00000100
00001000
00010000
01000000
10000000
00100000
01000000
00000000
,
00020000
00100000
00000000
00001000
00000000
00100000
00000000
00001000
,
00030000
00000000
00100000
00000000
00001000
00000000
00010000
00000000
00000010
00001000
00000010
00000000
00001000
00000000
00000100
00000000
,
00000010
00000000
00000000
00000000
00000001
00000000
00001000
00000010
00001000
00000010
00001000
00000010
00001000
00000000
00000100
00000000
,
00000010
00000000
00000100
00010000
00001000
00100000
00010000
00000000
,
02000000
00001000
00000000
00100000
00000000
00001000
00000000
00100000
,
00000000
00001000
00000000
03100000
10000000
01000000
00100000
00000000
,
00010000
01000000
00010000
01000000
00100000
00000000
00000000
00000000
00010000
00000000
00000000
00000000
00001000
00000000
00000000
00000000
,
00000010
00000100
00000010
00000100
00001000
00000000
00000000
00000000
00000001
00000000
00000000
00000000
00000010
00000000
00000000
00000000
,
00000100
00000010
00000001
00000000
00000100
00000000
00000010
00000000
00001000
00000000
00000100
00000000
00000010
00000000
00000100
00000000
,
00010000
00001000
00010000
00000000
00001000
00000000
00100000
00000000
01000000
00000000
10000000
00000000
00010000
00000000
01000000
00000000
,
00200000
00000000
00000000
00000000
,
00000000
00000000
00000000
00000000
,
00000000
00000000
00000000
00000000
,
00000000
00000000
00000000
00000000
,
01300000
00000000
00000000
00000000
00100000
00000000
10000000
00000000
01000000
00000000
00000000
00000000
00100000
00010000
00100000
00010000
,
10000000
00000000
00000000
00000000
00010000
00000000
00000000
00000000
01000000
00001000
01000000
00001000
01000000
00001000
01000000
00001000
,
00010000
00000000
00000000
00000000
00000100
00000000
00000100
00000000
00000100
00000000
00000000
00000000
00000010
00000100
00000010
00000100
,
00001000
00000000
00000000
00000000
00000010
00000000
00000000
00000000
00000100
00000001
00000100
00000001
00000100
00000001
00000100
00000001
,
00001000
00000000
00000000
00000000
00000001
00000000
00000001
00000000
00000001
00000000
00000000
00000000
00000010
00001000
00000010
00001000
,
00000010
00000000
00000000
00000000
00001000
00000000
00000000
00000000
00010000
00001000
00010000
00001000
00010000
00001000
00010000
00001000
,
01000000
00000000
00000000
00000000
00100000
00000000
00100000
00000000
00100000
00000000
00000000
00000000
10000000
00010000
10000000
00010000
,
10000000
00000000
00000000
00000000
01000000
00000000
00000000
00000000
00100000
00010000
00100000
00000000
01000000
00000000
00000000
00000000
,
10000000
00000000
00000000
00000000
00010000
00000000
00010000
00000000
00010000
00000000
00000000
00000000
00100000
00001000
00100000
00001000
,
00010000
00000000
00000000
00000000
00000010
00000000
00000000
00000000
00000100
00000001
00000100
00000001
00000100
00000001
00000100
00000001
,
00001000
00000000
00000000
00000000
00000100
00000000
00000100
00000000
00000100
00000000
00000000
00000000
00000010
00000100
00000010
00000100
,
00001000
00000000
00000000
00000000
00000010
00000000
00000000
00000000
00000100
00000010
00000100
00000010
00000100
00000010
00000100
00000010
,
00001000
00000000
00000000
00000000
00010000
00000000
00010000
00000000
00010000
00000000
00000000
00000000
01000000
00100000
01000000
00100000
,
01000000
00000000
00000000
00000000
00010000
00000000
00000000
00000000
10000000
01000000
10000000
01000000
10000000
01000000
10000000
01000000
,
00100000
00000000
00000000
00000000
00010000
00000000
00010000
00000000
00010000
00000000
00000000
00000000
01000000
00010000
01000000
00010000
,
01000000
00000000
00000000
00000000
00100000
00000000
00000000
00000000
10000000
00010000
10000000
00000000
01000000
00000000
00000000
00000000
,
10000000
01000000
00010000
00001000
00000000
00001000
00000000
00002000
,
00000000
00000000
00000000
00003000
,
00010000
00001000
00000100
00000001
00000000
00000001
00000000
00000002
,
00000000
00000000
00000000
00000000
00000000
00000000
00000000
00000000
00000000
00000000
00000000
00000003
00000000
00000000
00000000
00000000
,
00001000
00000001
00000010
00000100
00000000
00000100
00000000
00000200
,
00000000
00000000
00000000
00000300
,
00000010
00001000
00010000
00001000
00000000
00001000
00000000
00001000
,
00000000
00001000
00000000
00001000
00010000
00100000
10000000
01000000
,
00100000
00010000
01000000
00100000
00000000
00100000
00000000
00100000
,
00010000
00001000
00010000
00000100
00000000
00000100
00001000
00000100
,
00000010
00000001
00000100
00000010
00001000
00000100
00000010
00000001
,
00001000
00000010
00001000
00000010
00001000
00000010
00001000
00000010
00010000
00001000
00010000
00001000
00010000
00001000
00010000
00001000
,
00000000
00000000
00000000
00000000
,
00110000
00000000
11000000
00000000
00100000
00010000
01000000
00100000
,
10000000
00000000
01000000
10000000
01000000
00000000
00100000
00000000
01000000
00100000
01000000
00000000
00010000
00000000
00001000
00000000
,
00010000
00000000
00000010
00001000
00000010
00000000
00001000
00000000
00000001
00000100
00000001
00000000
00001000
00000000
00000000
00000000
,
00000001
00000000
00001000
00000100
00001000
00000000
00000001
00000000
00000100
00000010
00000100
00000000
00000001
00000000
00001000
00000000
,
00000100
00000000
00000010
00000000
00001000
00001000
00001000
00001000
,
00010000
00000000
00110000
01000000
10000000
00010000
01000000
00100000
,
01000000
00000000
00010000
01000000
00010000
00000000
10000000
00000000
01000000
00100000
01000000
00000000
00010000
00000000
00000000
00000000
,
00001000
00000000
00100000
00010000
00100000
00000000
00001000
00000000
01000000
00010000
01000000
00000000
00001000
00000000
00000000
00000000
,
00010000
00000000
00000010
00000000
00000100
00000001
00000010
00000100
,
00001000
00000000
00000001
00000100
00000001
00000000
00001000
00000000
00000100
00010000
00000100
00000000
00010000
00000000
00001000
00000000
,
00100000
00000000
00010000
00100000
00010000
00000000
10000000
00000000
00010000
01000000
00010000
00000000
10000000
00000000
00000000
00000000
,
10100000
00000000
00000000
01100000
00000000
00000000
10100000
00000000
00000000
01100000
00000000
00000000
00010000
00000000
10000000
00000000
,
01000000
00000000
00010000
00000000
00001000
00010000
00001000
00000000
,
00000100
00000000
00001001
00000100
00000010
00000001
00000100
00000010
,
00000100
00000000
00001001
00000010
00010000
00001000
00100000
00010000
,
10000000
00000000
00100000
01000000
00000000
00010000
00100000
01000000
,
10000000
00100000
01000000
00010000
00001000
00000010
00000100
00000000
,
00000001
00000000
00000100
00000001
00000100
00000000
00000010
00000000
00000100
00000010
00000100
00000000
00001000
00000000
00010000
00000000
,
00001000
00000000
00100000
00010000
00100000
00000000
00010000
00000000
10000000
01000000
10000000
00000000
00010000
00000000
00000000
00000000
,
10000000
00000000
00010000
01000000
00000000
00000000
00100000
10000000
00000000
00000000
01000000
10000000
00000000
00000000
00010000
00100000
,
00000000
00000000
00001000
00010000
00000000
00000000
00000010
00001000
00000001
00000000
00000001
00000000
00000001
00000000
00000001
00000000
,
00001000
00000000
00001010
00000100
00000001
00001000
00000100
00000010
,
00000100
00000000
00001000
00000100
00001000
00000000
00000001
00000000
00000100
00000010
00000100
00000000
00001000
00000000
00000000
00000000
,
00010000
00000000
00000010
00001000
00000010
00000000
00010000
00000000
00000100
00001000
00000100
00000000
00010000
00000000
00000000
00000000
,
00001000
00000000
00100000
00000000
01000000
10000000
00100000
01000000
,
00010000
00000000
10000000
01000000
10000000
00000000
00010000
00000000
01000000
00001000
01000000
00000000
00001000
00000000
00010000
00000000
,
00000010
00000000
00001000
00000010
00001000
00000000
00000001
00000000
00001000
00000100
00001000
00000000
00000001
00000000
00000000
00000000
,
00000010
00000000
00000100
00001000
00000000
00000000
00001000
00010000
00000000
00000000
00010000
00100000
00000000
00000000
01000000
10000000
,
00000000
00000000
00010000
01000000
00000000
00000000
00100000
10000000
00010000
00000000
10000000
00000000
00010000
00000000
00000000
00000000
,
01000000
00000000
10010000
01000000
00100000
10000000
01000000
00100000
,
01000000
00000000
10010000
00100000
00001000
00010000
00000010
00001000
,
00000001
00000010
00000001
00000010
00000001
00000010
00000100
00001000
00000100
00001000
00000100
00001000
00000100
00001000
00000100
00001000
,
00000001
00000000
00000100
00001000
00010000
00100000
10000000
00010000
,
00100000
00000000
00000000
00000000
,
00000000
00000000
00000000
00000000
;
