#TITLE:Elysium;
#ARTIST:nc ft. NRG Factory;
#BANNER:Elysium.png;
#BACKGROUND:Elysium-bg.png;
#CDTITLE:./CDTitles/DDR (2014).png;
#MUSIC:Elysium.ogg;
#SAMPLESTART:54.621;
#SAMPLELENGTH:15;
#BPMS:0=145;
#STOPS:131=0.414;
#NOTES:
     dance-single:
     :
     Beginner:
     2:
     :
0000
0000
0000
0000
,
0000
0000
0000
0000
,
0000
0000
0000
0000
,
0000
0000
0000
0000
,
0000
0000
0000
0000
,
0010
0000
0000
0000
,
0001
0000
0000
0000
,
1000
0000
0000
0000
,
0100
0000
0100
0000
,
0010
0000
0000
0000
,
0010
0000
0000
0000
,
0100
0000
0000
0000
,
0100
0000
0000
0000
,
1000
0000
0000
0000
,
1000
0000
0000
0000
,
0001
0000
0000
0000
,
0001
0000
0000
0000
,
1000
0000
1000
0000
,
1000
0000
0000
0000
,
0010
0000
0010
0000
,
0010
0000
0000
0000
,
0100
0000
0100
0000
,
0100
0000
0000
0000
,
0001
0000
0001
0000
,
0001
0000
0000
0000
,
0010
0000
0010
0000
,
0100
0000
0000
0000
,
0001
0000
0001
0000
,
1000
0000
0000
0000
,
0100
0000
0100
0000
,
0010
0000
0000
0000
,
0100
0000
0000
0000
,
1001
0000
0000
0000
,
0000
0000
0000
0010
,
0000
0000
0000
0100
,
0000
0000
0000
0010
,
0000
0000
0000
1000
,
0000
0000
0000
0001
,
0000
0000
0000
0010
,
0000
0010
0000
0100
,
0000
0100
0000
0001
,
0000
0000
0000
1000
,
0000
0000
0000
0100
,
0000
0100
0000
0010
,
0000
0000
0000
0001
,
0000
0001
0000
1000
,
0000
0000
0000
0010
,
0000
0010
0000
0100
,
0000
0000
0000
0010
,
0000
0000
0000
1000
,
0000
0000
0000
0001
,
0000
0000
0000
0100
,
0000
0000
0000
0010
,
0000
0010
0000
0010
,
0000
0010
0000
0100
,
0000
0100
0000
0100
,
0000
0100
0000
0000
,
0000
0000
0000
0000
;
#NOTES:
     dance-single:
     :
     Easy:
     5:
     :
0000
0000
0000
0000
,
0000
0000
0000
0000
,
0000
0000
0000
0000
,
0000
0000
0000
0000
,
0000
0000
0000
0000
,
1000
0001
0100
0000
,
0001
1000
0100
0000
,
0010
0001
0100
0000
,
0010
1000
0100
0000
,
2000
0000
0000
0000
,
3002
0000
0000
0000
,
0013
0000
1000
0000
,
0010
0000
0100
0000
,
0001
0000
0001
0000
,
1000
0000
1000
0000
,
0010
0000
0010
0000
,
0100
0000
0100
0000
,
0001
0001
0010
0000
,
1000
1000
0010
0000
,
0001
0001
0100
0000
,
1000
1000
0100
0000
,
1000
0001
0100
0000
,
0010
0100
0001
0000
,
0001
1000
0100
0000
,
0010
0100
1000
0000
,
0010
0100
0010
0000
,
1000
0100
1000
0000
,
0001
0010
0001
0000
,
0100
0010
0100
0000
,
0010
0010
1000
1000
,
0001
0001
0100
0100
,
0001
0010
1000
0100
,
0001
1000
2002
3003
,
0010
1000
0001
0100
,
0010
1000
0100
0010
,
0010
0001
0001
1000
,
1000
1001
0000
0010
,
0100
0001
1000
0010
,
0100
0001
0010
0100
,
0100
1000
1000
0001
,
0001
1001
0000
0010
,
0010
1000
0001
0100
,
0100
0001
0001
1000
,
1000
0100
0010
0001
,
0001
1001
0000
0010
,
0010
0001
1000
0100
,
0100
1000
1000
0001
,
0001
0100
0010
1000
,
1000
1001
0000
0001
,
0010
0100
0010
0001
,
1000
0100
0010
0100
,
1000
0010
0100
0001
,
0010
0001
0010
0100
,
0100
1000
1000
0001
,
0001
0010
0010
0100
,
0010
0100
0010
1000
,
0001
1000
1001
0220
,
0000
0000
0000
0330
,
0000
0000
0000
0000
;
#NOTES:
     dance-single:
     :
     Medium:
     8:
     :
0000
0000
0000
0000
,
0000
0000
0000
0000
,
0000
0000
0000
0000
,
0000
0000
0000
0000
,
0000
0000
0000
0000
,
0010
0100
0001
1000
,
0001
0010
0100
1000
,
0010
1000
0100
0000
0010
0000
0100
0000
,
0010
0001
0100
0000
0010
0000
0100
0000
,
0020
0000
0000
0000
,
2030
0000
0000
0000
,
3002
0000
0203
0000
,
0320
0000
2030
0000
,
3002
0100
0000
0103
,
2000
0100
0000
3100
,
0010
0001
1000
0100
,
0020
0130
0200
0310
,
0100
1000
0001
0000
0100
0000
0001
0000
,
1000
0010
0100
0000
0001
0000
1001
0000
,
0001
0010
0100
0000
1000
0000
0100
0000
,
0010
0001
1000
0000
0100
0000
0110
0000
,
0100
1000
0001
0000
0010
0000
0001
0000
,
1000
0100
0010
0000
0001
0000
1001
0000
,
1000
0010
0100
0000
0001
1000
0100
0000
,
0010
0001
1000
0000
0100
0000
0110
0000
,
0001
0000
0000
0001
0000
0000
0001
0000
0001
0000
0000
0001
0000
0000
0001
0000
,
1000
0000
0000
1000
0000
0000
1000
0000
1000
0000
0000
1000
0000
0000
1000
0000
,
0100
0000
0000
0100
0000
0000
0100
0000
0100
0000
0000
0100
0000
0000
0100
0000
,
0010
0000
0000
0010
0000
0000
0010
0000
0010
0000
0000
0010
0000
0000
0010
0000
,
0002
0100
1000
0100
,
2003
0001
0100
0001
,
3100
0000
0000
0100
0000
0000
0100
0000
0010
0000
0000
0010
0000
0000
0010
0000
,
0001
0000
0000
1000
0000
0000
0002
0000
2000
0000
0000
0000
3003
0000
0000
0000
,
0001
0000
1000
0010
0100
0000
0001
0000
,
0010
0000
0100
1000
0010
0000
0100
0000
,
0010
0000
0100
0010
1000
0000
0100
0000
,
0010
0000
0001
0100
0010
0000
0010
0000
,
1000
0000
0001
0100
0010
0000
1000
0000
,
0100
0000
0010
0001
0100
0000
0010
0000
,
0100
0000
0010
0100
0001
0000
0010
0000
,
0100
0000
1000
0010
0100
0000
0002
0000
,
0013
0000
0100
1000
0100
0000
0020
0000
,
1030
0200
0301
0200
,
1300
0000
0010
0100
0001
0000
2000
0000
,
3001
0000
0010
0100
1000
0000
2000
0000
,
3100
0000
0010
0001
0010
0000
0200
0000
,
0301
0020
1030
0020
,
0031
0000
0100
0010
1000
0000
0002
0000
,
1003
0000
0100
0010
0001
0000
1010
0000
,
0100
0000
0010
1000
0100
0000
0011
0000
,
0100
0000
0010
0001
0100
0000
0101
0000
,
0010
0000
0100
0001
0010
0000
1100
0000
,
0010
0000
0100
1000
0010
0000
0001
0010
,
1000
0000
0001
0010
1000
0000
1000
0010
,
0001
0000
1000
0010
0001
0000
0010
0000
,
0001
0000
0000
0000
0100
0000
0000
0000
1000
0000
0000
0000
0010
0000
0000
1000
,
0000
0000
0100
0000
0010
0000
0000
0001
0000
0000
0100
0000
0020
0000
0000
0000
,
0000
0000
0000
0030
,
0000
0000
0000
0000
;
#NOTES:
     dance-single:
     :
     Hard:
     11:
     :
0000
0000
0000
0000
,
0000
0000
0000
0000
,
0000
0000
0000
0000
,
0000
0000
0000
0000
,
0000
0000
0000
0000
,
0001
0000
1000
0000
1000
0100
0010
0000
,
0001
0000
1000
0000
1000
0010
0100
0000
,
0001
0000
1000
0000
1000
0100
0010
0000
,
1001
0000
0000
0000
0001
1000
0001
0100
,
0020
0000
0000
0000
,
2030
0000
0000
0000
,
3200
0000
0000
0320
0000
0000
0032
0000
,
0000
0203
0000
0000
0320
0000
2030
0000
,
3002
0100
0000
0103
,
0020
1000
0000
1030
,
0001
1000
0100
0000
0001
1000
0100
0000
,
0010
0001
1000
0000
0010
0001
1000
0000
,
0010
0000
0000
0010
0000
0000
0010
0000
1000
0000
0000
1000
0000
0000
1000
0000
,
0100
0000
0000
0100
0000
0000
0100
0000
0010
0000
0000
0010
0000
0000
0010
0000
,
0001
0000
0000
1000
0000
0000
0100
0000
0010
0000
0000
0001
0000
0000
0001
0000
,
1000
0000
0000
0001
0000
0000
0100
0000
0010
0000
0000
1000
0000
0000
1000
0000
,
0002
0000
0000
2003
0000
0000
3100
0000
0020
0000
0000
0032
0000
0000
0103
0000
,
0020
0000
0000
0100
0000
0000
0130
0000
0001
0000
0000
0000
1100
0000
0000
0000
,
2000
0000
0000
3002
0000
0000
0103
0000
0020
0000
0000
2030
0000
0000
3100
0000
,
0020
0000
0000
0001
0000
0000
0031
0000
1000
0000
0000
0000
0101
0000
0000
0000
,
0002
0000
0010
0000
0000
0000
0010
0003
,
2000
0000
0010
0000
0000
0000
0010
3000
,
0001
1000
0100
0000
1000
0000
0010
0000
,
1000
0001
0100
0000
0001
0000
0010
0000
,
0001
0100
0010
0000
1000
0100
0010
0000
,
0001
0100
0010
0100
0001
0100
0010
0100
,
0001
0000
1000
0100
0000
0000
0010
0000
0001
0000
1000
0100
0000
0000
1000
0000
,
0010
0000
0000
0101
0000
0000
1100
0000
2002
0000
0000
0000
3003
0000
0000
0000
,
2000
0000
3001
1000
0001
0100
0020
0000
,
2030
0000
3001
1000
0010
0100
0002
0000
,
0203
0000
0310
1000
0100
0010
0002
0000
,
0023
0000
0031
0100
0010
1000
0200
0000
,
2300
0000
3001
1000
0001
0100
0020
0000
,
2030
0000
3010
0100
0010
1000
0200
0000
,
1300
0001
0200
0000
0310
1000
0002
0000
,
0103
0010
1000
0001
0100
0010
0200
0000
,
0010
0000
0301
0100
0010
0100
0002
0000
,
0010
0203
0310
0002
,
0100
0000
0013
0100
1000
0100
0020
0000
,
0001
0130
2000
3002
,
0103
0000
0010
1000
0001
0100
0020
0000
,
1030
0001
0200
0000
0301
1000
0100
0000
,
1010
0000
0001
0000
0110
0000
1000
0001
,
0100
0010
1000
0001
0100
0010
1000
0100
,
0020
0000
0031
0100
0020
0000
1030
0001
,
0100
0001
1000
0100
0020
0000
0031
1000
,
0200
0000
0310
0001
0200
0000
0301
1000
,
0100
0000
1000
0000
0001
0000
0010
0000
0200
0000
0000
0000
1300
0000
0000
0100
,
0000
0000
0001
0000
0100
0000
0000
0010
0000
0000
0001
0000
0100
0000
0000
1000
,
0000
0000
0100
0000
0010
0000
0000
1000
0000
0000
0001
0000
0010
0000
0100
0000
,
0001
0000
0100
0000
1000
0000
0001
0000
0010
0000
0100
0000
1000
0000
0000
0101
,
0000
0110
0100
0010
1000
0001
2002
0000
,
0000
0000
0000
3003
,
0000
0000
0000
0000
;
#NOTES:
     dance-single:
     :
     Challenge:
     13:
     :
0000
0000
0000
0000
,
0000
0000
0000
0000
,
0000
0000
0000
0000
,
0000
0000
0000
0000
,
0000
0000
0000
0000
,
0001
0000
0010
0000
0001
0000
0100
0000
0010
0000
1000
0000
0100
0010
0000
0000
,
0001
0000
0100
0000
1000
0000
0100
0000
0001
0000
0010
0000
0100
1000
0000
0000
,
1000
0000
0100
0000
1000
0000
0010
0000
0100
0000
0001
0000
0010
0100
0000
0000
,
1000
0000
0010
0000
0001
0000
0010
0000
1000
0000
0100
0000
0010
0001
0000
0000
,
2000
0000
0000
0000
,
3020
0000
0000
0000
,
0032
0000
0000
2003
0000
0000
3020
0000
,
0000
0032
0000
0000
0203
0000
2300
0000
,
3002
0100
1000
0010
,
2003
0010
0001
0100
,
3001
0100
2000
0000
3100
0001
0020
0000
,
1030
0010
0002
0000
1003
0010
0200
0000
,
0301
0000
0010
0001
0000
0010
0001
0000
1000
0000
0001
0100
0000
0001
0100
0000
,
0010
0000
1000
0001
0000
1000
0001
0000
0100
0000
0001
1000
0000
0001
1000
0000
,
0100
0000
1000
0010
0000
1000
0010
0000
0100
0000
0010
1000
0000
0010
1000
0000
,
0100
0000
0010
0001
0000
0010
0001
0000
1000
0000
0100
0010
0000
0100
0010
0000
,
0001
0000
0100
0010
0000
0100
0010
0000
1000
0000
0010
1000
0000
0100
1000
0000
,
0001
0000
0100
0001
0000
0010
0001
0000
0010
0000
0001
0100
0000
0010
0100
0000
,
0001
0000
1000
0100
0000
0001
0100
0000
1000
0000
0001
0100
0000
1000
0100
0000
,
0001
0000
0010
1000
0000
0010
0001
0000
1000
0000
0010
0001
0000
0010
1000
0000
,
0010
0000
1000
0010
0000
0010
1000
0000
0100
0000
0010
0001
0000
0001
0010
0000
,
0001
0000
1000
0100
0000
0100
1000
0000
0010
0000
0100
0001
0000
0001
0100
0000
,
0010
0000
1000
0001
0000
0001
1000
0000
0100
0000
0010
0100
0000
0100
0010
0000
,
0100
0000
1000
0010
0000
0010
0100
0000
0010
0000
0100
0010
0000
0010
0100
0000
,
1001
0000
0001
0100
0000
0100
1000
0000
0110
0000
1000
0100
0000
0100
0001
0000
,
0110
0000
0001
0010
0000
0010
1000
0000
0110
0000
1000
0010
0000
0010
0001
0000
,
0010
1000
0010
1000
0000
0010
0100
0000
0010
0001
0010
0001
0000
0010
0100
0000
,
0010
0000
0000
0000
0000
0000
0000
0000
0000
0000
0000
0000
1100
0000
0000
0000
0000
0000
0000
0000
0000
0000
0000
0000
0011
0000
0000
0000
0000
0000
0000
0000
0200
0000
0000
0000
0000
0000
0000
0000
0000
0000
0000
0000
0000
0000
0000
0000
1000
0300
0000
0000
0000
0000
0000
0000
1000
0000
0000
0000
0000
0000
0000
0000
,
0010
0000
0100
0000
1000
0000
0100
0000
0001
0000
0010
0000
0100
0010
0100
0000
,
1000
0000
0001
0000
0100
0010
0100
0000
0001
0000
1000
0000
0100
0010
0100
0000
,
1000
0000
0001
0000
0100
0000
0010
0000
0001
0000
1000
0000
0100
0010
0100
0000
,
0001
0000
1000
0000
0100
0010
0100
0000
0010
0000
0001
0000
0100
0010
0001
0000
,
0010
0000
1000
0000
0010
0000
0100
0000
0001
0000
0010
0000
0100
0010
0001
0000
,
0100
0000
0001
0000
0100
0010
1000
0000
0010
0000
0001
0000
0010
0100
0001
0000
,
0001
0000
1000
0000
0100
0010
1000
0000
1000
0000
0010
0000
0100
0010
0001
0000
,
0001
0000
0100
0000
0010
0100
1000
0000
0100
0000
0010
0000
1002
0000
0000
0000
,
0103
0001
0010
0001
0110
0000
0200
0000
,
1300
0100
0001
0010
0110
0000
2000
0000
,
3100
1000
0010
0001
0110
0000
0200
0000
,
1300
0100
0010
1000
1001
0000
0020
0000
,
0031
0010
0001
0100
1001
0000
0200
0000
,
1300
0100
0001
1000
0110
0000
0020
0000
,
0031
0010
1000
0001
1100
0000
0020
0000
,
1030
0001
0200
0000
0310
1000
0002
0000
,
0103
0000
0001
0000
1000
0000
0100
0000
0010
0100
0010
0000
0200
0000
0000
0000
,
0301
0000
0100
0000
1000
0000
0100
0000
0010
0100
0010
0000
0002
0000
0000
0000
,
1003
0000
0010
0000
0100
0000
0001
0000
1000
0001
1000
0000
0002
0000
0000
0000
,
0103
0001
0020
0000
0130
0100
1000
0100
,
0001
0100
1000
0010
1000
0100
0001
0100
,
1000
0001
0100
1000
0100
0001
0010
1000
,
0010
0001
0100
1000
0100
0001
0010
0001
,
0100
1000
0100
0001
0010
0100
2002
0000
,
0000
0000
0000
3003
,
0000
0000
0000
0000
;
#NOTES:
     dance-double:
     :
     Easy:
     5:
     :
00000000
00000000
00000000
00000000
,
00000000
00000000
00000000
00000000
,
00000000
00000000
00000000
00000000
,
00000000
00000000
00000000
00000000
,
00000000
00000000
00000000
00000000
,
00000010
00000001
00000100
00000000
,
00000010
00001000
00000001
00000000
,
00010000
00001000
01000000
00000000
,
00100000
10000000
01000000
00000000
,
20000000
00000000
00000000
00000000
,
30020000
00000000
00000000
00000000
,
00130000
00000000
00001000
00000000
,
00000010
00000000
00000001
00000000
,
00001000
00000000
00000001
00000000
,
00000100
00000000
00001000
00000000
,
00010000
00000000
01000000
00000000
,
10000000
00000000
00010000
00000000
,
00010000
00010000
00100000
00000000
,
00001000
00000100
00000010
00000000
,
00001000
00001000
00000010
00000000
,
00010000
01000000
00100000
00000000
,
10000000
00010000
01000000
00000000
,
00100000
01000000
00010000
00000000
,
00100000
00001000
00010000
00000000
,
00001000
00010000
00000100
00000000
,
00000010
00001000
00000100
00000000
,
00000010
00000001
00000100
00000000
,
00001000
00001000
00010000
00000000
,
00010000
00010000
00001000
00000000
,
00010000
00010000
00100000
00100000
,
00010000
00010000
00001000
00001000
,
00000100
00000010
00000100
00000010
,
00001000
00010000
00022000
00033000
,
00100000
10000000
00010000
01000000
,
00100000
10000000
01000000
00100000
,
00010000
00001000
00000100
00000010
,
00000001
00001001
00000000
00000001
,
00000010
00000001
00001000
00000100
,
00000010
00000001
00000100
00000010
,
00001000
00010000
01000000
00100000
,
10000000
10010000
00000000
00100000
,
00100000
01000000
00010000
00100000
,
00100000
00010000
00010000
00001000
,
00001000
00000100
00000010
00000001
,
00001000
00001001
00000000
00000100
,
00000100
00000010
00001000
00000100
,
00000100
00001000
00001000
00010000
,
00010000
00100000
01000000
10000000
,
00010000
10010000
00000000
00010000
,
00100000
01000000
00100000
00001000
,
00010000
00000100
00000010
00000100
,
00010000
00001000
00100000
00010000
,
00001000
00000100
00000010
00000001
,
00000001
00000100
00000100
00001000
,
00001000
00010000
00010000
01000000
,
01000000
10000000
10000000
00100000
,
01000000
00010000
10010000
02200000
,
00000000
00000000
00000000
03300000
,
00000000
00000000
00000000
00000000
;
#NOTES:
     dance-double:
     :
     Medium:
     8:
     :
00000000
00000000
00000000
00000000
,
00000000
00000000
00000000
00000000
,
00000000
00000000
00000000
00000000
,
00000000
00000000
00000000
00000000
,
00000000
00000000
00000000
00000000
,
00000010
00000001
00000100
00000010
,
00001000
00000100
00010000
00001000
,
00100000
01000000
10000000
00100000
,
01000000
00010000
00100000
00001000
,
00020000
00000000
00000000
00000000
,
00032000
00000000
00000000
00000000
,
00003200
00000000
00000302
00000000
,
00000023
00000000
00000230
00000000
,
00020300
00001000
00000000
00001000
,
00032000
00010000
00000000
00010000
,
00023000
00001000
00000000
00001000
,
00032000
00000000
00203000
00000000
,
01300000
10000000
00010000
00000000
00100000
00000000
00010000
00000000
,
00001000
00000100
00001000
00000000
,
00000100
00000001
00001000
00000000
00000010
00000000
00001000
00000000
,
00010000
01000000
00010000
00000000
,
00100000
10000000
01000000
00000000
00100000
00010000
01000000
00000000
,
00100000
00010000
00011000
00000000
,
00000010
00000001
00000100
00000000
00000010
00001000
00000100
00000000
,
00000010
00001000
00011000
00000000
,
00001000
00000000
00000000
00001000
00000000
00000000
00001000
00000000
00010000
00000000
00000000
00010000
00000000
00000000
00010000
00000000
,
01000000
10000000
00100000
00010000
,
00001000
00000000
00000000
00001000
00000000
00000000
00001000
00000000
00010000
00000000
00000000
00010000
00000000
00000000
00010000
00000000
,
00001000
00000010
00000001
00000100
,
00001000
00000000
00000000
00001000
00000000
00000000
00001000
00000000
00001000
00000000
00000000
00001000
00000000
00000000
00001000
00000000
,
00010000
00000000
00000000
00010000
00000000
00000000
00010000
00000000
00010000
00000000
00000000
00010000
00000000
00000000
00010000
00000000
,
00001000
00100000
01000000
00000000
10000000
01000000
00100000
00000000
,
00010000
01000000
20020000
30030000
,
00100000
00000000
10000000
01000000
00100000
00000000
01000000
00000000
,
00010000
00000000
00001000
00010000
01000000
00000000
00100000
00000000
,
00010000
00000000
00001000
00000000
00000100
00000000
00000001
00000010
,
00000100
00000000
00001000
00000100
00001000
00000000
00000100
00000000
,
00000010
00000000
00000001
00000100
00000010
00000000
00000100
00000000
,
00001000
00000000
00010000
00001000
00000100
00000000
00000010
00000000
,
00001000
00000000
00010000
00000000
01000000
00000000
00010000
00100000
,
01000000
00000000
10000000
01000000
10000000
00000000
10010000
00000000
,
01000000
00000000
00100000
00010000
00100000
00000000
02000000
00000000
,
13000000
00000000
00200000
00000000
01300000
00000000
00001000
00010000
,
00001000
00000000
00010000
00001000
00010000
00000000
00000100
00000000
,
00001000
00000100
00000010
00001001
,
00000100
00000000
00000010
00001000
00000010
00000000
00000200
00000000
,
00000301
00000000
00000020
00000000
00000130
00000000
00010000
00001000
,
00010000
00000000
00001000
00010000
00001000
00000000
01000000
00000000
,
00010000
01000000
00100000
10010000
,
01000000
00000000
10000000
01000000
00100000
00000000
10010000
00000000
,
00001000
00000000
00010000
00001000
00100000
00000000
00011000
00000000
,
00000100
00000000
00000010
00000001
00000100
00000000
00001001
00000000
,
00000100
00000000
00000110
00000000
00000001
00000000
00000001
00000100
,
00001000
00000000
00000100
00001000
00010000
00000000
00001000
00100000
,
01000000
00000000
10000000
01000000
00010000
00000000
01000000
00000000
,
01000000
00000000
00000000
00000000
00100000
00000000
00000000
00000000
00100000
00000000
00000000
00000000
00001000
00000000
00000000
00001000
,
00000000
00000000
00001000
00000000
00010000
00000000
00000000
00010000
00000000
00000000
00010000
00000000
00022000
00000000
00000000
00000000
,
00000000
00000000
00000000
00033000
,
00000000
00000000
00000000
00000000
;
#NOTES:
     dance-double:
     :
     Hard:
     11:
     :
00000000
00000000
00000000
00000000
,
00000000
00000000
00000000
00000000
,
00000000
00000000
00000000
00000000
,
00000000
00000000
00000000
00000000
,
00000000
00000000
00000000
00000000
,
10000000
00000000
00100000
00000000
10000000
01000000
00100000
00000000
,
00010000
00000000
00100000
00000000
00010000
00001000
00000100
00000000
,
00000010
00000000
00000001
00000000
00000010
00000001
00000100
00000000
,
00001001
00000000
00000000
00000000
00000010
00000100
00000001
00000100
,
00000020
00000000
00000000
00000000
,
00002030
00000000
00000000
00000000
,
00003200
00000000
00000000
00002300
00000000
00000000
00023000
00000000
,
00000000
02030000
00000000
00000000
23000000
00000000
30010000
00000000
,
00200000
01000000
00000000
01300000
,
00020000
00001000
00000000
00031000
,
00000200
00000010
00000000
00000310
,
00001000
00000001
00000100
00000000
00000001
00001000
00000100
00000000
,
00000010
00000000
00000000
00000010
00000000
00000000
00000010
00000000
00000001
00000000
00000000
00000001
00000000
00000000
00000001
00000000
,
00000100
00000000
00000000
00000100
00000000
00000000
00000100
00000000
00001000
00000000
01000000
00000000
00100000
00000000
00000000
00000000
,
00100000
00000000
00000000
00100000
00000000
00000000
00100000
00000000
10000000
00000000
00000000
10000000
00000000
00000000
10000000
00000000
,
01000000
00000000
00000000
01000000
00000000
00000000
01000000
00000000
00010000
00000000
00000100
00000000
00000010
00000000
00000000
00000000
,
00000100
00000000
00000000
00000010
00000000
00000000
00000100
00000000
00001000
00000000
00000000
00000001
00000000
00000000
00000100
00000000
,
00000010
00000000
00000000
00001000
00000000
00000000
00000100
00000000
00001000
00000000
00010000
00000000
01000000
00000000
00000000
00000000
,
00100000
00000000
00000000
01000000
00000000
00000000
00100000
00000000
10000000
00000000
00000000
00010000
00000000
00000000
00100000
00000000
,
01000000
00000000
00000000
00010000
00000000
00000000
01000000
00000000
00010000
00000000
00001000
00000000
00000100
00000000
00000000
00000000
,
00000002
00000000
00000010
00000000
00000000
00000000
00000010
00000003
,
00002000
00000000
00000100
00000000
00000000
00000000
00000100
00003000
,
00000100
00010000
00001000
00000000
00000100
00000000
00000010
00000000
,
00001000
00010000
01000000
00000000
00100000
00000000
01000000
00000000
,
00010000
01000000
00100000
00000000
10000000
01000000
00100000
00000000
,
00010000
01000000
00100000
00010000
00001000
00000100
00000010
00000100
,
00000001
00000000
00001000
00000100
00000000
00000000
00000010
00000000
00000100
00000000
00000001
00000100
00000000
00000000
00001000
00000000
,
00000010
00000000
00000000
00000100
00000000
00000000
00000110
00000000
00002002
00000000
00000000
00000000
00003003
00000000
00000000
00000000
,
00000100
00000000
00000000
00000000
00000001
00000000
00000010
00000000
00000100
00000000
00001000
00000000
00000010
00000100
00000000
00000000
,
00000100
00000000
00000000
00000000
00000001
00000000
00000100
00000000
00000010
00000000
00001000
00000000
00000100
00010000
00000000
00000000
,
00010000
00000000
00000000
00000000
00001000
00000000
00100000
00000000
01000000
00000000
10000000
00000000
01000000
00100000
00000000
00000000
,
00100000
00000000
00000000
00000000
00010000
00000000
01000000
00000000
00100000
00000000
10000000
00000000
01000000
10000000
00000000
00000000
,
10000000
00000000
00000000
00000000
00010000
00000000
00100000
00000000
10000000
00000000
00100000
00000000
00010000
00100000
00000000
00000000
,
00100000
00000000
00000000
00000000
00010000
00000000
00001000
00000000
00000100
00000000
00000001
00000000
00000100
00001000
00000000
00000000
,
00001000
00000000
00000000
00000000
00000001
00000000
00000100
00000000
00001000
00000000
00000100
00000000
00000001
00000010
00000000
00000000
,
00000010
00000000
00000001
00000000
00000100
00000010
00000000
00000000
00000010
00000000
00001000
00000000
00000200
00000000
00000000
00000000
,
00000001
00000000
00001300
00000100
00010000
00001000
00020000
00000000
,
00001000
00030200
00000320
00000032
,
00000100
00000000
00001003
00000100
00010000
00001000
00000020
00000000
,
00001000
00000000
00000000
00000000
00002030
00000000
00000000
00000000
00023000
00000000
00000000
00000000
00031000
01000000
00000000
00000000
,
01000000
00000000
00000000
00000000
00100000
00000000
10000000
00000000
00010000
00000000
01000000
00000000
00100000
01000000
00000000
00000000
,
01000000
00000000
00001000
00000000
00100000
00001000
00000000
00000000
00001000
00000000
00010000
00000000
00000100
00000000
00000000
00000000
,
00001010
00000000
00000001
00000000
00000011
00000000
00000010
00000100
,
00000010
00000000
00000100
00000010
00000001
00001000
00000001
00000100
,
00001000
00000000
00000010
00000100
00001000
00000000
00020000
00000000
,
00000010
00000000
00031000
01000000
00100000
00000000
10000000
01000000
,
00010000
00000000
00100000
01000000
00010000
00000000
00002000
00000000
,
00100000
00000000
00000000
00000000
00013000
00000000
00000100
00000000
00000010
00000000
00000000
00000000
00000001
00000000
00000000
00000001
,
00000000
00000000
00000001
00000000
00000100
00000000
00000000
00000100
00000000
00000000
00000100
00000000
00001000
00000000
00000000
00001000
,
00000000
00000000
00001000
00000000
00010000
00000000
00000000
00010000
00000000
00000000
00010000
00000000
01000000
00000000
00000000
01000000
,
00000000
00000000
01000000
00000000
10000000
00000000
00000000
10000000
00000000
00000000
10000000
00000000
00100000
00000000
00000000
10000000
,
00000000
00000000
01000000
00000000
00100000
00000000
00000000
00010000
00000000
00000000
01000000
00000000
20020000
00000000
00000000
00000000
,
00000000
00000000
00000000
30030000
,
00000000
00000000
00000000
00000000
;
#NOTES:
     dance-double:
     :
     Challenge:
     13:
     :
00000000
00000000
00000000
00000000
,
00000000
00000000
00000000
00000000
,
00000000
00000000
00000000
00000000
,
00000000
00000000
00000000
00000000
,
00000000
00000000
00000000
00000000
,
00000100
00000000
00000010
00000000
00000001
00000000
00000100
00000000
00000010
00000000
00010000
00000000
00001000
00010000
00000000
00000000
,
01000000
00000000
00100000
00000000
10000000
00000000
00100000
00000000
01000000
00000000
00001000
00000000
00010000
00001000
00000000
00000000
,
00001000
00000000
00000100
00000000
00000001
00000000
00000010
00000000
00001000
00000000
00010000
00000000
00001000
00010000
00000000
00000000
,
00010000
00000000
01000000
00000000
10000000
00000000
00100000
00000000
00010000
00000000
00001000
00000000
00010000
00001000
00000000
00000000
,
00020000
00000000
00000000
00000000
,
00032000
00000000
00000000
00000000
,
00003200
00000000
00000000
00000302
00000000
00000000
00000023
00000000
,
00000000
00002030
00000000
00000000
00003002
00000000
00000023
00000000
,
00002030
00000010
00000001
00000100
,
00023000
01000000
10000000
00100000
,
00130000
01000000
20000000
00000000
31000000
10000000
00200000
00000000
,
10300000
00100000
00020000
00000000
10030000
01000000
00100000
00000000
,
00100000
00000000
10000000
00100000
00000000
10000000
00100000
00000000
10000000
00000000
01000000
10000000
00000000
01000000
10000000
00000000
,
00100000
00000000
10000000
00010000
00000000
10000000
01000000
00000000
00010000
00000000
00001000
00000000
00000100
00000000
00000000
00000000
,
00000100
00000000
00000001
00000100
00000000
00000001
00000100
00000000
00000001
00000000
00000010
00000001
00000000
00000010
00000001
00000000
,
00000100
00000000
00000001
00001000
00000000
00000001
00000100
00000000
00001000
00000000
00010000
00000000
00100000
00000000
00000000
00000000
,
10000000
00000000
00100000
00010000
00000000
00100000
00010000
00000000
00100000
00000000
01000000
10000000
00000000
01000000
10000000
00000000
,
01000000
00000000
00010000
01000000
00000000
00010000
01000000
00000000
00001000
00000000
00000100
00000000
00000010
00000000
00000000
00000000
,
00000001
00000000
00000010
00001000
00000000
00000010
00001000
00000000
00000010
00000000
00000100
00000001
00000000
00000100
00000001
00000000
,
00000100
00000000
00001000
00000100
00000000
00001000
00000100
00000000
00010000
00000000
01000000
00000000
00100000
00000000
00000000
00000000
,
01000000
00000000
00010000
00100000
00000000
00100000
00010000
00000000
00100000
00000000
00001000
00010000
00000000
00010000
00001000
00000000
,
00000100
00000000
00000010
00001000
00000000
00001000
00000010
00000000
00000100
00000000
00000001
00000000
00000010
00000000
00000000
00000000
,
00000100
00000000
00001000
00000010
00000000
00000010
00001000
00000000
00000010
00000000
00010000
00001000
00000000
00001000
00010000
00000000
,
01000000
00000000
00100000
00010000
00000000
00010000
00100000
00000000
01000000
00000000
10000000
00000000
00100000
00000000
00000000
00000000
,
10000000
00000000
00100000
01000000
00000000
00010000
00100000
00000000
00001000
00000000
00010000
00001000
00000000
00000100
00000010
00000000
,
00000001
00000000
00000010
00000100
00000000
00001000
00000100
00000000
00000001
00000000
00000010
00001000
00000000
00010000
00001000
00000000
,
00010000
00100000
00010000
00100000
00000000
00010000
00001000
00000000
00000010
00001000
00000010
00001000
00000000
00010000
00001000
00000000
,
00000100
00000000
00000000
00000001
00000000
00000000
00000010
00000000
00002002
00000000
00000000
00000000
00003003
00000000
00000001
00000000
,
00000100
00000000
00000010
00000000
00001000
00000000
00000100
00000000
00000010
00000000
00000001
00000000
00001000
00000010
00000100
00000000
,
00001000
00000000
00000100
00000000
00000010
00001000
00000100
00000000
00010000
00000000
00001000
00000000
00010000
01000000
00100000
00000000
,
10000000
00000000
00010000
00000000
01000000
00000000
00100000
00000000
10000000
00000000
00100000
00000000
01000000
10000000
00010000
00000000
,
10000000
00000000
01000000
00000000
00100000
00000000
00010000
00000000
10000000
00000000
00000000
00000000
00010000
00100000
01000000
00000000
,
10000000
00000000
00100000
00000000
01000000
00000000
00010000
00000000
01000000
00000000
00100000
00000000
10000000
01000000
00100000
00000000
,
00010000
00000000
00100000
00000000
00001000
00010000
00000100
00000000
00000010
00000000
00000100
00000000
00001000
00000100
00000010
00000000
,
00001000
00000000
00000010
00000000
00000100
00001000
00000001
00000000
00000100
00000000
00001000
00000000
00000100
00000010
00001000
00000000
,
00000100
00000000
00001000
00000000
00000001
00000010
00000100
00000000
00001000
00000000
00000000
00000000
00000010
00000000
00000001
00000000
,
00000100
00000000
00001000
00000000
00000001
00000000
00000010
00000000
00000100
00000000
00000001
00000000
00000010
00000100
00001000
00000000
,
00000010
00000000
00001000
00000000
00000100
00010000
00001000
00000000
01000000
00000000
00100000
00000000
00010000
00100000
01000000
00000000
,
00010000
00000000
00100000
00000000
01000000
00000000
10000000
00000000
00010000
00000000
00100000
00000000
01000000
00100000
00010000
00000000
,
01000000
00010000
00100000
01000000
10000000
00000000
01000000
10000000
,
00100000
00000000
00010000
00000000
10000000
00000000
01000000
00000000
00100000
00000000
10000000
00000000
01000000
00100000
00010000
00000000
,
01000000
00000000
00010000
00000000
00100000
00001000
00010000
00000000
00000010
00000000
00000100
00000000
00001000
00000100
00000010
00000000
,
00001000
00000000
00000100
00000000
00000010
00000000
00000001
00000000
00001000
00000000
00000100
00000000
00000010
00000100
00001000
00000000
,
00000010
00001000
00000100
00000010
00000001
00000000
00001000
00000010
,
00000100
00001000
00010000
00100000
01000000
00010000
00100000
00001000
,
00000010
00001000
00010000
00100000
00010000
00001000
00000100
00000010
,
00001000
00000001
00000010
00000100
00001000
01000000
00100000
00010000
,
01000000
00000000
10000000
00000000
01000000
00000000
00010000
00000000
00100000
00000000
00000000
00000000
00010000
00000000
00100000
00010000
,
00000000
00010000
00100000
00000000
01000000
00000000
00100000
00010000
00000000
00100000
00001000
00000000
00010000
00000000
00001000
00010000
,
00000000
00010000
00001000
00000000
00000100
00000000
00000010
00000100
00000000
00000001
00000100
00000000
00000001
00000010
00000001
00000010
,
00000000
00000100
00000010
00000000
00000100
00001000
00000100
00001000
00000000
00000100
00010000
00000000
00001000
00000000
00000000
00100000
,
00000000
00000000
00010000
00000000
01000000
00000000
00000000
10000000
00000000
00000000
01000000
00000000
00020000
00000000
00000000
00000000
,
00000000
00000000
00000000
00030000
,
00000000
00000000
00000000
00000000
;
