
//----- song id: eltr
#TITLE:Electronic or Treat!;
#ARTIST:PON;
#BANNER:Electronic or Treat!.png;
#BACKGROUND:Electronic or Treat!-bg.png;
#CDTITLE:./CDTitles/pop'n music 18.png;
#MUSIC:Electronic or Treat!.ogg;
#SAMPLESTART:26.842;
#SAMPLELENGTH:15;
#BPMS:0=190,216=142.5,252=190;
#NOTES:
     dance-single:
     :
     Beginner:
     3:
     :
0000
0000
0000
0000
,
0000
0000
0000
0000
,
0000
0000
0000
0000
,
0000
0000
0000
0000
,
0000
0000
0000
0000
,
1000
0000
0000
0000
,
1000
0000
0000
0000
,
0001
0000
0000
0000
,
0001
0000
0000
0000
,
0000
0000
0000
0000
,
1000
0000
0000
0000
,
0010
0000
0010
0000
,
0001
0000
0000
0000
,
0010
0000
0010
0000
,
1000
0000
0000
0000
,
0100
0000
0100
0000
,
0001
0000
0000
0000
,
0100
0000
0100
0000
,
1000
0000
0000
0000
,
0001
0000
0000
0000
,
1001
0000
0000
0000
,
1001
0000
0000
0000
,
0010
0010
0010
0000
,
1000
1000
1000
0000
,
0001
0001
0001
0000
,
0010
0010
0010
0000
,
0001
0001
0001
0000
,
1000
1000
1000
0000
,
0100
0100
0100
0000
,
1000
1000
1000
0000
,
0001
0000
0000
0000
,
1000
0000
0000
0000
,
1001
0000
0000
0000
,
1001
0000
0000
0000
,
0001
0000
0010
0000
,
1000
0000
0000
0000
,
1000
0000
0010
0000
,
0001
0000
0000
0000
,
0001
0000
0100
0000
,
1000
0000
0000
0000
,
1000
0000
0100
0000
,
0001
0000
0000
0000
,
0000
0000
0000
0000
,
1000
1000
1000
0000
,
0010
0000
0010
0000
,
0001
0001
0001
0000
,
0010
0000
0010
0000
,
0100
0100
0100
0000
,
0010
0000
0010
0000
,
1000
0000
1000
0000
,
0001
0000
0000
0000
,
0010
0010
0010
0000
,
0100
0100
0100
0000
,
1001
0000
0000
0000
,
0000
0000
0000
0000
,
0000
0001
0001
0001
,
0000
0010
0010
0010
,
0000
1000
1000
1000
,
0000
0100
0100
0100
,
0000
0001
0000
0001
,
0000
1000
0000
1000
,
0000
0001
0000
1000
,
0000
1001
0000
0000
,
0000
0000
0000
0000
,
0010
0010
0010
0000
,
2000
0000
3000
0000
,
0010
0010
0010
0000
,
0002
0000
0003
0000
,
0010
0010
0010
0000
,
0200
0000
0300
0000
,
0010
0010
0010
0000
,
2000
0000
3000
0000
,
0001
0000
0010
0000
,
1000
0000
0010
0000
,
0001
0000
0000
0000
,
1000
0000
0000
0000
,
0001
0000
1000
0000
,
1001
0000
0000
0000
,
0000
0000
0000
0000
;
#NOTES:
     dance-single:
     :
     Easy:
     7:
     :
0000
0000
0000
0000
,
0000
0000
0000
0000
,
0000
0000
0000
0000
,
0000
0000
0000
0000
,
0000
0000
0000
0000
,
0001
0000
0010
0000
,
1000
0000
0100
0000
,
0001
0000
0010
0000
,
1000
0100
0001
0010
,
2002
0000
0000
3003
,
0001
0100
0001
0000
,
0001
0100
0010
1000
,
1000
0100
1000
0000
,
1000
0100
0010
0001
,
0010
1000
0010
0000
,
0100
1000
0100
0010
,
0001
0100
1000
0000
,
0001
0100
0010
1000
,
0001
0001
0100
0100
,
1000
1000
0010
0010
,
0001
0000
1000
0000
,
2002
0000
0000
3003
,
0001
0100
0010
0100
,
0002
0000
0010
0013
,
1000
0100
0010
0100
,
2000
0000
0010
3010
,
1000
0010
0001
0010
,
1000
0010
0001
0010
,
1000
0100
0001
0100
,
1000
0100
0001
0000
,
1000
1000
1000
1000
,
0001
0001
0001
0001
,
0010
0000
0100
0000
,
2002
0000
0000
3003
,
0100
1000
0010
0100
,
0002
0023
0032
0003
,
0100
1000
0010
0100
,
0002
2003
3002
0003
,
0001
0100
1000
0000
,
0001
0100
1000
0000
,
1000
1000
0010
0010
,
0002
0000
0000
0003
,
0020
0000
0000
0030
,
1000
1000
0100
0010
,
0001
0010
0001
0010
,
1000
0100
0010
0001
,
0010
1000
0010
0000
,
1000
0100
0010
0001
,
0001
0100
0001
0010
,
0001
0010
1000
0100
,
1001
0000
0110
0000
,
0001
0010
0100
1000
,
0010
0100
0001
1000
,
0220
0000
0000
0330
,
0001
1000
0000
0000
,
0000
0001
0001
0100
,
0010
1000
1000
0100
,
0010
0001
0010
0001
,
1000
0001
0100
0010
,
0010
1000
0100
0001
,
0100
1000
0100
0001
,
0100
1000
1000
0100
,
0100
0010
0001
1000
,
2002
0000
0000
3003
,
0001
0001
0010
0010
,
0002
2003
3002
2003
,
3001
0001
0100
0100
,
0020
0230
0320
0230
,
0301
0001
1000
0100
,
0020
0230
2300
3002
,
0013
0010
1000
0100
,
0020
0230
2300
3002
,
1003
1000
0010
0010
,
0001
0001
0010
0010
,
1000
0000
0100
0000
,
0001
0000
0100
0000
,
1001
0000
0110
0000
,
1001
0000
0000
0000
,
0000
0000
0000
0000
;
#NOTES:
     dance-single:
     :
     Medium:
     12:
     :
0000
0000
0000
0000
,
0000
0000
0000
0000
,
0000
0000
0000
0000
,
0000
0000
0000
0000
,
0000
0000
0000
0000
,
1000
0000
0010
0000
,
0001
0000
0100
0000
,
1000
0100
0001
0010
,
1000
0010
0001
0100
,
2002
0000
0000
3003
,
1000
0000
0000
0100
0000
0100
1000
0000
1000
0001
0000
0100
,
0000
0000
0000
0001
0000
0001
0100
0000
0100
0010
0000
0000
,
1000
0000
0000
0100
0000
0100
0010
0000
0010
0001
0000
0100
,
0000
0000
0000
0010
0000
0010
1000
0000
1000
0001
0000
0000
,
0010
0000
0000
0001
0000
0001
1000
0000
1000
0010
0000
1000
,
0000
0000
0000
0001
0000
0001
0100
0000
0100
0010
0000
0000
,
1000
0000
0000
0100
0000
0100
0010
0000
0010
0100
0000
1000
,
0000
0000
0000
0100
0000
0100
0010
0000
0010
0001
0000
0000
,
1000
0000
0001
1000
0000
0001
1000
0000
0001
1000
0000
0000
,
0100
0000
0010
0100
0000
0010
0100
0000
0010
0100
0000
0000
,
0001
0010
1000
0100
0001
0010
,
2002
0000
0000
0000
0000
0000
0000
0000
0000
3003
0000
0010
,
0000
0000
1000
0100
0000
0000
0010
0000
1000
0100
0000
0000
,
0010
0000
0001
0100
0000
0000
0010
0000
0001
0100
0000
0010
,
0000
0000
0100
0001
0000
0000
0010
0000
0100
0001
0000
0000
,
0010
0000
0100
1000
0000
0000
0010
0000
0100
1000
0000
0001
,
0000
0000
0001
0010
0000
0010
0001
0000
0001
0010
0000
0000
,
0100
0000
0100
1000
0000
1000
0100
0000
0100
1000
0000
0001
,
0000
0000
0001
1000
0000
1000
0001
0000
0001
1000
0000
0000
,
0010
0000
0010
0100
0000
0100
0010
0000
0010
0100
0000
0000
,
0001
0000
0100
0001
0000
0100
0001
0000
0100
0001
0000
0000
,
1000
0000
0100
1000
0000
0100
1000
0000
0100
1000
0000
0000
,
1000
0010
0001
0100
1000
0001
,
2002
0000
0000
3003
,
0100
0001
0010
0100
,
1000
0000
1000
0020
0000
0000
2030
0000
0000
3001
0000
0000
,
0100
0001
0010
0100
,
1000
0000
1000
0020
0000
0000
1030
0000
0000
0001
0000
0000
,
1010
1001
1000
0001
,
0011
1001
0001
1000
,
0001
0000
0001
0100
0000
0000
0001
0000
0001
0010
0000
0000
,
0001
0100
1000
0010
0001
0200
,
0020
0000
0000
0330
,
0001
0000
1000
0001
0000
0000
0100
0000
0000
0010
0000
0000
,
1000
0000
0100
0010
0000
0000
1000
0000
0100
0010
0000
0000
,
0001
0100
0010
1000
,
0010
0000
1000
0001
0000
0000
0010
0000
0001
1000
0000
0000
,
0001
0000
0001
0100
0000
0000
0010
0000
0000
1000
0000
0000
,
1000
0000
1000
0100
0000
0000
1000
0000
1000
0010
0000
0000
,
1000
0010
0001
0100
,
0001
0100
0001
0100
0000
0000
1000
0100
1000
0100
0000
0000
,
1000
0000
0000
0010
0000
0010
0100
0000
0100
0001
0000
0000
,
0010
0000
0000
0100
0000
0100
1000
0000
1000
0001
0000
0000
,
0220
0000
0000
0330
,
1000
0001
0000
0000
,
0000
0000
0110
0000
1000
0010
0100
0001
,
0100
0010
1010
0000
0100
1000
0010
1000
,
0001
0010
0011
0000
0100
1000
0001
0100
,
0010
1000
0001
0001
1000
1000
0110
1001
,
0110
0000
0001
0001
0100
0000
0010
0001
,
0100
0010
1000
1000
0100
0000
0010
1000
,
0100
0010
0001
0010
0001
0010
0100
1000
,
0100
1000
0010
0010
1000
1000
0001
1000
,
2002
0000
0000
0000
0000
0000
0000
0000
0000
3003
0000
0001
,
0000
0000
0001
0010
0000
0000
1000
0000
1000
0010
0000
0000
,
2000
0000
0000
3002
0000
0000
2003
0000
0000
3002
0000
1003
,
0000
0000
1000
0100
0000
0000
0001
0000
0001
0100
0000
0000
,
0020
0000
0000
0230
0000
0000
0320
0000
0000
0230
0000
0310
,
0000
0000
0010
1000
0000
0000
0001
0000
0001
0100
0000
0000
,
0020
0000
0000
0230
0000
0000
0302
0000
0000
2003
0000
3100
,
0000
0000
0100
0010
0000
0000
0001
0000
0001
0100
0000
0000
,
0020
0230
0302
2003
,
3001
0000
0010
0001
0000
0010
0001
0000
0010
0001
0000
0000
,
1000
0000
0010
1000
0000
0010
1000
0000
0010
1000
0000
0000
,
0001
0001
0001
0100
1000
0010
,
1000
1000
1000
0100
0001
0010
,
0001
0100
1000
0010
0001
0100
,
1001
0000
0000
0000
,
0000
0000
0000
0000
;
#NOTES:
     dance-single:
     :
     Hard:
     15:
     :
0000
0000
0000
0000
,
0000
0000
0000
0000
,
0000
0000
0000
0000
,
0000
0000
0000
0000
,
0000
0000
0000
0000
,
0001
0000
0010
0000
,
1000
0000
0100
0000
,
0001
0010
1000
0100
,
0001
0100
1000
0010
,
2002
0000
0000
3003
,
0001
0000
0001
0010
0000
0010
0001
0000
0001
1000
0000
1010
,
0000
0000
0001
1000
0000
1000
0010
0100
0001
0100
0000
0010
,
0000
0000
0010
1000
0000
1000
0100
0000
0100
0010
0000
0011
,
0000
0000
0010
0001
0000
0001
0100
0010
1000
0010
0000
0100
,
0000
0000
0100
0001
0000
0001
0010
0000
0010
0100
0000
1100
,
0000
0000
1000
0010
0000
0010
1000
0100
0010
0001
0000
0100
,
0000
0000
0100
0010
0000
0010
1000
0000
1000
0001
0000
0011
,
0000
0000
0010
0100
0000
0100
1000
0001
1000
0001
0000
0000
,
0010
0000
0010
0001
0000
0001
1000
0000
1000
0010
0000
0010
,
1000
0000
1000
0001
0000
0001
0010
0000
0010
0100
0000
0100
,
1100
1010
0011
0101
1100
1010
,
2002
0000
0000
0000
0000
0000
0000
0000
0000
3003
0000
0110
,
0000
0000
0010
0001
0000
0010
0100
0000
0010
1000
0000
0010
,
0100
0000
0010
0001
0000
0010
0100
0000
0010
1000
0000
1001
,
0000
0000
0100
0010
0000
0100
1000
0000
0100
0010
0000
0100
,
0001
0000
0100
0010
0000
0100
1000
0000
0100
0010
0000
1010
,
0000
0000
1000
0100
0000
0010
0001
0000
1000
0100
0000
0010
,
0001
0000
1000
0100
0000
0010
0001
0000
1000
0100
0000
1010
,
0000
0000
0001
0100
0000
0010
1000
0000
0001
0100
0000
0010
,
1000
0000
0001
0100
0000
0010
1000
0000
0001
0100
0000
0000
,
0010
1000
0010
1000
0000
1000
0001
0000
0001
0010
0000
0000
,
0001
0010
0001
0010
0000
0010
0100
0000
0100
1000
0000
0000
,
0011
1010
1100
0101
0011
1010
,
2002
0000
0000
3003
,
0010
0000
0010
1000
0000
1000
0100
0000
0100
0010
0000
0010
,
0001
0100
0010
1000
0100
0010
0002
0000
0000
1003
0000
1000
,
0010
0000
0010
1000
0000
1000
0100
0000
0100
0010
0000
0010
,
0001
1000
0001
0200
0000
0000
0301
0100
0010
1000
0000
0000
,
0011
0000
0000
1001
0000
0000
0001
0010
0100
1000
0000
0000
,
1010
0000
0000
1001
0000
0000
1000
0010
0100
0001
0000
0000
,
1000
0100
0010
0001
0000
0000
1000
0010
0100
0001
0000
0000
,
1000
0010
0001
0100
1000
0020
,
0200
0000
0000
0330
,
1000
0000
0001
1000
0000
1000
0001
0000
1000
0001
0000
0001
,
1000
0000
0000
0100
0000
0000
0010
0001
1000
0100
0000
0000
,
1000
0010
1000
0010
0000
0010
0100
0001
0100
0001
0000
0001
,
1000
0100
0010
0001
0000
0001
0100
0010
1000
0001
0000
0000
,
1000
0000
1000
0010
0000
0010
0100
0001
0100
0010
0000
0000
,
0001
0000
0001
0010
0000
0010
0100
1000
0100
0010
0000
0000
,
0001
0000
1000
0001
0000
1000
0001
0000
0001
1000
0000
1000
,
0001
0010
0100
1000
0000
0000
0001
0100
0010
1000
0000
0000
,
0001
0000
0000
0100
0010
1000
0001
0000
0001
0010
0000
0000
,
0001
0000
0000
1000
0010
0100
0001
0000
0001
1000
0000
0000
,
0220
0000
0000
0330
,
0101
1100
0000
0000
,
0000
0000
0000
0000
0110
0000
0001
0010
0100
0010
0100
0010
0001
0100
0010
1000
,
0010
0100
0001
0000
1100
0000
0001
0100
0010
1000
0010
1000
0001
1000
0010
1000
,
0100
0010
0001
0000
0110
0000
0001
0100
0010
0100
0010
0100
0001
0100
0010
1000
,
0001
0010
0100
0000
1010
0000
0100
0000
0011
0000
0100
0000
0110
0000
1001
0000
,
0110
0000
0000
0000
1000
0100
1000
0100
0010
0001
0010
0001
0100
0010
1000
0100
,
0010
0001
0100
0000
0001
0100
0001
0100
0010
1000
0010
1000
0100
0010
0001
0100
,
0010
1000
0100
0000
0010
0001
0100
0001
0010
0000
0001
0000
1000
0010
0100
0010
,
1000
0001
0011
0011
1010
0011
1001
0110
,
2002
0000
0000
0000
0000
0000
0000
0000
0000
3003
0000
1010
,
0000
0000
0010
0100
0000
0100
0001
0100
0010
1000
0000
1000
,
0002
0000
0000
0023
0000
0000
2030
0000
0000
3100
0000
0011
,
0000
0000
0010
0100
0000
0100
1000
0100
0010
0001
0000
0001
,
2000
0000
0000
3020
0000
0000
0032
0000
0000
0103
0000
0110
,
0000
0000
0010
1000
0000
0010
0100
0000
0010
0001
0000
0010
,
0200
0000
0000
2300
0000
0000
3020
0000
0000
0031
0000
0110
,
0000
0000
0100
1000
0000
0100
0010
0000
0100
0001
0000
0100
,
0020
2030
3200
0301
,
1000
0100
0010
0001
0000
0001
0100
0000
0100
0010
0000
0010
,
1000
0100
0010
0001
0000
0001
0100
0000
0100
0010
0000
0010
,
1010
0010
0001
0101
1000
0010
,
1010
0100
0001
0011
1000
0100
,
1001
1010
0011
0101
1100
0110
,
1001
0000
0000
0000
,
0000
0000
0000
0000
;
#NOTES:
     dance-double:
     :
     Easy:
     7:
     :
00000000
00000000
00000000
00000000
,
00000000
00000000
00000000
00000000
,
00000000
00000000
00000000
00000000
,
00000000
00000000
00000000
00000000
,
00000000
00000000
00000000
00000000
,
00000010
00000000
00000001
00000000
,
00001000
00000000
00000100
00000000
,
00000001
00000000
00000100
00000000
,
00001000
00001000
00010000
00010000
,
00022000
00000000
00000000
00033000
,
00100000
10000000
01000000
01000000
,
00000000
00010000
00001000
00000100
,
00000001
00000010
00000100
00000100
,
00000000
00000010
00000001
00000100
,
00001000
00001000
00010000
00010000
,
00000000
00010000
00100000
10000000
,
01000000
01000000
00010000
00010000
,
00000000
00001000
00010000
01000000
,
00100000
00100000
00001000
00010000
,
00000010
00000010
00010000
00001000
,
00010000
00000000
00001000
00000000
,
00022000
00000000
00000000
00033000
,
00000010
00000010
00000001
00000001
,
00000100
00000100
00001000
00001000
,
00010000
00010000
01000000
01000000
,
10000000
10000000
00100000
00000000
,
10000000
01000000
00010000
00000000
,
01000000
00010000
00001000
00000000
,
00010000
00001000
00000100
00000000
,
00001000
00000100
00000001
00000000
,
00000010
00000010
00000001
00000001
,
00001000
00001000
00000010
00000010
,
00010000
00000000
00001000
00000000
,
00022000
00000000
00000000
00033000
,
00100000
10000000
00100000
10000000
,
00010000
10000000
20020000
30030000
,
00010000
01000000
00001000
00010000
,
00000010
00001000
00000020
00000030
,
00000100
00000100
00000010
00001000
,
00000100
00000100
00010000
00001000
,
00100000
00000000
00010000
10000000
,
00020000
00000000
00000000
00030000
,
00000000
00000000
00000000
00000000
,
00100000
10000000
00100000
10000000
,
00010000
01000000
00010000
01000000
,
00001000
00010000
00001000
00010000
,
00000100
00001000
00000100
00000000
,
00000010
00000001
00001000
00000000
,
00000100
00001000
00010000
00000000
,
00100000
10000000
01000000
00000000
,
10010000
00000000
01100000
00000000
,
10000000
01000000
00010000
01000000
,
00010000
00001000
00000010
00001000
,
00022000
00000000
00000000
00033000
,
00001000
00010000
00000000
00000000
,
00000000
00001000
00000010
00000001
,
00000001
00000100
00000010
00001000
,
00000010
00000100
00001000
00010000
,
00010000
00100000
10000000
00100000
,
00000000
10000000
01000000
00010000
,
00001000
00000100
00000001
00000010
,
00000001
00001001
00000000
00000110
,
00000000
00001000
00010000
00001000
,
00020000
00000000
00000000
00030000
,
00100000
10000000
00100000
01000000
,
00020000
00030000
20000000
30000000
,
01000000
01000000
00010000
00010000
,
00002000
00003000
00020000
00030000
,
00001000
00000010
00000100
00000010
,
00000002
00000003
00002000
00003000
,
00000001
00000100
00000010
00000100
,
00002000
00003000
00020000
00030000
,
00100000
00100000
10000000
10000000
,
00010000
00010000
01000000
01000000
,
00100000
00000000
10000000
00000000
,
01000000
00000000
00010000
00000000
,
00001000
00000000
00010000
00000000
,
00011000
00000000
00000000
00000000
,
00000000
00000000
00000000
00000000
;
#NOTES:
     dance-double:
     :
     Medium:
     12:
     :
00000000
00000000
00000000
00000000
,
00000000
00000000
00000000
00000000
,
00000000
00000000
00000000
00000000
,
00000000
00000000
00000000
00000000
,
00000000
00000000
00000000
00000000
,
00010000
00000000
00100000
00000000
,
10000000
00000000
01000000
00000000
,
00010000
00000000
00100000
00000000
,
01000000
00010000
00001000
00000010
,
00002002
00000000
00000000
00003003
,
00000010
00000000
00000000
00000001
00000000
00000000
00000100
00000000
00000100
00001000
00000000
00010000
,
00000000
00000000
00000000
01000000
00000000
01000000
10000000
00000000
10000000
00010000
00000000
00000000
,
00100000
00000000
00000000
01000000
00000000
00000000
00010000
00000000
00010000
00001000
00000000
00000100
,
00000000
00000000
00000000
00000001
00000000
00000001
00000010
00000000
00000010
00000100
00000000
00000000
,
00000010
00000000
00000000
00001000
00000000
00000000
00010000
00000000
00010000
00100000
00000000
00010000
,
00000000
00000000
00000000
00001000
00000000
00001000
00000010
00000000
00000010
00000001
00000000
00000000
,
00000100
00000000
00000000
00001000
00000000
00000000
00010000
00000000
00010000
01000000
00000000
00010000
,
00000000
00000000
00000000
00001000
00000000
00001000
00000100
00000000
00000100
00000001
00000000
00000000
,
00000010
00000000
00000000
00001000
00000000
00001000
00010000
00000000
00010000
00001000
00000000
00000000
,
00100000
00000000
00000000
00010000
00000000
00010000
00001000
00000000
00001000
00010000
00000000
00000000
,
00010000
00100000
10000000
01000000
00010000
00001000
,
00022000
00000000
00000000
00000000
00000000
00000000
00000000
00000000
00000000
00033000
00000000
00000010
,
00000000
00000000
00000010
00000001
00000000
00000000
00000100
00000000
00001000
00010000
00000000
00000000
,
00100000
00000000
10000000
01000000
00000000
00000000
00010000
00000000
00001000
00010000
00000000
00001000
,
00000000
00000000
00000100
00000001
00000000
00000000
00000010
00000000
00001000
00010000
00000000
00000000
,
01000000
00000000
10000000
00100000
00000000
00000000
00010000
00000000
00001000
00010000
00000000
00001000
,
00000000
00000000
00100000
00010000
00000000
00000000
00001000
00000000
00010000
00000100
00000000
00000000
,
00010000
00000000
00001000
00100000
00000000
00000000
00010000
00000000
00001000
00010000
00000000
00001000
,
00000000
00000000
00010000
00000010
00000000
00000000
00001000
00000000
00010000
00001000
00000000
00000000
,
01000000
00000000
00010000
01000000
00000000
00000000
00001000
00000000
00010000
00000010
00000000
00000000
,
00000100
00000000
00000010
00000100
00000000
00000010
00000100
00000000
00000010
00000100
00000000
00000000
,
00001000
00000000
00010000
00001000
00000000
00010000
00001000
00000000
00010000
00001000
00000000
00000000
,
00010000
00100000
10000000
01000000
00010000
00001000
,
00022000
00000000
00000000
00033000
,
00000010
00000001
00000100
00000010
,
00001000
00000000
00001000
00010000
00000000
00000000
01000000
00000000
00000000
00100000
00000000
00000000
,
10000000
01000000
00100000
00010000
,
00001000
00000000
00001000
00000200
00000000
00000000
00000310
00000000
00000000
00000100
00000000
00000000
,
00000001
00001000
00010000
00010000
,
00001000
00010000
10000000
10000000
,
00100000
00000000
10000000
00010000
00000000
00000000
01000000
00000000
00010000
10000000
00000000
00000000
,
00100000
10000000
01000000
00010000
00001000
00000020
,
00000002
00000000
00000000
00000033
,
00000010
00000000
00000000
00000001
00000000
00000000
00000100
00000000
00000010
00001000
00000000
00000000
,
00000100
00000000
00010000
00001000
00000000
00000000
00100000
00000000
00010000
10000000
00000000
00000000
,
00100000
00000000
00000000
10000000
00000000
00000000
01000000
00000000
00100000
00010000
00000000
00000000
,
01000000
00000000
00001000
00010000
00000000
00000000
00000010
00000000
00001000
00000001
00000000
00000000
,
00000010
00000000
00000000
00001000
00000000
00000000
00010000
00000000
00001000
00010000
00000000
00000000
,
00100000
00000000
00100000
10000000
00000000
00000000
01000000
00000000
01000000
10000000
00000000
00000000
,
00100000
00000000
00000000
00010000
00000000
00000000
00001000
00000000
00010000
00001000
00000000
00000000
,
00000010
00000100
00000010
00000100
00000000
00000000
00001000
00000001
00001000
00000001
00000000
00000000
,
00000100
00000000
00000000
00001000
00000000
00001000
00010000
00000000
00010000
00100000
00000000
00000000
,
10000000
00000000
00000000
00100000
00000000
00100000
00010000
00000000
00010000
00001000
00000000
00000000
,
00002200
00000000
00000000
00003300
,
00000010
00000001
00000000
00000000
,
00000000
00000000
00000101
00000000
00000001
00000100
00001000
00000100
,
00010000
00001000
00100000
00010000
00100000
10000000
01000000
00100000
,
00010000
00000000
11000000
00000000
10000000
01000000
00010000
01000000
,
00001000
00010000
00000010
00001000
00000010
00000001
00000100
00000010
,
00001000
00000000
00000010
00010000
00000100
00010000
00001000
00010000
,
01000000
00010000
00001000
00010000
00000010
00010000
00100000
00010000
,
00001000
00000000
00110000
01000000
10000000
00000000
10100000
01000000
,
00010000
00000000
00001000
00001000
00010000
00010000
00000010
00001000
,
00000200
00000000
00000000
00000000
00000000
00000000
00000000
00000000
00000000
00000300
00000000
00000010
,
00000000
00000000
00000010
00000001
00000000
00000000
00001000
00000000
00001000
00000010
00000000
00000000
,
00000200
00000000
00000000
00002300
00000000
00000000
00023000
00000000
00000000
02030000
00000000
13000000
,
00000000
00000000
10000000
00100000
00000000
00000000
00010000
00000000
00010000
00100000
00000000
00000000
,
02000000
00000000
00000000
03020000
00000000
00000000
00032000
00000000
00000000
00003200
00000000
00000301
,
00000000
00000000
00000001
00000010
00000000
00000000
00000100
00000000
00000100
00000010
00000000
00000000
,
00000001
00000000
00000000
00001000
00000000
00000000
00010000
00000000
00000000
10000000
00000000
00010000
,
00000000
00000000
00010000
00100000
00000000
00000000
10000000
00000000
10000000
00100000
00000000
00000000
,
10000000
00010000
00001000
00000001
,
00000010
00000000
00000100
00000010
00000000
00000100
00000010
00000000
00000100
00000010
00000000
00000000
,
00010000
00000000
00001000
00010000
00000000
00001000
00010000
00000000
00001000
00010000
00000000
00000000
,
00100000
00100000
00100000
10000000
01000000
00010000
,
00001000
00001000
00001000
00000010
00000001
00001000
,
00000001
00000100
00001000
00010000
01000000
10000000
,
10010000
00000000
00000000
00000000
,
00000000
00000000
00000000
00000000
;
#NOTES:
     dance-double:
     :
     Hard:
     15:
     :
00000000
00000000
00000000
00000000
,
00000000
00000000
00000000
00000000
,
00000000
00000000
00000000
00000000
,
00000000
00000000
00000000
00000000
,
00000000
00000000
00000000
00000000
,
00001000
00000000
00000010
00000000
,
00000001
00000000
00000100
00000000
,
00000001
00000010
00000100
00001000
,
00010000
01000000
00100000
10000000
,
20020000
00000000
00000000
30030000
,
00100000
00000000
00100000
10000000
00000000
10000000
01000000
00000000
01000000
00010000
00000000
00001000
,
00000000
00000000
00001000
00000100
00000000
00000100
00000001
00000010
00000100
00001000
00000000
00000010
,
00000000
00000000
00000010
00000100
00000000
00000100
00001000
00000000
00001000
00010000
00000000
01000000
,
00000000
00000000
01000000
10000000
00000000
10000000
00010000
01000000
00100000
10000000
00000000
00100000
,
00000000
00000000
00100000
00010000
00000000
00010000
00001000
00000000
00001000
00000010
00000000
00001000
,
00000000
00000000
00001000
00010000
00000000
00010000
00100000
10000000
00010000
00100000
00000000
01000000
,
00000000
00000000
01000000
00010000
00000000
00010000
00001000
00000000
00001000
00000100
00000000
00001000
,
00000000
00000000
00001000
00010000
00000000
00010000
01000000
10000000
00010000
01000000
00000000
00000000
,
10000000
00000000
10000000
01000000
00000000
01000000
00001000
00000000
00001000
01000000
00000000
01000000
,
00100000
00000000
00100000
00010000
00000000
00010000
00000010
00000000
00000010
00010000
00000000
00010000
,
00001000
00000010
00000001
00000100
00001000
00010000
,
00022000
00000000
00000000
00000000
00000000
00000000
00000000
00000000
00000000
00033000
00000000
01100000
,
00000000
00000000
00100000
10000000
00000000
00010000
01000000
00000000
00001000
00010000
00000000
00000010
,
00001000
00000000
00000001
00000100
00000000
00000001
00001000
00000100
00000010
00000001
00000000
00000110
,
00000000
00000000
00000010
00000001
00000000
00001000
00000100
00000000
00010000
00001000
00000000
00100000
,
00010000
00000000
10000000
01000000
00000000
10000000
00010000
01000000
00100000
10000000
00000000
10010000
,
00000000
00000000
10000000
01000000
00000000
00100000
00010000
00000000
00001000
00000100
00000000
00000010
,
00000001
00000000
00000010
00000100
00000000
00001000
00010000
00100000
01000000
10000000
00000000
10010000
,
00000000
00000000
10000000
00100000
00000000
01000000
00010000
00000000
00001000
00000010
00000000
00000100
,
00000001
00000000
00000100
00000010
00000000
00001000
00010000
01000000
00100000
10000000
00000000
00000000
,
10000000
00000000
10000000
01000000
00000000
01000000
00001000
00000000
00001000
01000000
00000000
01000000
,
00100000
00000000
00100000
00010000
00000000
00010000
00000010
00000000
00000010
00010000
00000000
00010000
,
00001000
00000010
00000001
00000100
00001000
00010000
,
00022000
00000000
00000000
00033000
,
00000010
00000000
00000010
00000001
00000000
00000001
00000100
00000000
00000100
00000010
00000000
00000010
,
00010000
00001000
00100000
00010000
10000000
00100000
02000000
00000000
00000000
03100000
00000000
00100000
,
10000000
00000000
10000000
01000000
00000000
01000000
00100000
00000000
00100000
00010000
00000000
00010000
,
00001000
00000100
00000010
00000200
00000000
00000000
00001300
00000100
00000010
00000001
00000000
00000000
,
00000001
00000000
00000001
00001000
00000000
00001000
00010000
00000000
00010000
00001000
00000000
00001000
,
00000010
00000000
00000010
00001000
00000000
00001000
00010000
00000000
00010000
01000000
00000000
01000000
,
10000000
00000000
10000000
00010000
00000000
00010000
00001000
00000000
00001000
00010000
00000000
00010000
,
00100000
10000000
01000000
00010000
00001000
00000020
,
00000200
00000000
00000000
00000330
,
00000001
00000000
00000000
00000100
00000000
00000000
00001000
00010000
00100000
10000000
00000000
00000000
,
00010000
00000000
00000000
01000000
00000000
00000000
00100000
10000000
00010000
01000000
00000000
00000000
,
00100000
10000000
01000000
00100000
00000000
00100000
00001000
00010000
00001000
00010000
00000000
00010000
,
00000010
00001000
00000001
00000100
00000000
00000100
00000001
00001000
00000100
00000010
00000000
00000000
,
00000001
00000000
00000000
00000010
00000000
00000000
00000100
00010000
00001000
00010000
00000000
00000000
,
00001000
00000000
00000000
00100000
00000000
00000000
00010000
01000000
00100000
10000000
00000000
00000000
,
00010000
00000000
00010000
00100000
00000000
00100000
00010000
00000000
00010000
00001000
00000000
00001000
,
00010000
00100000
00001000
00010000
00000000
00000000
00100000
00010000
00001000
00010000
00000000
00000000
,
00001000
00000000
00000000
00000100
00000001
00001000
00000100
00000000
00000100
00000010
00000000
00000000
,
00000001
00000000
00000000
00000010
00001000
00010000
00001000
00000000
00001000
00010000
00000000
00000000
,
02020000
00000000
00000000
03030000
,
00100000
10000000
00000000
00000000
,
00000000
00000000
00000000
00000000
01000000
00000000
00100000
00000000
00001000
00010000
00000000
00010000
00000010
00001000
00000010
00001000
,
00000001
00000100
00000001
00000000
00000010
00000000
00000100
00000000
00010000
00001000
00000000
00001000
00100000
00010000
00100000
00010000
,
10000000
01000000
10000000
00000000
00010000
00000000
01000000
00000000
00100000
01000000
00000000
01000000
00100000
00010000
00100000
00010000
,
00001000
00010000
00001000
00000000
00000010
00000000
00000001
00000000
00000010
00000000
00001000
00000000
00001001
00000000
00000110
00000000
,
00001001
00000000
00000000
00000000
00000001
00000000
00000100
00000000
00000010
00001000
00000010
00000000
00001000
00010000
00001000
00010000
,
01000000
00100000
10000000
00000000
10000000
00000000
01000000
00000000
00100000
00010000
00100000
00000000
00010000
00001000
00010000
00001000
,
00000100
00000010
00000001
00000000
00000001
00000100
00000010
00000000
00000100
00000000
00000010
00000000
00010000
00001000
01000000
00000000
,
00100000
01000000
00100000
10000000
00010000
10000000
00110000
00011000
,
00002020
00000000
00000000
00000000
00000000
00000000
00000000
00000000
00000000
00003030
00000000
00000001
,
00000000
00000000
00000001
00000100
00000000
00000100
00001000
00000000
00001000
00000100
00000000
00000100
,
00000002
00000000
00000000
00002003
00000000
00000000
00023000
00000000
00000000
20030000
00000000
30010000
,
00000000
00000000
10000000
00100000
00000000
00100000
00010000
00000000
00010000
00100000
00000000
00100000
,
20000000
00000000
00000000
30020000
00000000
00000000
00032000
00000000
00000000
00003002
00000000
00001003
,
00000000
00000000
00000010
00000001
00000000
00000010
00000100
00000000
00000010
00001000
00000000
00000010
,
00000200
00000000
00000000
00002300
00000000
00000000
00023000
00000000
00000000
02030000
00000000
13000000
,
00000000
00000000
00100000
10000000
00000000
00100000
01000000
00000000
00100000
00010000
00000000
00100000
,
02000000
03020000
00032000
00003020
,
00000130
00000010
00001000
00000010
00000000
00001000
00000100
00000000
00010000
00001000
00000000
00100000
,
00010000
01000000
00100000
10000000
00000000
01000000
00100000
00000000
00001000
00010000
00000000
00000010
,
00001000
00000010
00000001
00001000
00000100
00000001
,
00000001
00000010
00001000
00010000
01000000
10000000
,
10100000
01100000
01010000
00011000
00001010
00000110
,
00001001
00000000
00000000
00000000
,
00000000
00000000
00000000
00000000
;
