
//----- song id: egoi
#TITLE:EGOISM 440;
#ARTIST:U1 High-Speed;
#BANNER:EGOISM 440.png;
#BACKGROUND:EGOISM 440-bg.png;
#CDTITLE:./CDTitles/DDR (2014).png;
#MUSIC:EGOISM 440.ogg;
#SAMPLESTART:10.909;
#SAMPLELENGTH:15;
#DISPLAYBPM:55:440;
#BPMS:0=110,20=440,268=880,272=440,274=220,355=55,356=110,357=220,358=440,420=110,421=440;
#STOPS:162=0.409,175=0.409,189=0.136,194=0.136,346.5=0.273,486=0.273,488=0.273,496=0.136,501=0.136,506=0.136,511=0.136,514=0.136;
#NOTES:
     dance-single:
     :
     Beginner:
     9:
     :
0000
0000
0000
0000
,
0000
0000
0000
0000
,
0000
0000
0000
0000
,
1000
1000
1000
0000
,
0001
0001
0001
0000
,
0001
0000
0001
0000
,
0001
0000
0100
0000
,
1000
0000
1000
0000
,
1000
0000
0000
0000
,
0001
0000
0001
0000
,
0100
0000
0100
0000
,
1000
0000
1000
0000
,
0001
0000
0100
0000
,
0010
0000
0010
0000
,
0001
0000
0001
0000
,
0010
0000
0010
0000
,
1000
0000
1000
0000
,
0010
0000
0010
0000
,
0001
0000
0001
0000
,
0010
0000
0010
0000
,
1000
0000
1000
0000
,
0001
0000
0001
0000
,
0001
0000
0100
0000
,
1000
0000
1000
0000
,
1000
0000
0000
0000
,
0001
0000
0001
0000
,
0100
0000
0100
0000
,
1000
0000
1000
0000
,
0001
0000
0100
0000
,
0010
0000
0010
0000
,
0001
0000
0001
0000
,
0010
0000
0010
0000
,
1000
0000
1000
0000
,
0010
0000
0010
0000
,
0001
0000
0001
0000
,
0010
0000
0010
0000
,
1000
0000
1000
0000
,
0010
0000
0010
0000
,
0010
0000
0000
0010
,
0000
0010
0000
0010
,
0000
0000
0100
0010
,
0000
0010
0000
0010
,
0000
0010
0000
0001
,
0000
0001
0000
0001
,
0010
0000
0010
0000
,
0010
0000
0100
0000
,
0100
0000
0100
0000
,
0100
0100
1000
0000
,
0001
0000
1000
0000
,
0000
0001
0000
1000
,
0000
0100
0000
0000
,
0010
0000
0010
0000
,
0001
0000
0001
0000
,
0010
0000
0010
0000
,
1000
0000
1000
0000
,
0010
0000
0010
0000
,
0001
0000
0001
0000
,
0010
0000
0010
0000
,
1000
0000
1000
0000
,
0001
0000
0100
0000
,
0010
0000
1000
0000
,
0010
0000
0100
0000
,
0001
0000
0100
0000
,
0010
0000
1000
0000
,
0010
0000
0100
0000
,
0001
0000
1000
0000
,
0100
0000
0000
0000
,
1001
0000
0000
0000
,
0000
0000
0000
0000
,
1000
0000
0100
0000
,
0001
1000
0100
0000
,
0010
0000
0100
0000
,
1000
0001
0100
0000
,
1000
0000
0100
0000
,
0001
0010
0001
0000
,
0010
0000
1000
0000
,
1000
1000
1000
0000
,
0001
0000
0100
0000
,
0100
0100
0010
0000
,
0001
0001
0010
0100
,
2000
0000
0000
3000
,
0010
0000
1000
0000
,
0001
0000
0100
0000
,
0010
0000
0100
0000
,
1000
0000
0100
0000
,
0001
0001
0000
0100
,
0100
0000
0100
0000
0100
0000
0000
1000
,
0000
1000
0000
0000
0000
0100
0000
0010
,
0000
0100
0000
0010
0000
0000
0000
0000
,
0000
0000
0000
0000
,
1001
0000
0001
0000
,
1000
0000
0010
0000
,
0100
0000
0010
0000
,
0100
0010
0100
0000
,
1001
0000
1000
0000
,
0001
0000
1000
0000
,
0001
0000
1000
0000
,
0010
0100
0010
0000
,
1001
0000
0001
0000
,
1000
0000
0001
0000
,
1000
0000
0001
0000
,
0100
0000
0100
0000
,
1001
0000
0000
0000
,
0001
1000
0001
0000
,
1001
0000
1001
0000
,
0000
0001
1000
0001
,
1000
0000
0000
0100
,
0000
0010
0000
0100
,
0000
0010
0000
0100
,
0000
0000
0010
0001
,
0010
0001
0000
0010
,
0000
0010
0000
0010
,
0000
0100
0000
0100
,
0000
1000
0100
1000
,
0100
0000
0000
1000
,
0000
0001
0000
1000
,
0000
0010
0000
0010
,
0000
0000
0001
1000
,
0001
1000
0000
0100
,
0000
0010
0000
0100
,
0000
1000
0000
0001
,
0000
1000
0000
0001
,
0000
1000
0000
0001
,
0000
1000
0000
0000
,
1001
0000
0001
0000
,
0010
0000
0000
1000
,
0000
0010
0000
0000
,
0001
0000
0010
0000
,
0010
0000
0000
0010
,
0000
0000
1001
0000
,
0000
0000
0000
0000
;
#NOTES:
     dance-single:
     :
     Easy:
     10:
     :
0000
0000
0000
0000
,
0000
0000
0000
0000
,
0000
0000
0000
0000
,
1000
0100
0001
0000
,
0001
0100
1000
0000
,
0001
0000
0001
0000
,
0100
0001
0100
0000
,
1000
0000
1000
0000
,
0001
0000
1000
0000
,
0001
0000
1000
0000
,
0100
0010
0100
0000
,
1000
0000
1000
0000
,
0001
0000
0100
0000
,
0100
0000
0010
0000
,
0001
0000
0010
0000
,
0100
0000
1000
0000
,
0100
0000
0010
0000
,
0001
0000
0010
0000
,
0100
0000
1000
0000
,
0001
0000
0100
0000
,
0001
0000
0001
0000
,
1000
0000
0001
0000
,
0100
0010
0100
0000
,
1000
0000
1000
0000
,
0001
0000
0100
0000
,
0001
0000
0001
0000
,
0100
0010
0100
0000
,
1000
0000
1000
0000
,
0001
0000
0100
0000
,
0100
0000
0010
0000
,
0001
0000
0010
0000
,
0100
0000
1000
0000
,
0100
0000
0010
0000
,
0001
0000
0010
0000
,
0100
0000
1000
0000
,
0001
0000
0100
0000
,
0001
0000
0000
0000
,
0010
0000
0010
0000
,
0010
0000
0000
0010
,
0000
0001
0000
0100
,
0010
0100
0100
1000
,
0000
1000
0000
0010
,
0000
0010
0000
0001
,
0000
0001
0000
0001
,
0010
0000
1000
0000
,
0010
0000
0001
0000
,
0100
0000
1000
0000
,
0100
0100
1000
0000
,
0001
0000
1000
0001
,
0000
1000
0000
0001
,
0000
1000
0100
0000
,
0100
0000
0100
0000
,
0010
0000
0001
0000
,
0010
0000
0100
0000
,
1000
0000
0100
0000
,
0010
0000
0001
0000
,
0010
0000
0100
0000
,
1000
0000
0001
0000
,
0100
0000
0001
0000
,
1000
0000
0100
0000
,
0010
0000
1000
0000
,
0010
0000
0100
0000
,
0001
0000
0100
0000
,
0010
0000
1000
0000
,
0010
0000
0100
0000
,
0001
0000
1000
0000
,
0100
0000
1000
0000
,
2002
0000
0000
0000
,
0000
0000
3003
0000
,
1000
0000
0100
0000
,
0001
0000
0000
0001
0100
0000
0000
0000
,
0010
0000
0100
0000
,
1000
0000
0000
1000
0100
0000
0000
0000
,
1000
0100
0010
0000
,
0001
0001
0001
0000
,
0001
0010
0100
0000
,
1000
1000
1000
0000
,
0001
0010
0100
1000
,
1000
0100
0010
0001
,
0010
0001
0010
0100
,
1000
1000
1000
0100
0000
0000
,
0010
0000
1000
0000
,
0001
0000
0000
0001
0100
0000
0000
0000
,
0010
0000
0100
0000
,
1000
0000
0000
1000
0100
0000
0000
0000
,
0001
0100
0001
0100
0000
0000
0000
0000
,
0100
0000
0100
0000
0100
0000
0000
1000
,
0100
1000
0100
0000
0000
0000
0000
0100
,
0000
0100
0000
0100
0000
0000
0000
0000
,
0000
0000
0000
0000
,
1001
0000
0001
0000
,
1000
0000
0010
0000
,
0100
0000
0010
0000
,
0100
0010
0100
0000
,
1001
0000
1000
0000
,
0001
0000
1000
0000
,
0001
0000
1000
0000
,
0010
0100
0010
0000
,
1001
0000
0001
0000
,
1000
0000
0001
0000
,
1000
0000
0001
0000
,
0100
0000
0100
0000
,
1001
0000
0000
0000
,
0001
1000
0001
0000
,
1001
0000
1001
0000
,
0000
0001
1000
0001
,
1000
0000
0000
0100
,
0000
0100
0000
0100
,
0000
0001
0000
1000
,
0000
0000
0010
0001
,
0010
0001
0000
0010
,
0100
0010
0100
0010
,
0000
0100
0000
0100
,
0000
1000
0100
1000
,
0100
0000
0000
1000
,
0001
1000
0001
1000
,
0000
0010
0000
0010
,
0000
0000
0001
1000
,
0001
1000
0000
0100
,
0010
0100
0010
0100
,
0000
0001
0000
0001
,
0000
1000
0000
0001
,
0000
1000
0000
0001
,
0000
1000
0000
0000
,
1001
0000
0001
0000
,
0010
0000
0000
1000
,
0000
0100
0000
0000
,
0001
0000
0010
0000
,
1000
0000
0000
0100
,
0000
0000
2002
0000
,
0000
0000
0000
0000
,
0000
0000
0000
0000
,
0000
0000
0000
0000
,
0000
0000
3003
0000
,
0000
0000
0000
0000
;
#NOTES:
     dance-single:
     :
     Medium:
     13:
     :
0000
0000
0000
0000
,
0000
0000
0000
0000
,
0000
0000
0000
0000
,
0001
0100
0001
1000
0100
1000
0100
0000
,
1000
0100
1001
0010
0001
1000
0100
0000
,
1000
0100
1000
0100
,
0000
0000
0010
0001
,
0010
0001
0100
0010
,
1000
0000
0110
0000
,
0000
1000
0100
0010
,
0001
0000
1000
0100
,
0010
0100
1000
0100
,
0001
0000
0100
0000
0001
0100
0000
0000
,
0001
0010
0001
1000
,
0001
0010
0001
1000
,
0100
0000
0001
0100
,
0000
0000
0000
0000
,
1000
0010
1000
0001
,
0010
0001
0010
0100
,
1000
0000
0001
0100
,
0000
0000
0000
0000
,
0001
0100
0001
0100
,
0000
0000
0010
1000
,
0010
1000
0100
0010
,
0110
0000
0011
0000
,
0000
0001
0100
0010
,
1000
0000
0001
0100
,
0010
0100
0001
0100
,
1000
0000
0100
0000
1000
0100
0000
0000
,
1000
0010
1000
0001
,
1000
0010
1000
0001
,
0100
0000
1000
0100
,
0000
0000
0000
0000
,
0001
0010
0001
1000
,
0010
1000
0010
0100
,
0001
0000
1000
0100
,
0000
0000
0000
0000
,
1000
0001
0100
0001
,
0100
0000
0000
0100
,
0010
1000
0001
0100
,
0001
0100
0001
1000
,
0100
0010
0001
0000
,
0100
0010
0100
0010
,
1000
0001
0100
0001
,
1000
0001
1000
0010
,
0000
0000
0001
1000
,
0010
1000
0010
0100
,
0010
1000
0100
0010
,
0100
0010
0100
0001
,
0010
0001
0010
1000
,
0100
1000
0100
0000
,
1000
0000
1000
0000
,
0001
0000
0001
0000
,
0100
0010
0100
0000
,
1000
0001
0100
0000
,
1000
0010
0100
0000
,
0001
0100
0001
0000
,
1000
0100
1000
0000
,
0100
0000
0001
0000
,
1000
0000
1000
0000
,
0001
0000
0001
0000
,
0100
0010
0100
0000
,
1000
0001
0100
0000
,
1000
0010
0100
0000
,
0001
0010
0001
0000
,
1000
0100
0010
0000
,
0001
0000
1000
0000
,
2002
0000
0000
0000
,
0000
0000
3003
0000
,
1000
0100
0010
0100
,
1000
0000
0000
0000
0000
0001
0000
0000
,
0100
0010
0001
0200
,
0000
0000
0310
0000
,
1000
0000
1000
0000
0001
0010
0001
0010
,
0001
1000
0100
0010
1000
0000
0000
0000
,
1000
0000
1000
0000
0001
1000
0001
1000
,
0001
1000
0010
0100
0001
0000
1000
0000
,
0100
0010
0001
1000
,
0100
0000
0010
0001
,
0100
1000
0100
0001
,
1000
1000
1000
0100
0000
0000
,
0001
0000
0001
0000
1000
0010
1000
0010
,
1000
0001
0100
0010
0001
0000
0000
0000
,
0001
0000
0001
0000
1000
0001
1000
0001
,
1000
0001
0010
0100
1000
0000
0000
0000
,
0001
0100
0001
0100
0000
0000
0001
0100
,
0001
0010
0100
1000
0010
0100
0000
0001
,
0010
0001
0010
0000
0001
0010
0001
0010
,
0001
0100
0010
1000
0000
0000
2002
0000
,
0000
0000
3003
0000
,
1001
0000
0001
0010
,
0001
0010
0001
1000
,
0000
0000
0001
0000
,
1000
0000
0001
0100
,
0101
0000
0100
0010
,
1000
0100
1000
0100
,
1000
0000
0001
0000
,
0100
0010
1000
0000
,
1001
0000
0010
0000
,
0100
0010
0100
0010
,
0000
0000
0010
0000
,
1000
0001
0100
0000
,
1001
0000
0010
0000
,
0001
0010
0001
0010
0001
0010
,
0001
0000
0200
0300
,
0000
1000
0100
1000
,
0100
0000
0000
1000
,
0001
0100
0010
1000
,
0010
0100
0001
0010
,
0000
0000
0010
0001
,
0010
0001
0000
0010
,
0100
0010
0100
0010
,
0100
1000
0100
1000
,
0000
0010
0100
1000
,
0100
0000
0000
1000
,
0001
0100
0010
1000
,
0010
0100
0001
0010
,
0000
0000
0100
1000
,
0100
1000
0000
0001
,
0010
0100
0010
0100
,
0010
0001
0010
0100
,
0000
1000
0100
0001
,
0100
0001
0010
0100
,
1000
0100
0010
0100
,
0010
0100
1000
0001
,
0100
0001
0010
0100
,
1000
0100
1000
0010
,
0100
0001
0100
0001
,
0010
0001
0010
0100
,
1000
0100
2002
0000
,
0000
0000
0000
0000
,
0000
0000
0000
0000
,
0000
0000
0000
0000
,
0000
0000
3003
0000
,
0000
0000
0000
0000
;
#NOTES:
     dance-single:
     :
     Hard:
     18:
     :
0000
0000
0000
0000
,
0000
0000
0000
0000
,
0000
0000
0000
0000
,
0001
0000
0100
0001
0100
0000
0000
0000
1000
0010
1000
0010
1000
0000
0000
0000
1000
0000
0000
0000
0001
0000
0100
0000
0000
0000
0000
0000
0000
0000
0000
0000
,
1000
0000
0100
1000
0100
0000
0000
0000
0001
0010
0001
0010
0001
0000
0000
0000
0100
0000
0000
0000
0002
0000
0200
0000
0000
0000
0000
0000
0303
0000
0000
0000
,
1000
0100
1000
0100
,
1000
0100
0010
0001
,
0010
0001
0100
0010
,
1000
0010
0100
0010
0100
0010
1000
0000
,
0000
1000
0100
0010
,
0001
0010
0001
0100
,
0010
0100
0001
0100
,
1000
0000
0100
0000
0010
0100
0010
0100
,
0001
0010
0001
1000
,
0001
0000
0010
0000
0001
0000
1000
0010
,
1000
0000
0001
0101
,
0000
0000
0000
0000
0010
0100
0010
0100
,
0001
0010
0010
1000
,
1000
0000
0001
0000
0010
0000
0100
0010
,
1000
0000
0001
0101
,
0000
1000
0100
0010
,
0001
0100
0001
0100
0001
0100
0001
0100
,
0010
0100
0010
0100
0010
0100
0010
0100
,
1000
0100
1000
0100
1000
0100
1000
0100
,
0010
0000
0010
0000
,
0001
0100
0001
0100
0001
1000
0001
1000
,
0010
0100
0010
0100
1000
0100
1000
0100
,
0010
0100
0010
0100
0001
0100
0001
0100
,
0010
0000
0002
0000
,
0003
1000
0010
1000
,
0001
1000
0100
1000
,
0100
0010
0001
0100
,
0001
0000
1000
0010
0100
0010
0100
0010
,
1000
0001
1000
0001
,
1000
0100
1000
0001
,
0100
0010
0001
0010
,
0100
0000
0010
0000
0100
0010
0100
0010
,
0100
0001
0100
0001
,
0100
0000
0010
0000
0100
0000
0010
0000
0000
0100
0000
0000
,
0010
1000
0001
0100
,
0001
0010
0001
0000
0011
0000
0001
0000
,
0100
0000
0010
0000
1000
0010
0000
0000
,
0100
0010
0100
0010
,
0001
1000
0100
1000
,
0001
1000
0001
0010
,
0001
0100
0000
0000
0001
0000
1000
0000
,
0010
0000
1000
0000
0010
0100
0001
0010
,
0001
1000
0100
0010
,
0100
0010
0100
0001
,
0010
0001
0010
1000
,
0100
1000
0100
0000
,
1000
0100
0010
0001
,
0100
0010
0100
0001
,
0010
0001
0000
0000
0010
0001
0000
0000
,
0000
0000
0101
0000
,
1000
0010
0100
0010
,
0001
0100
0010
1000
0001
0010
,
0001
0000
0000
0001
0010
0001
,
0100
0000
0101
0100
,
0010
0100
0010
1000
,
0100
0010
0100
1000
,
0001
0100
0000
0000
1000
0100
0000
0000
,
0000
1000
0100
0000
,
0001
0010
0100
0010
,
1000
0100
0010
0001
1000
0010
,
1000
0000
0000
0001
0010
0100
,
1000
0000
1000
0000
,
2002
0000
0000
0000
,
0000
0000
0000
3003
,
1000
0100
0010
0100
,
2000
0000
0000
0000
0000
0001
0000
0000
,
3200
0010
0301
0200
,
0000
0000
0310
0000
,
1000
0000
0000
0100
0000
0000
1000
0000
0000
0100
0000
0000
1000
0000
0000
0000
0000
0000
0010
0000
0000
0000
0000
0000
0100
0000
0000
0000
0001
0000
0000
0000
0010
0000
0000
0000
0001
0000
0000
0000
0000
0000
0100
0000
0000
0000
0000
0000
,
0001
0000
0000
1000
0000
0000
0000
0000
0000
0010
0000
0000
1000
0000
0000
0000
0000
0000
0001
0000
0100
0000
0010
0000
,
1000
0000
0000
0100
0000
0000
1000
0000
0000
0100
0000
0000
1000
0000
0000
0000
0000
0000
0010
0000
0000
0000
0000
0000
0100
0000
0000
0000
0001
0000
0000
0000
0010
0000
0000
0000
0001
0000
0000
0000
0000
0000
0100
0000
0000
0000
0000
0000
,
0001
1000
0000
0010
1000
0000
0001
0000
,
0100
0000
0000
0010
0000
0000
1000
0000
0000
0001
1000
0010
,
0100
0010
0100
0001
,
0100
0100
0100
0001
,
1000
0010
0100
0001
0000
0000
,
0001
0000
0000
0010
0000
0000
0001
0000
0000
0010
0000
0000
0001
0000
0000
0000
0000
0000
0100
0000
0000
0000
0000
0000
0010
0000
0000
0000
1000
0000
0000
0000
0100
0000
0000
0000
1000
0000
0000
0000
0000
0000
0010
0000
0000
0000
0000
0000
,
1000
0000
0000
0001
0000
0000
0000
0000
0000
0100
0000
0000
0001
0000
0000
0000
0000
0000
0001
0000
0010
0000
0100
0000
,
1000
0000
0000
0010
0000
0000
1000
0000
0000
0010
0000
0000
1000
0000
0000
0000
0000
0000
0100
0000
0000
0000
0000
0000
0010
0000
0000
0000
0001
0000
0000
0000
0100
0000
0000
0000
0001
0000
0000
0000
0000
0000
0010
0000
0000
0000
0000
0000
,
0001
0000
0000
0000
0000
0000
1000
0000
0000
0000
0000
0000
0010
0000
0000
0000
0100
0000
0000
0010
0000
0000
0000
0000
1000
0000
0000
0100
0000
0000
1000
0000
0000
0100
0000
0000
1000
0000
0000
0000
0000
0000
0001
0000
0000
0000
0000
0000
,
0001
0000
0100
0000
0001
0000
0100
0000
0010
1000
0010
0000
0001
0000
0100
0000
,
0001
0010
0100
1000
0010
0100
0000
0001
,
0010
0001
0010
0000
0001
0010
0001
0010
,
0001
0100
0010
1000
0000
0000
2002
0000
,
0000
0000
0000
3003
,
0100
0000
0001
0010
,
0001
0010
0001
1000
,
0000
0000
1000
0000
,
0001
0000
1000
0010
,
0001
0000
0100
0010
,
1000
0010
1000
0010
,
0001
0000
1000
0000
,
0001
0100
0001
0000
1000
0000
0100
0000
,
1000
0000
0010
0100
,
0001
0100
0001
0100
,
0000
0000
0010
0000
,
1000
0001
0100
0001
,
0101
0000
0010
0100
,
0010
1000
0100
0010
0001
0100
,
0001
0000
0202
0000
,
0303
0000
0010
1000
0010
1000
0010
1000
,
0010
0000
0000
0000
1000
0000
0001
0100
,
0001
0100
0001
0100
0001
0100
0010
0100
,
0010
0100
0010
0100
0010
0100
0001
0000
,
0000
0000
0000
0010
0001
0010
0001
0100
,
0001
0100
0010
0100
0010
0100
1000
0100
,
1000
0100
0010
0100
0010
0100
0001
0100
,
0001
0100
0000
0000
0000
0000
0001
0000
,
0000
0000
0010
0100
0010
0100
0010
0100
,
0010
0100
0001
0010
0001
0010
0001
0100
,
0010
0100
0010
0100
0010
0100
0001
0100
,
0001
0100
0001
0000
0000
0000
1000
0000
,
0000
0000
0001
1000
0010
0100
0010
1000
,
0100
0010
0001
0100
0001
0010
0100
1000
,
0100
0010
0100
1000
0001
0010
0100
1000
,
0010
1000
0100
0000
0010
0000
0100
0000
,
0010
0000
1000
0100
1000
0000
0001
0010
,
0001
0001
0010
0100
,
0001
0100
0010
0100
,
1000
0010
0100
0001
,
0100
0001
0010
0100
,
0001
0100
1000
1000
,
0100
0001
0100
1000
,
0001
0010
0001
0010
0000
1000
0100
1000
,
0100
1000
2002
0000
,
0000
0000
0000
0000
,
0000
0000
0000
0000
,
0000
0000
0000
0000
,
0000
0000
3003
0000
,
0000
0000
0000
0000
;
#NOTES:
     dance-single:
     :
     Challenge:
     19:
     :
0000
0000
0000
0000
,
0000
0000
0000
0000
,
0000
0000
0000
0000
,
0001
0000
0010
0001
0010
0000
0000
0000
1000
0100
1000
0100
1000
0000
0000
0000
1000
0000
0000
0000
0001
0000
0010
0000
0000
0000
0000
0000
0001
0000
0000
0000
,
1000
0000
0010
1000
0010
0000
0000
0000
0001
0100
0001
0100
0001
0000
0000
0000
0010
0000
0000
0000
0002
0000
0020
0000
0000
0000
0000
0000
0033
0000
0000
0000
,
0001
0000
0010
0000
0001
0000
1000
0100
,
1000
0000
0010
0000
0100
0000
0001
0010
,
0100
1000
0010
0100
,
0001
1000
0100
1000
0001
0100
0001
0000
,
1000
0000
0001
0000
0010
0000
0100
1000
,
0001
0100
0001
0010
,
0100
0000
0010
0000
0001
0000
0100
0010
,
1000
0000
0010
0000
0100
0010
0100
0000
,
0001
0100
0001
0000
1000
0010
1000
0000
,
0001
1000
0001
0000
0010
0000
0001
0100
,
0010
0000
1000
0001
0100
0000
0010
0000
,
1000
0001
1000
0000
0100
0010
0100
0010
,
0001
0000
0100
0001
0100
0000
0010
0100
,
0001
0000
1000
0001
0100
0000
0010
0100
,
0001
0000
0010
0001
1000
0000
0001
0000
,
0000
0000
1000
0000
0010
1000
0100
0010
,
0001
0010
0001
0100
0001
0010
0001
1000
,
0100
0010
0001
0010
0100
1000
0001
0010
,
0100
0010
0001
1000
0001
0010
0001
0010
,
0100
0010
0001
0010
0100
1000
0100
0010
,
0001
1000
0001
0010
0001
1000
0001
1000
,
0100
0010
0001
0010
0100
1000
0001
0010
,
0100
1000
0100
0010
0001
0010
0001
1000
,
0100
0010
0001
0010
0001
0100
0001
1000
,
0001
0000
0100
0010
0100
0000
0001
0000
,
0010
0000
0001
1000
0010
0000
1000
0000
,
0010
0100
0010
0001
1000
0000
0001
0000
,
1000
0000
0001
0100
0010
1000
0010
1000
,
0001
0100
0001
0000
1000
0010
1000
0000
,
0001
0100
0010
0000
1000
0010
0100
0000
,
0001
1000
0001
0000
1000
0010
0100
0000
,
0001
0000
0010
0000
0100
1000
0100
0000
,
1000
0001
0010
0001
,
0010
0000
0100
0000
1000
0000
0001
0000
0000
0110
0000
0000
,
0110
0000
1000
0000
0001
0000
0010
0100
,
0001
0100
0001
0000
0101
1000
0001
0000
,
0010
0000
0100
0000
1000
0100
0000
0000
,
0010
0001
0100
0000
0010
1000
0100
0000
,
0010
0000
0001
0000
0010
0000
1001
0010
,
1000
0001
1000
0100
,
1000
0000
0010
0000
1000
0000
0010
0000
0000
1000
0000
0000
,
0100
0000
1000
0000
0100
0010
0001
0100
,
0001
0000
0101
1000
0010
1000
0100
0000
,
0010
0000
0100
0000
0110
1000
0001
1000
,
0100
0000
0001
0000
0100
0001
1000
0000
,
0010
1000
0010
0000
,
1000
0001
0010
0000
0100
1000
0001
0000
,
0010
0000
0100
1000
0010
0000
1000
0000
,
0100
0000
1000
0100
0000
0000
0001
0100
,
0010
0000
0001
0000
0010
0100
0000
0000
,
1000
0100
0010
0100
,
1000
0010
0100
0001
1000
0100
,
1000
0000
0000
0000
0000
0000
0000
0000
0000
0001
0000
0000
1000
0000
0000
0000
0100
0000
0000
0000
1000
0000
0000
0000
,
0010
0000
0100
0000
0001
1000
0010
0000
,
1000
0010
0100
0001
,
0010
0000
0100
1000
0010
0000
1000
0000
,
0001
0100
0001
0000
1000
0010
0100
0000
,
0010
0000
1000
0000
0010
0100
0010
0000
,
1000
0100
0010
0100
,
1000
0010
0100
0001
1000
0100
,
1000
0000
0000
0010
0000
0000
1000
0000
0100
0000
0010
0000
,
0001
0100
1001
0000
,
2000
0000
0000
3020
,
0000
0000
0230
0301
,
1000
0010
0000
0010
0100
0000
0100
0001
0000
0010
0100
0000
,
1000
0000
0010
0000
0000
0000
1000
0000
0000
0100
0000
0000
0010
0000
0000
0001
0000
0000
0100
0000
0000
0001
0000
0000
,
0010
0100
0000
0100
0001
0000
0001
0010
0000
0010
1000
0000
,
0001
0000
0000
0000
1000
0000
0000
0000
1000
0000
0000
0000
0110
0000
0000
0000
0000
0000
0001
0000
0000
0100
0000
0000
,
1000
0000
0000
0010
0000
0000
1000
0000
0000
0010
0000
0000
1000
0000
0000
0000
0000
0000
0100
0000
0000
0000
0000
0000
0010
0000
0000
0000
0001
0000
0000
0000
0100
0000
0000
0000
0001
0000
0000
0000
0000
0000
0010
0000
0000
0000
0000
0000
,
0001
0000
0000
1000
0000
0000
0010
0100
0010
0100
0000
0000
1000
0000
0000
0010
0000
0000
1000
0000
0010
0000
0100
0000
,
0001
0000
0000
0010
0000
0000
0001
0000
0000
0010
0000
0000
0001
0000
0000
0000
0000
0000
0100
0000
0000
0000
0000
0000
0010
0000
0000
0000
1000
0000
0000
0000
0100
0000
0000
0000
1000
0000
0000
0000
0000
0000
0010
0000
0000
0000
0000
0000
,
1000
0000
0000
0001
0000
0000
0010
0100
0010
0100
0000
0000
0001
0000
0000
0010
0000
0000
0001
0000
0000
1000
0000
0000
,
0010
0000
0000
1000
0000
0000
0100
0000
0000
1000
0000
0000
0001
0000
0000
0000
0000
0000
0001
1000
0001
0000
0100
0000
,
0010
0000
0000
0000
0010
0000
0000
0000
0100
0001
0010
0001
1000
0000
0010
0000
,
1000
0000
0000
0100
0001
0000
0000
0100
0010
0000
0000
0100
0001
0000
0000
0010
,
1000
0000
0000
0000
0100
0000
0000
0000
0010
0000
0000
0000
0001
0000
0000
0100
0000
0000
0001
0000
0000
0010
0000
0000
,
0001
0000
0000
0100
0000
0000
0001
0000
0000
0100
0000
0000
0001
0000
0000
0000
0000
0000
0010
0000
0000
0000
0000
0000
0100
0000
0000
0000
1000
0000
0000
0000
0010
0000
0000
0000
1000
0000
0000
0000
0000
0000
0100
0000
0000
0000
0000
0000
,
1000
0000
0000
0001
0000
0000
0100
0010
0100
0010
0000
0000
0001
0000
0000
0000
0000
0000
0001
0000
0100
0000
0010
0000
,
1000
0000
0000
0100
0000
0000
1000
0000
0000
0100
0000
0000
1000
0000
0000
0000
0000
0000
0010
0000
0000
0000
0000
0000
0100
0000
0000
0000
0001
0000
0000
0000
0010
0000
0000
0000
0001
0000
0000
0000
0000
0000
0100
0000
0000
0000
0000
0000
,
0001
0000
0000
0000
0000
0000
1000
0000
0000
0000
0000
0000
0100
0000
0010
0000
0100
0000
0010
0000
0000
0000
0000
0000
0001
0000
0000
1000
0000
0000
0001
0000
0000
0010
0000
0000
0001
0000
0000
0000
0000
0000
1000
0000
0000
0000
0000
0000
,
0001
0000
0000
0010
0000
0000
0001
0000
0000
0010
0000
0000
0100
1000
0100
1000
0000
0000
0001
0000
0000
0010
0000
0000
,
0001
0100
0010
1000
0100
0010
0000
0001
,
0100
0000
0000
0001
0000
0000
0100
0010
0100
0000
0010
0000
1000
0000
0000
0100
0000
0000
1000
0000
0000
0100
0000
0000
,
1000
0010
0100
0001
0000
0000
1001
0000
,
0001
0010
1000
0010
1000
0000
1010
0000
,
0100
0000
1000
0000
0100
0010
0100
0000
,
0001
0000
0000
0100
0000
0000
0001
0000
0000
1000
0000
0010
,
0000
1000
0000
0001
0000
0000
0100
0000
0000
0010
0000
0000
,
1000
0100
1000
0010
,
1000
0001
1000
0000
0010
0000
0100
0000
,
1000
0001
0100
0000
0001
0100
0001
0000
,
1000
0010
1000
0000
0001
0010
0001
0000
,
1000
0010
0100
0001
0100
0000
0001
1000
,
1001
1000
0001
0100
,
0001
0100
0001
0100
0001
1000
0001
0000
,
0010
0000
0001
0100
0001
0000
1000
0000
,
0001
0010
0001
0000
0010
0000
0001
0000
,
0011
1000
0100
0010
,
0100
1000
0010
0100
0001
0010
,
0001
0100
0010
0100
0000
0000
0000
0000
,
0000
0110
0001
0010
0001
0010
0001
1000
,
0001
1000
0100
0010
0100
0010
0001
0010
,
0001
0010
0100
0010
0100
0010
0001
0010
,
0001
0010
0100
0010
0100
0010
0100
1000
,
0100
1000
0100
1000
0001
1000
0001
0010
,
0001
0010
0100
0010
0100
0010
0001
1000
,
0001
1000
0100
0010
0100
0010
0001
0010
,
0001
0010
0100
0010
0100
0010
0001
0100
,
0010
0100
0010
0000
0000
0000
1000
0000
0010
0000
0100
0000
0001
0000
0010
0000
,
0100
1000
0001
0100
0010
1000
0010
1000
,
0100
0010
0001
0010
0100
0010
0100
1000
,
0100
0010
0001
0100
0010
0100
0001
1000
,
0100
1000
0100
0000
0000
0000
1000
0000
0001
0000
0010
0000
0100
0000
0010
0000
,
0001
0100
0010
1000
0100
1000
0010
0100
,
0001
0100
0010
0100
0001
1000
0010
0100
,
0001
0010
0001
0100
0010
1000
0001
0100
,
0001
0000
1000
0010
1000
0100
0010
0100
,
1000
0100
0001
0000
0100
0000
0010
0000
,
0001
0010
0100
0010
,
0110
0001
0100
0000
0010
0000
1000
0000
,
0010
0000
0011
1000
0100
0000
0010
0000
,
0001
0000
0010
0000
1001
0100
1000
0000
,
0010
0000
0001
0000
0010
0000
1000
0010
,
0001
0100
0001
0100
0010
1000
0010
1000
,
0010
0000
0000
0000
0100
0000
0000
0000
2002
0000
0000
0000
0000
0000
0000
0003
,
3000
0000
0000
0000
,
0000
0000
0000
0000
;
#NOTES:
     dance-double:
     :
     Easy:
     10:
     :
00000000
00000000
00000000
00000000
,
00000000
00000000
00000000
00000000
,
00000000
00000000
00000000
00000000
,
10000000
01000000
00010000
00000000
,
00001000
00000100
00000001
00000000
,
00000010
00000000
00000001
00000000
,
00000100
00001000
00010000
00000000
,
01000000
00000000
10000000
00000000
,
00010000
00000000
10000000
00000000
,
00010000
00000000
10000000
00000000
,
01000000
00010000
00001000
00000000
,
00000100
00000000
00000001
00000000
,
00001000
00000000
00000100
00000000
,
00000000
00000001
00000000
00000010
,
00000000
00001000
00000000
00010000
,
00000000
01000000
00000000
10000000
,
00000000
01000000
00000000
00010000
,
00000000
00001000
00000000
00000010
,
00000000
00000001
00000000
00000100
,
00000000
00001000
00000000
00010000
,
00000000
01000000
00000000
00100000
,
00010000
00000000
10000000
00000000
,
01000000
00100000
01000000
00000000
,
10000000
00000000
01000000
00000000
,
00010000
00000000
00001000
00000000
,
00000100
00000000
00000001
00000000
,
00001000
00000001
00000100
00000000
,
00001000
00000000
00010000
00000000
,
01000000
00000000
10000000
00000000
,
00000000
10000000
00000000
00100000
,
00000000
00010000
00000000
00001000
,
00000000
00000100
00000000
00000001
,
00000000
00000100
00000000
00001000
,
00000000
00010000
00000000
00100000
,
00000000
10000000
00000000
01000000
,
00000000
00010000
00000000
00001000
,
00000000
00000100
00000000
00000010
,
00000100
00000000
00000001
00000000
,
00000100
00000000
00000000
00001000
,
00000000
00010000
00000000
01000000
,
10000000
01000000
01000000
10000000
,
00000000
10000000
00000000
00100000
,
00000000
00100000
00000000
00010000
,
00000000
00010000
00000000
00001000
,
00000010
00000000
00000001
00000000
,
00000100
00000000
00001000
00000000
,
00010000
00000000
10000000
00000000
,
01000000
01000000
10000000
00000000
,
01000000
00000000
00010000
00001000
,
00000100
00000000
00000001
00000000
,
00000100
00000000
00000010
00000000
,
00000000
00000001
00000000
00000010
,
00000000
00001000
00000000
00010000
,
00000000
01000000
00000000
10000000
,
00000000
01000000
00000000
00010000
,
00000000
00001000
00000000
00000010
,
00000000
00000001
00000000
00000100
,
00000000
00001000
00000000
00010000
,
00000000
01000000
00000000
00100000
,
00010000
00000000
10000000
00000000
,
01000000
00100000
01000000
00000000
,
10000000
00000000
01000000
00000000
,
00010000
00000000
00001000
00000000
,
00000100
00000000
00000001
00000000
,
00001000
00000001
00000100
00000000
,
00001000
00000000
00010000
00000000
,
01000000
00000000
10000000
00000000
,
22000000
00000000
00000000
00000000
,
00000000
00000000
33000000
00000000
,
10000000
01000000
00010000
00001000
,
00000010
00000000
00000000
00000000
00000000
00000001
00000000
00000000
,
00000001
00000100
00001000
00010000
,
00100000
00000000
00000000
00000000
,
10000000
01000000
00010000
00000000
,
00001000
00000000
00000010
00000000
,
00000001
00000100
00001000
00000000
,
00010000
00100000
10000000
00000000
,
10000000
01000000
00010000
00001000
,
00000100
00000001
00000010
00000001
,
00000100
00001000
00010000
00001000
,
00010000
00001000
00001000
00010000
00000000
00000000
,
00100000
01000000
00010000
00000000
,
10000000
01000000
00010000
00000000
,
00001000
00000000
00000100
00000000
,
00000001
00000010
00000001
00000000
,
00000001
00000100
00000001
00000100
00000000
00000000
00001000
00000000
,
00001000
00000000
00010000
00000000
01000000
00000000
00000000
10000000
,
01000000
10000000
01000000
00000000
00000000
00000000
00000000
10000000
,
00000000
01000000
00000000
00010000
00000000
00000000
00000000
00000000
,
00000000
00000000
00000000
00000000
,
00000101
00000000
00000100
00000000
,
00001000
00000000
00010000
00000000
,
01000000
00000000
10000000
00000000
,
01000000
00100000
01000000
00000000
,
10000000
00000000
01000000
00000000
,
00010000
00000000
00001000
00000000
,
00000100
00000000
00000001
00000000
,
00000010
00000100
00000010
00000000
,
00001001
00000000
00000001
00000000
,
00000100
00000000
00001000
00000000
,
00010000
00000000
01000000
00000000
,
10000000
00000000
01000000
00000000
,
10010000
00000000
00000000
00000000
,
10000000
01000000
00010000
00000000
,
00011000
00000000
00011000
00000000
,
00000000
00010000
00001000
00010000
,
00001000
00000000
00000000
00001000
,
00000000
00000100
00000000
00000001
,
00000000
00001000
00000000
00000001
,
00000000
00000000
00000001
00000100
,
00000001
00000100
00000000
00001000
,
00010000
00001000
00010000
00001000
,
00000000
01000000
00000000
01000000
,
00000000
00010000
01000000
00010000
,
01000000
00000000
00000000
00010000
,
10000000
00010000
10000000
00010000
,
00000000
10000000
00000000
00100000
,
00000000
00000000
00010000
00001000
,
00010000
00001000
00000000
00000100
,
00000010
00000100
00000010
00000100
,
00000000
00000001
00000000
00000100
,
00000000
00001000
00000000
00010000
,
00000000
01000000
00000000
10000000
,
00000000
10000000
00000000
00000000
,
11000000
00000000
10000000
00000000
,
00100000
00000000
00000000
00010000
,
00000000
00001000
00000000
00000000
,
00000100
00000000
00000001
00000000
,
00000100
00000000
00000000
00001000
,
00000000
00000000
00022000
00000000
,
00000000
00000000
00000000
00000000
,
00000000
00000000
00000000
00000000
,
00000000
00000000
00000000
00000000
,
00000000
00000000
00033000
00000000
,
00000000
00000000
00000000
00000000
;
#NOTES:
     dance-double:
     :
     Medium:
     14:
     :
00000000
00000000
00000000
00000000
,
00000000
00000000
00000000
00000000
,
00000000
00000000
00000000
00000000
,
10000000
01000000
00010000
00001000
00000100
00000001
00000010
00000000
,
00000001
00000100
00001000
00010000
01000000
10000000
01000000
00000000
,
10000000
01000000
00010000
00001000
,
00000000
00000000
00010000
00001000
,
00000100
00000010
00001000
00000010
,
00000100
00000000
00000101
00000000
,
00000000
00000001
00000100
00001000
,
00010000
00000000
00001000
00010000
,
00001000
00010000
00100000
10000000
,
01000000
00100000
00010000
00000000
,
10000000
00000000
01000000
00000000
,
00010000
00001000
00000100
00000001
,
00000100
00000000
00000010
00000100
,
00000000
00000000
00000000
00000000
,
00000100
00000000
00010000
00000000
,
00001000
00010000
00001000
00010000
,
01000000
00000000
10000000
01000000
,
00000000
00000000
00000000
00000000
,
10000000
01000000
00010000
00001000
,
00000000
00000000
00010000
00001000
,
00000100
00000010
00001000
00000010
,
00000100
00000000
00000101
00000000
,
00000000
00000001
00000100
00001000
,
00010000
00000000
00001000
00010000
,
00001000
00010000
00100000
10000000
,
01000000
00100000
00010000
00000000
,
10000000
00000000
01000000
00000000
,
00010000
00001000
00000100
00000001
,
00000100
00000000
00000010
00000100
,
00000000
00000000
00000000
00000000
,
00000100
00000000
00010000
00000000
,
00001000
00010000
00001000
00010000
,
00001000
00000000
00010000
00011000
,
00000000
00000000
00000000
00000000
,
00001000
00010000
01000000
10000000
,
01000000
00000000
00000000
10000000
,
00100000
10000000
00100000
00010000
,
00001000
00000100
00000001
00000001
,
00000010
00000100
00001000
00000000
,
00000010
00010000
00000010
00010000
,
00001000
00010000
01000000
10000000
,
00001000
00010000
01000000
10000000
,
00000000
00000000
01000000
10000000
,
00100000
10000000
00100000
00010000
,
00001000
00000100
00000001
00000100
,
00000010
00000100
00000001
00001000
,
00000010
00010000
00000010
00010000
,
00001000
00010000
01000000
00000000
,
10000000
01000000
10000000
00000000
,
01000000
00100000
01000000
00000000
,
00010000
00001000
00010000
00000000
,
00001000
00000100
00000001
00000000
,
00001000
00000001
00000100
00000000
,
00001000
00010000
00001000
00000000
,
00010000
01000000
10000000
00000000
,
01000000
00000000
00010000
00000000
,
00001000
00000100
00000001
00000000
,
00000100
00000010
00000100
00000000
,
00001000
00010000
00001000
00000000
,
00010000
01000000
10000000
00000000
,
00010000
10000000
01000000
00000000
,
00010000
00001000
00010000
00000000
,
00001000
00000100
00000001
00000000
,
00000100
00000000
00001000
00000000
,
00022000
00000000
00000000
00000000
,
00000000
00000000
00033000
00000000
,
00001000
00010000
00100000
01000000
,
10000000
00000000
00000000
00000000
00000000
01000000
00000000
00000000
,
00010000
00001000
00000100
00000002
,
00000000
00000000
00000103
00000000
,
00000001
00000001
00000100
00000100
,
00001000
00010000
01000000
10000000
01000000
00000000
00000000
00000000
,
10000000
10000000
01000000
01000000
,
00010000
00001000
00000100
00000001
00000100
00000000
00000001
00000000
,
00000100
00001000
00010000
00100000
,
10000000
00000000
00100000
10000000
,
01000000
00010000
00001000
00000010
,
00000001
00000010
00000001
00000100
00000000
00000000
,
00001000
00001000
00010000
01000000
,
10000000
00010000
01000000
00100000
01000000
00000000
00000000
00000000
,
00001000
00001000
00010000
00010000
,
00001000
00010000
00001000
00000100
00000001
00000000
00000000
00000000
,
00000001
00000100
00001000
00010000
00000000
00000000
00001000
00010000
,
00001000
00010000
01000000
10000000
00100000
01000000
00000000
00010000
,
00100000
00010000
00100000
00000000
00001000
00100000
00001000
00100000
,
00001000
00010000
00000010
00000100
00000000
00000000
00002002
00000000
,
00000000
00000000
00003003
00000000
,
00000011
00000000
00000001
00000010
,
00001000
00010000
01000000
10000000
,
00000000
00000000
00010000
00000000
,
10000000
00000000
00100000
01000000
,
11000000
00000000
10000000
01000000
,
00010000
00001000
00000100
00000001
,
00000100
00000000
00000001
00000000
,
00000001
00000100
00001000
00000000
,
00000011
00000000
00000001
00000010
,
00001000
00010000
01000000
10000000
,
00000000
00000000
00010000
00000000
,
10000000
00000000
00100000
01000000
,
11000000
00000000
01000000
00000000
,
00010000
00001000
00010000
00001000
00010000
00001000
,
00010000
00000000
00001000
00000000
,
00011000
00001000
00010000
00001000
,
00010000
00000000
00000000
00001000
,
00010000
01000000
00100000
00010000
,
00100000
01000000
10000000
01000000
,
10000000
01000000
10000000
01000000
,
00010000
00001000
00000000
00010000
,
00001000
00010000
00001000
00000010
,
00000001
00000100
00000010
00001000
,
00000000
00000001
00000100
00001000
,
00010000
00001000
00010000
00001000
,
00010000
01000000
00100000
00010000
,
00100000
01000000
00000000
10000000
,
00100000
00000000
10000000
01000000
,
00010000
00001000
00000000
00010000
,
00001000
00010000
00001000
00000010
,
00000001
00000100
00000010
00001000
,
00000000
00000010
00010000
00001000
,
00010000
00001000
00010000
01000000
,
10000000
01000000
10000000
00100000
,
01000000
00001000
00010000
00001000
,
00010000
00001000
00000100
00000001
,
00000010
00000001
00000010
00000001
,
00000010
00001000
00010000
00100000
,
10000000
00010000
00010000
01000000
,
01000000
00000000
20020000
00000000
,
00000000
00000000
00000000
00000000
,
00000000
00000000
00000000
00000000
,
00000000
00000000
00000000
00000000
,
00000000
00000000
30030000
00000000
,
00000000
00000000
00000000
00000000
;
#NOTES:
     dance-double:
     :
     Hard:
     17:
     :
00000000
00000000
00000000
00000000
,
00000000
00000000
00000000
00000000
,
00000000
00000000
00000000
00000000
,
00010000
00000000
00001000
00010000
00001000
00000000
00000000
00000000
00010000
00000010
00010000
00000010
00010000
00000000
00000000
00000000
00001000
00000000
00000000
00000000
00010000
00000000
00000100
00000000
00000000
00000000
00000000
00000000
00000000
00000000
00000000
00000000
,
00001000
00000000
00010000
00001000
00010000
00000000
00000000
00000000
00001000
00100000
00001000
00100000
00001000
00000000
00000000
00000000
00010000
00000000
00000000
00000000
00001000
00000000
00020000
00000000
00000000
00000000
00000000
00000000
00030000
00000000
00000000
00000000
,
00000100
00001000
00000100
00001000
,
00000000
00000010
00010000
00001000
,
00100000
01000000
00100000
01000000
,
10000000
00000000
01000000
00100000
01000000
00000000
00000000
00000000
,
00000000
10000000
01000000
00100000
,
00010000
01000000
00001000
00010000
,
00000010
00010000
00001000
00100000
,
00001000
00010000
00000100
00000000
,
00010000
00000000
00001000
00000000
00010000
00000000
00001000
00100000
,
00010000
00000000
01000000
00000000
00001000
00010000
00100000
00000000
,
00010000
00001000
00000010
00000001
,
00000000
00000010
00001000
00010000
,
00001000
00000000
00010000
00000000
00001000
00000000
00010000
00000010
,
00001000
00000000
00000100
00000000
00010000
00001000
00000010
00000000
,
00001000
00010000
00001000
00100000
,
00000000
00000000
00011000
00000000
,
01000000
00010000
01000000
00010000
,
00000000
00100000
00001000
00010000
,
00000010
00000100
00000010
00000100
,
00000001
00000000
00000100
00000010
00000100
00000000
00000000
00000000
,
00000000
00000001
00000100
00000010
,
00001000
00000100
00010000
00001000
,
00100000
00001000
00010000
00000010
,
00010000
00001000
01000000
00000000
,
00001000
00000000
00010000
00000000
00001000
00000000
00010000
00000010
,
00001000
00000000
00000100
00000000
00010000
00001000
00000010
00000000
,
00001000
00010000
00100000
10000000
,
00000000
00100000
00010000
00001000
,
00010000
00000000
00001000
00000000
00010000
00000000
00001000
00100000
,
00010000
00000000
01000000
00000000
00001000
00010000
00100000
00000000
,
00010000
00001000
00010000
00000010
,
00000000
00000000
00011000
00000000
,
00010000
00000100
00010000
00001000
,
01000000
00000000
00000000
00000000
00010000
00000000
00000000
00000000
00001000
00000000
00000000
00000000
00000010
00000000
00000000
00000000
00000000
00000000
00001000
00000000
00000000
00000100
00000000
00000000
,
00001000
00000000
00000001
00000000
00000100
00000010
00000100
00000000
,
00000001
00000100
00001000
00100000
,
01000000
00000000
00010000
00000000
00001000
00000010
00001000
00000000
,
00010000
00000000
00001000
00000100
00001000
00000000
00100000
00000000
,
00010000
10000000
01000000
10000000
,
00010000
00000000
00000000
01000000
00000000
00000000
00010000
00000000
00000000
01000000
00000000
00001000
,
00000000
00000000
00010000
00000000
00000000
00000000
00000100
00000000
00000000
00000000
00000000
00000000
00000010
00000000
00000000
00000100
00000000
00000000
00000010
00000000
00000000
00000000
00000000
00000000
,
00000001
00000000
00000100
00000010
00000100
00000000
00000001
00000000
,
00000100
00001000
00100000
01000000
,
00010000
00000000
00001000
00000010
00001000
00000000
00010000
00000000
,
00001000
00000100
00001000
00000000
00100000
00000000
00010000
00000000
,
10000000
01000000
10000000
00000000
,
10000000
00000000
01000000
00000000
00010000
00000000
00001000
00100000
,
00010000
00000000
01000000
00000000
00001000
00010000
00100000
00000000
,
00010000
00000000
00001000
00010000
00000000
00000000
00001000
00010000
,
00000000
00000000
00001100
00000000
,
00000001
00000010
00000100
00000010
,
00000001
00000100
00001000
00010000
00001000
00100000
,
00001000
00000000
00000000
00010000
00001000
00010000
,
00001000
00000000
00000110
00000000
,
00000001
00000000
00000100
00000000
00001000
00000000
00010000
00000010
,
00001000
00000000
00000100
00000000
00010000
00001000
00000010
00000000
,
00001000
00000000
00010000
00001000
00000000
00000000
00010000
00001000
,
00000000
00000000
01010000
00000000
,
10000000
00100000
01000000
00100000
,
10000000
01000000
00010000
00001000
00000010
00000001
,
00000100
00000000
00000000
00000001
00000010
00000001
,
00000100
00000000
00001100
00000000
,
00001001
00000000
00000000
00000000
,
00000000
00000000
00000000
00000000
,
10000000
01000000
00010000
00001000
,
00000200
00000000
00000000
00000000
00000000
00000301
00000000
00000000
,
00000001
00000100
00001000
00020000
,
00000000
00000000
00130000
00000000
,
00100000
00000000
00000000
01000000
00000000
00000000
00100000
00000000
00000000
01000000
00000000
00000000
00100000
00000000
00000000
00000000
00000000
00000000
00001000
00000000
00000000
00000000
00000000
00000000
00010000
00000000
00000000
00000000
00001000
00000000
00000000
00000000
00010000
00000000
00000000
00000000
00000100
00000000
00000000
00000000
00000000
00000000
00001000
00000000
00000000
00000000
00000000
00000000
,
00000001
00000000
00000000
00000010
00000000
00000000
00000000
00000000
00000000
00000001
00000000
00000000
00001000
00000000
00000000
00000000
00000000
00000000
00000001
00000000
00000100
00000000
00000010
00000000
,
00001000
00000000
00000000
00000100
00000000
00000000
00001000
00000000
00000000
00000100
00000000
00000000
00001000
00000000
00000000
00000000
00000000
00000000
00000010
00000000
00000000
00000000
00000000
00000000
00000100
00000000
00000000
00000000
00000001
00000000
00000000
00000000
00000010
00000000
00000000
00000000
00000001
00000000
00000000
00000000
00000000
00000000
00000100
00000000
00000000
00000000
00000000
00000000
,
00001000
00010000
00000000
00100000
10000000
00000000
01000000
00000000
,
10000000
00000000
00000000
01000000
00000000
00000000
00010000
00000000
00000000
00001000
00010000
00001000
,
00010000
00001000
00011000
00010000
,
00001000
00000100
00000001
00000010
,
00000001
00000010
00001000
00010000
00000000
00000000
,
00100000
00000000
00000000
01000000
00000000
00000000
00100000
00000000
00000000
01000000
00000000
00000000
00100000
00000000
00000000
00000000
00000000
00000000
00001000
00000000
00000000
00000000
00000000
00000000
00010000
00000000
00000000
00000000
00001000
00000000
00000000
00000000
00010000
00000000
00000000
00000000
00000100
00000000
00000000
00000000
00000000
00000000
00001000
00000000
00000000
00000000
00000000
00000000
,
00000001
00000000
00000000
00000010
00000000
00000000
00000000
00000000
00000000
00000001
00000000
00000000
00001000
00000000
00000000
00000000
00000000
00000000
00000001
00000000
00000100
00000000
00000010
00000000
,
00001000
00000000
00000000
00000100
00000000
00000000
00001000
00000000
00000000
00000100
00000000
00000000
00001000
00000000
00000000
00000000
00000000
00000000
00000010
00000000
00000000
00000000
00000000
00000000
00000100
00000000
00000000
00000000
00000001
00000000
00000000
00000000
00000010
00000000
00000000
00000000
00000001
00000000
00000000
00000000
00000000
00000000
00000100
00000000
00000000
00000000
00000000
00000000
,
00001000
00000000
00000000
00000000
00000000
00000000
00010000
00000000
00000000
00000000
00000000
00000000
00100000
00000000
00000000
00000000
01000000
00000000
00000000
00100000
00000000
00000000
00000000
00000000
10000000
00000000
00000000
01000000
00000000
00000000
10000000
00000000
00000000
01000000
00000000
00000000
10000000
00000000
00000000
00000000
00000000
00000000
01000000
00000000
00000000
00000000
00000000
00000000
,
10000000
00000000
01000000
00000000
00010000
00000000
00001000
00000000
00000100
00000001
00000010
00000000
00000001
00000000
00000100
00000000
,
00000001
00000100
00001000
00010000
00100000
01000000
00000000
10000000
,
01000000
00100000
01000000
00000000
00100000
00001000
00010000
00000100
,
00001000
00000001
00000100
00000001
00000000
00000000
00002002
00000000
,
00000000
00000000
00000000
00003003
,
00000001
00000000
00000010
00000001
,
00000100
00000001
00000010
00001000
,
00000000
00000000
00011000
00000000
,
00100000
01000000
10000000
01000000
,
00010000
00000000
10000000
00100000
,
10000000
01000000
10000000
00100000
,
00010000
00000000
00000000
00000000
00001000
00000000
00000000
00010000
,
00001000
00010000
00001000
00000100
00000000
00000000
00000001
00000000
,
00000100
00000000
00000010
00000001
,
00000100
00000001
00000010
00001000
,
00000000
00000000
00011000
00000000
,
00100000
01000000
10000000
01000000
,
00010000
00000000
00100000
01000000
,
00100000
00001000
00010000
00001000
00010000
00001000
,
00000100
00000000
00000202
00000000
,
00000303
00000100
00001000
00000100
,
00000010
00000000
00010000
00000010
00010000
00000010
00010000
00001000
,
00010000
00001000
00100000
00000000
00001000
00000000
00100000
00000000
,
00001000
00000000
00010000
00000000
00001000
00010000
00001000
00010000
,
00000100
00001000
00000100
00000000
00010000
00000000
00000100
00000000
,
00001000
00000000
00000010
00000100
00000010
00000100
00000001
00000000
,
00000100
00000010
00010000
00001000
,
00100000
00000000
00001000
00000000
00010000
00000000
00001000
00010000
,
00001000
00000100
00000001
00000100
,
00000001
00000000
00000100
00000000
00000010
00010000
00000010
00010000
,
00001000
01000000
00001000
00100000
,
00010000
00000000
00100000
00001000
00010000
00001000
00010000
00001000
,
00010000
00001000
00010000
00000100
,
00001000
00000010
00000100
00000010
00000100
00000000
00000001
00000000
,
00000100
00000000
00000010
00000000
00010000
00001000
00010000
00001000
,
00100000
00001000
00100000
00001000
00010000
00001000
00100000
00010000
,
00000000
00000000
10000000
01000000
10000000
00000000
00100000
00010000
,
00100000
10000000
01000000
00010000
,
00001000
00000010
00000001
00000100
,
00000011
00000010
00000100
00000001
,
00000100
00011000
00100000
01000000
,
10000000
01000000
00110000
00001000
,
00010000
00001000
00000010
00000011
,
00000001
00000010
00000001
00000010
00001000
00010000
01000000
10000000
,
01000000
00100000
20020000
00000000
,
00000000
00000000
00000000
00000000
,
00000000
00000000
00000000
00000000
,
00000000
00000000
00000000
00000000
,
00000000
00000000
30030000
00000000
,
00000000
00000000
00000000
00000000
;
#NOTES:
     dance-double:
     :
     Challenge:
     19:
     :
00000000
00000000
00000000
00000000
,
00000000
00000000
00000000
00000000
,
00000000
00000000
00000000
00000000
,
00010000
00000000
00000010
00010000
00000010
00000000
00000000
00000000
00001000
00000100
00001000
00000100
00001000
00000000
00000000
00000000
00000001
00000000
00000000
00000000
00000100
00000000
00001000
00000000
00000000
00000000
00000000
00000000
00010000
00000000
00000000
00000000
,
00001000
00000000
00100000
00001000
00100000
00000000
00000000
00000000
00010000
01000000
00010000
01000000
00010000
00000000
00000000
00000000
10000000
00000000
00000000
00000000
01000000
00000000
00010000
00000000
00000000
00000000
00000000
00000000
00001000
00000000
00000000
00000000
,
00010000
00000000
00000010
00000000
00001000
00000000
00000001
00000100
,
00000001
00000000
00000010
00000000
00000100
00000000
00001000
00000010
,
00010000
00001000
00100000
01000000
,
10000000
00010000
01000000
00010000
10000000
01000000
00010000
00000000
,
00001000
00000000
00010000
00001000
00000010
00000000
00000100
00001000
,
00000001
00000100
00000001
00000010
,
00001000
00000000
00100000
00000000
00010000
00000000
01000000
00100000
,
10000000
00000000
00100000
00000000
01000000
00001000
00010000
00000000
,
00001000
00010000
00000100
00000000
00001000
00000010
00001000
00000000
,
00000001
00001000
00000001
00000000
00000010
00000000
00000001
00000100
,
00001000
00000000
00010000
00100000
01000000
00000000
00100000
00000000
,
10000000
00010000
10000000
00000000
01000000
00100000
01000000
00100000
,
00001000
00000000
00000100
00000001
00000100
00000000
00000010
00000100
,
00000001
00000000
00001000
00000001
00000100
00000000
00000010
00000100
,
00001000
00000000
00100000
00010000
10000000
00000000
00010000
00000000
,
00000000
00000000
10000000
00000000
00100000
10000000
01000000
00100000
,
00010000
00100000
00010000
00100000
00001000
00100000
00001000
00010000
,
00000100
00001000
00000010
00000100
00000001
00000010
00000100
00010000
,
00001000
00010000
00001000
00100000
00010000
00100000
00010000
00100000
,
01000000
00100000
00001000
00010000
00001000
00000100
00000010
00000100
,
00000001
00000010
00000100
00001000
00000100
00001000
00000100
00000010
,
00000100
00010000
00001000
00010000
00100000
01000000
00010000
10000000
,
01000000
00100000
00010000
10000000
00010000
01000000
00001000
00010000
,
00001000
00010000
00000100
00001000
00000010
00001000
00000001
00000010
,
00000001
00000000
00000100
00001000
00010000
00000000
01000000
00000000
,
10000000
00000000
01000000
10000000
00100000
00000000
10000000
00000000
,
00100000
00010000
00001000
00000100
00000001
00000000
00001000
00000000
,
00000001
00000000
00001000
00000100
00000010
00000001
00000010
00000001
,
00001000
00000100
00010000
00000000
00001000
00100000
00010000
00000000
,
00100000
01000000
10000000
00000000
01000000
00100000
00010000
00000000
,
00100000
00001000
00010000
00000000
00001000
00010000
00000100
00000000
,
00010000
00000000
00001000
00000000
00100000
00001000
00010000
00000000
,
00001000
01000000
00001000
00010000
,
00000100
00000000
00000000
00000000
00001000
00000000
00000000
00000000
00010000
00000000
00000000
00000000
00100000
00000000
00000000
00000000
00000000
00000000
00010000
00000000
00000000
01000000
00000000
00000000
,
00010000
00000000
10000000
00000000
01000000
00100000
01000000
00000000
,
10000000
00100000
01000000
00000000
00001000
00000000
00100000
00000000
,
01000000
00000000
00010000
00000000
00001000
00000010
00001000
00000000
,
00010000
00000000
00001000
00000100
00001000
00000000
00100000
00000000
,
00010000
00000000
10000000
00000000
01000000
00000000
10000000
00010000
,
00001000
00000000
00000000
00000010
00000000
00000000
00010000
00000000
00000000
00001000
00000000
00010000
,
00000000
00000000
00001000
00000000
00000000
00000000
00000100
00000000
00000000
00000000
00000000
00000000
00000010
00000000
00000000
00001000
00000000
00000000
00000010
00000000
00000000
00000000
00000000
00000000
,
00000100
00000000
00000010
00000100
00000010
00000000
00001000
00000000
,
00000100
00000000
00000010
00001000
00010000
00000000
00100000
00000000
,
00010000
00001000
00010000
00000010
00010000
00001000
00010000
00000000
,
00001000
00000100
00001000
00000000
00100000
00000000
00010000
00000000
,
10000000
01000000
10000000
00000000
,
10000000
01000000
00100000
00000000
00001000
00010000
00001000
00000000
,
00000100
00000000
00001000
00010000
00100000
00000000
10000000
00000000
,
01000000
00000000
10000000
01000000
00000000
00000000
00010000
00001000
,
00000000
00001000
00000100
00000000
,
00000001
00001000
00000010
00000000
00000100
00000001
00000010
00000000
,
00000001
00000100
00001000
00010000
00001000
00100000
,
00001000
00000000
00000000
00000000
00000000
00000000
00010000
00000000
00000000
00000100
00000000
00000000
00010000
00000000
00000000
00000000
00001000
00000000
00000000
00000000
00010000
00000000
00000000
00000000
,
00001000
00000100
00000010
00001000
,
00000001
00001000
00000100
00000000
00010000
00000010
00001000
00000010
,
00001000
00000000
00000100
00000000
00010000
00001000
00010000
00000000
,
00001000
00000000
00010000
00000000
00100000
00000000
10000000
01000000
,
10000000
00000000
00100000
00000000
10000000
01000000
00100000
00010000
,
10000000
00010000
00100000
00000000
01000000
10000000
00100000
00000000
,
10000000
01000000
00010000
00001000
00000010
00000001
,
00000100
00000000
00000000
00000001
00000000
00000000
00001000
00000000
00000010
00000000
00001000
00000000
,
00000100
00010000
00011000
00000000
,
00000010
00000000
00000000
00000000
,
00001000
00000000
00010000
01000000
,
10000000
00100000
00000000
00100000
01000000
00000000
01000000
00010000
00000000
00010000
00001000
00000000
,
00001000
00000000
00000010
00000000
00000000
00000000
00000010
00000000
00000000
00000001
00000000
00000000
00000010
00000000
00000000
00000001
00000000
00000000
00000100
00000000
00000000
00001000
00000000
00000000
,
00010000
00100000
00000000
00100000
10000000
00000000
10000000
01000000
00000000
01000000
10000000
00000000
,
00010000
00000000
00000000
00000000
10000000
00000000
00000000
00000000
01000000
00000000
00000000
00000000
00010000
00000000
00000000
01000000
00000000
00000000
10000000
00000000
00000000
01000000
00000000
00000000
,
00100000
00000000
00000000
01000000
00000000
00000000
10000000
00000000
00000000
01000000
00000000
00000000
00100000
00000000
00000000
00000000
00000000
00000000
00001000
00000000
00000000
00000000
00000000
00000000
00010000
00000000
00000000
00000000
00001000
00000000
00000000
00000000
00010000
00000000
00000000
00000000
00000100
00000000
00000000
00000000
00000000
00000000
00001000
00000000
00000000
00000000
00000000
00000000
,
00000001
00000000
00000000
00000010
00000000
00000000
00000100
00000010
00000100
00000010
00000000
00000000
00000001
00000000
00000000
00000000
00000000
00000000
00000001
00000000
00000100
00000000
00000010
00000000
,
00001000
00000000
00000000
00000100
00000000
00000000
00010000
00000000
00000000
00000100
00000000
00000000
00001000
00000000
00000000
00000000
00000000
00000000
00000010
00000000
00000000
00000000
00000000
00000000
00000100
00000000
00000000
00000000
00000001
00000000
00000000
00000000
00000010
00000000
00000000
00000000
00000001
00000000
00000000
00000000
00000000
00000000
00000100
00000000
00000000
00000000
00000000
00000000
,
00001000
00000000
00000000
00010000
00000000
00000000
01000000
00100000
01000000
00100000
00000000
00000000
00010000
00000000
00000000
00100000
00000000
00000000
01000000
00000000
00000000
10000000
00000000
00000000
,
01000000
00000000
00000000
00100000
00000000
00000000
00010000
00000000
00000000
00001000
00000000
00000000
00000010
00000000
00000000
00000000
00000000
00000000
00010000
00000000
00001000
00000000
00010000
00000000
,
00001000
00000000
00000000
00000000
01000000
00000000
00000000
00000000
00100000
10000000
01000000
00000000
10000000
00000000
01000000
00000000
,
00010000
00000000
00000000
00001000
00000100
00000000
00000000
00000100
00000010
00000000
00000000
00000100
00000001
00000000
00000000
00000010
,
00001000
00010000
00100000
10000000
00000000
00000000
,
00100000
00000000
00000000
01000000
00000000
00000000
00010000
00000000
00000000
01000000
00000000
00000000
00100000
00000000
00000000
00000000
00000000
00000000
00010000
00000000
00000000
00000000
00000000
00000000
00001000
00000000
00000000
00000000
00010000
00000000
00000000
00000000
00001000
00000000
00000000
00000000
00000100
00000000
00000000
00000000
00000000
00000000
00000001
00000000
00000000
00000000
00000000
00000000
,
00001000
00000000
00000000
00000010
00000000
00000000
00000100
00000000
00000000
00000010
00000000
00000000
00010000
00000000
00000000
00000000
00000000
00000000
00000010
00000000
00000100
00000000
00000010
00000000
,
00001000
00000000
00000000
00000100
00000000
00000000
00010000
00000000
00000000
00000100
00000000
00000000
00001000
00000000
00000000
00000000
00000000
00000000
00000010
00000000
00000000
00000000
00000000
00000000
00000100
00000000
00000000
00000000
00000001
00000000
00000000
00000000
00000010
00000000
00000000
00000000
00000001
00000000
00000000
00000000
00000000
00000000
00000100
00000000
00000000
00000000
00000000
00000000
,
00001000
00000000
00000000
00000000
00000000
00000000
00010000
00000000
00000000
00000000
00000000
00000000
00100000
00000000
00000000
00000000
01000000
00000000
00000000
00100000
00000000
00000000
00000000
00000000
10000000
00000000
00000000
01000000
00000000
00000000
10000000
00000000
00000000
01000000
00000000
00000000
00100000
00000000
00000000
00000000
00000000
00000000
01000000
00000000
00000000
00000000
00000000
00000000
,
10000000
00000000
00000000
01000000
00000000
00000000
00010000
00000000
00000000
00001000
00000000
00000000
00010000
00001000
00010000
00001000
00000000
00000000
00000100
00000000
00000000
00000010
00000000
00000000
,
00010000
00001000
00010000
01000000
10000000
01000000
00000000
10000000
,
01000000
00000000
00000000
00100000
00000000
00000000
01000000
00100000
01000000
00000000
00100000
00000000
00001000
00000000
00000000
00010000
00000000
00000000
00001000
00000000
00000000
00000100
00000000
00000000
,
00000001
00001000
00000100
00001000
00000000
00000000
00001001
00000000
,
10000000
00010000
00000100
00001000
,
00000001
00000000
00001000
00000000
00000010
00010000
00000100
00000000
,
00001000
00000000
00000000
00000001
00000000
00000000
00000010
00000000
00000000
00001000
00000000
00100000
,
00000000
00001000
00000000
00010000
00000000
00000000
00011000
00000000
00000000
00000000
00000000
00000000
,
00100000
01000000
10000000
01000000
,
00010000
00001000
00010000
00000000
01000000
00000000
00100000
00000000
,
00001000
00010000
01000000
00000000
10000000
00000000
00100000
00000000
,
00010000
00001000
00010000
00000000
00001000
00000000
00000000
00010000
,
00001000
00010000
00001000
00000100
00000010
00000000
00000001
00000000
,
00000010
00000000
00010000
00010000
,
00010000
00000000
00010000
00000000
00010000
00000000
00001000
00010000
,
00001000
00010000
00001000
00010000
00001000
00000000
01000000
00000000
,
00100000
10000000
01000000
00000000
10000000
00000000
01000000
00000000
,
00100000
00000000
01000000
10000000
00100000
10000000
01000000
00000000
,
00010000
00001000
00000100
00000001
00000100
00001000
,
00000100
00000000
00000001
00000000
,
00000000
00000110
00001000
00000010
00001000
00000010
00010000
00000010
,
00010000
00001000
01000000
00010000
00100000
01000000
10000000
00100000
,
01000000
00001000
00010000
00001000
00010000
00000010
00001000
00000010
,
00001000
00000010
00000100
00000010
00010000
00001000
00010000
01000000
,
00100000
01000000
10000000
00100000
01000000
00010000
01000000
00010000
,
01000000
00100000
01000000
00001000
00010000
00001000
00000010
00000100
,
00001000
00000001
00000100
00000010
00001000
00000001
00001000
00000100
,
00010000
00001000
00010000
00001000
01000000
00010000
00100000
00010000
,
10000000
00100000
01000000
00001000
00010000
00001000
00010000
00000100
,
00001000
00000001
00000010
00000001
00001000
00000010
00000100
00000001
,
00001000
00000100
00010000
00001000
00100000
00010000
10000000
00100000
,
01000000
00001000
00010000
00001000
00010000
00000100
00001000
00000010
,
00001000
00000100
00001000
00000010
00010000
00001000
00010000
00001000
,
00100000
00010000
01000000
00100000
10000000
01000000
10000000
00100000
,
01000000
00001000
00010000
00001000
00010000
00000100
00010000
00000010
,
00001000
00000001
00000100
00000001
00000100
00001000
00010000
01000000
,
00000000
00000000
10000000
01000000
00010000
00000000
00001000
00000100
,
00000010
00000001
00000010
00000000
00010000
00000000
00001000
00000000
,
00010000
00000000
01000000
00000000
10000000
00000000
00100000
10000000
,
01000000
00100000
00001000
00000000
00010000
00000000
00000010
00000000
,
00001000
00000010
00000100
00001000
00010000
00000000
00001000
00000000
,
01000000
00000000
00100000
01000000
00100000
00010000
00001000
00000000
,
00010000
00000000
00000100
00000000
00000010
00000001
00000100
00000100
,
00000001
00000010
00000100
00010000
00001000
00010000
01000000
10000000
,
01000000
00100000
00022000
00000000
,
00000000
00000000
00000000
00000000
,
00000000
00000000
00000000
00000000
,
00000000
00000000
00000000
00000000
,
00000000
00000000
00033000
00000000
,
00000000
00000000
00000000
00000000
;
