
//----- song id: dmin
#TITLE:Dreamin';
#ARTIST:TOMOSUKE feat. Adreana;
#BANNER:Dreamin'.png;
#BACKGROUND:Dreamin'-bg.png;
#CDTITLE:./CDTITLES/DDR HOTTEST PARTY 2.png;
#MUSIC:Dreamin'.ogg;
#SAMPLESTART:39.375;
#SAMPLELENGTH:15;
#BPMS:0=128;
#NOTES:
     dance-single:
     :
     Beginner:
     2:
     :
0000
0000
0000
0000
,
0000
0000
0000
0000
,
0000
0000
0000
0000
,
0001
0000
0000
0000
,
1000
0000
0000
0000
,
0000
0000
0001
0000
,
0000
0000
1000
0000
,
0010
0000
0000
0000
,
0100
0000
0000
0000
,
0000
0000
1000
0000
,
0000
0000
0001
0000
,
0010
0000
0000
0000
,
0100
0000
0000
0000
,
0000
1000
0000
0100
,
0000
0001
0000
1000
,
0000
0001
0000
0100
,
0000
0100
0100
0000
,
0000
0001
0000
0010
,
0000
1000
0000
0001
,
0000
1000
0000
0010
,
0000
0010
0000
0000
,
0000
0001
0000
0000
,
0000
0010
0000
0000
,
0000
1000
0000
0000
,
0000
0010
0000
0000
,
1001
0000
0000
0000
,
1001
0000
0000
0000
,
0000
1000
0000
0000
,
0000
0100
0000
0000
,
0000
0001
0000
0000
,
0000
0100
0000
0000
,
1001
0000
0000
0000
,
1001
0000
0000
0000
,
1001
0000
0000
1000
,
1000
0000
0000
0100
,
0100
0000
0000
0001
,
0001
0000
0000
0000
,
1001
0000
0000
0001
,
0001
0000
0000
0100
,
0100
0000
0000
1000
,
1000
0000
0000
0000
,
1000
0001
0001
0001
,
0000
0000
0000
0000
,
1000
0001
0000
0000
,
1000
0001
0000
0000
,
1000
0001
1000
0001
,
1000
0001
1000
0000
,
0000
0000
0001
0000
,
0000
0000
1000
0000
,
0010
0000
0000
0000
,
0100
0000
0000
0000
,
0000
0000
1000
0000
,
0000
0000
0001
0000
,
0010
0000
0000
0000
,
0100
0000
0000
0000
,
1001
0000
0000
0000
,
0000
0000
0000
0000
;
#NOTES:
     dance-single:
     :
     Easy:
     4:
     :
0000
0000
0000
0000
,
0000
0000
0000
0000
,
0000
0000
0000
0000
,
1000
0000
0000
0100
,
0100
0100
0001
0000
,
1000
0100
1000
0000
,
0010
0000
0001
0000
,
1000
0000
0010
0000
,
1001
0000
0000
0000
,
0001
0010
0001
0000
,
0100
0000
1000
0000
,
0001
0000
0100
0000
,
1001
0000
0000
0000
,
0000
0001
0000
1000
,
0001
1000
0001
0000
,
0001
0000
0001
1000
,
0100
0000
1001
0000
,
0000
1000
0000
0001
,
1000
0001
1000
0000
,
1000
0000
1000
0001
,
0010
0000
1001
0000
,
0000
1001
0000
1000
,
0000
1000
0100
1000
,
0000
1001
0000
0010
,
0000
0001
0100
0001
,
1001
0000
0000
0000
,
0110
0000
0000
0000
,
0000
1001
0000
0001
,
0000
0001
0100
0001
,
0000
1001
0000
0010
,
0000
1000
0100
1000
,
1001
0000
0000
0000
,
0110
0000
0000
0000
,
0200
0000
0000
0000
,
0010
0000
0000
0000
,
0001
0000
0000
0000
,
0010
0000
0300
0000
,
0020
0000
0000
0000
,
0100
0000
0000
0000
,
1000
0000
0000
0000
,
0100
0000
0030
0000
,
0000
0100
0100
0100
,
0000
0000
0000
0000
,
0100
0100
0000
0000
,
0100
0100
0000
0000
,
1000
1000
0100
0100
,
0001
0001
0100
0000
,
1000
0100
1000
0000
,
0010
0000
0001
0000
,
1000
0000
0010
0000
,
1001
0000
0000
0000
,
0001
0010
0001
0000
,
0100
0000
1000
0000
,
0001
0000
0100
0000
,
1001
0000
0000
0000
,
0220
0000
0000
0000
,
0000
0000
0330
0000
,
0000
0000
0000
0000
;
#NOTES:
     dance-single:
     :
     Medium:
     6:
     :
0000
0000
0000
0000
,
0000
0000
0000
0000
,
0000
0000
0000
0000
,
1000
0100
1000
0010
0000
0001
0100
0001
,
0010
0000
1000
0001
0100
0010
0000
0000
,
1000
0100
0010
0100
,
0001
0000
0010
0000
0001
0000
1000
0001
,
1000
0000
0010
0100
,
1001
0000
0000
0000
0100
0000
0010
0100
,
0001
0100
0010
0100
,
1000
0000
0010
0000
1000
0000
0001
1000
,
0001
0000
0010
0100
,
1001
0000
0000
0000
0100
0000
0010
0100
,
0020
0000
1030
0110
,
0001
1000
1001
0001
,
0200
0000
0301
0110
,
0100
0010
1001
0000
,
0200
0000
0301
0110
,
0001
1000
1001
0001
,
0020
0000
1030
0110
,
0010
0100
1001
0000
,
0110
2002
0000
0003
,
0010
0100
0010
3001
,
0110
2002
0000
3000
,
0100
0010
0100
1003
,
1001
0000
0200
0300
,
1001
0000
0200
0300
,
0110
2002
0000
0003
,
0010
0100
0010
3001
,
0110
2002
0000
3000
,
0100
0010
0100
1003
,
1001
0000
0200
0300
,
1001
0000
0200
0300
,
2010
0000
0001
0100
,
0010
0000
0001
0100
,
0001
0000
0001
0100
,
0010
0000
3001
0010
,
0102
0000
1000
0100
,
0010
0000
1000
0100
,
1000
0000
1000
0100
,
0010
0000
1003
0010
,
1000
0010
0010
0010
,
0000
0000
0000
0000
,
0100
1010
0000
0000
,
0100
0011
0000
0000
,
1010
0100
1010
0100
,
0011
0100
0011
0000
,
0001
0100
0010
0100
,
1000
0000
0010
0000
1000
0000
0001
1000
,
0001
0000
0010
0100
,
1001
0000
0000
0000
0100
0000
0010
0100
,
1000
0100
0010
0100
,
0001
0000
0010
0000
0001
0000
1000
0001
,
1000
0001
0010
0100
,
1001
0010
0100
0010
,
0220
0000
0000
0000
,
0000
0000
0330
0000
,
0000
0000
0000
0000
;
#NOTES:
     dance-single:
     :
     Hard:
     9:
     :
0000
0000
0000
0000
,
0000
0000
0000
0000
,
0000
0000
0000
0000
,
0001
0010
0100
0010
0000
1000
0010
0100
,
0001
0000
0001
0010
0100
0010
0000
0000
,
0010
0000
0000
0100
0010
0000
0000
0000
0001
0000
0000
1000
0001
0000
0000
0000
,
0100
0000
0000
0010
0100
0000
0000
0000
1000
0000
0000
0001
1000
0000
1000
0000
,
0010
0000
0000
0100
0010
0000
0000
0000
0001
0000
0000
1000
0001
0000
0000
0000
,
0100
0000
0000
0010
0100
0000
0000
0000
1000
0000
0000
0001
1000
0000
1000
0000
,
0100
0000
0000
0010
0100
0000
0000
0000
1000
0000
0000
0001
1000
0000
0000
0000
,
0010
0000
0000
0100
0010
0000
0000
0000
0001
0000
0000
1000
0001
0000
0001
0000
,
0100
0000
0000
0010
0100
0000
0000
0000
1000
0000
0000
0001
1000
0000
0000
0000
,
0010
0000
0000
0100
0010
0000
0000
0000
0001
0000
0000
1000
0001
0000
0001
0000
,
0200
0001
0310
0110
,
1000
0100
0001
0000
0001
0100
1000
0000
,
0020
1000
0130
0110
,
0100
0000
0010
0000
0001
0100
1010
0000
,
0200
1000
0310
0110
,
0001
0100
1000
0000
1000
0100
0001
0000
,
0020
0001
0130
0110
,
0100
0000
0010
0000
1000
0100
0011
0000
,
1001
0220
0030
0310
,
1100
0101
0110
1001
,
0101
2020
3000
0130
,
0011
1010
0110
1001
,
0001
0000
1000
0000
0010
0001
0010
0100
,
1000
0000
0001
0000
0100
1000
0110
0000
,
1001
0220
0300
0031
,
1100
0011
1010
0110
,
1010
0202
0003
1300
,
0011
0101
1001
0110
,
0001
0000
1000
0000
0100
0001
0100
0010
,
1000
0000
0001
0000
0010
1000
0110
0000
,
2020
3030
1001
0100
,
2020
3030
0110
0001
,
0022
0033
1100
0010
,
0202
0303
1100
0101
,
2020
3030
1001
0100
,
2020
3030
0110
0001
,
0022
0033
1100
0010
,
0202
0303
1100
0101
,
1000
0100
0000
0000
0001
0010
0000
0000
1000
0100
0000
0000
0001
0010
0000
0000
,
0000
0000
0000
0000
,
0001
0010
0000
0000
1000
0010
0000
0000
0000
0000
0000
0000
0000
0000
0000
0000
,
0001
0010
0000
0000
1000
0010
0000
0000
0000
0000
0000
0000
0000
0000
0000
0000
,
1000
0010
0000
0000
1000
0010
0000
0000
1000
0100
0000
0000
1000
0100
0000
0000
,
0001
0010
0000
0000
0001
0010
0000
0000
0001
0100
0000
0000
1001
0000
0000
0000
,
0010
0000
0000
0100
0010
0000
0000
0000
1000
0000
0000
0001
1000
0000
0000
0000
,
0100
0000
0000
0010
0100
0000
0000
0000
0001
0000
0000
1000
0001
0000
0001
0000
,
0010
0000
0000
0100
0010
0000
0000
0000
1000
0000
0000
0001
1000
0000
0000
0000
,
0100
0000
0000
0010
0100
0000
0000
0000
0001
0000
0000
1000
0001
0000
0001
0000
,
0100
0000
0000
0010
0100
0000
0000
0000
0001
0000
0000
1000
0001
0000
0000
0000
,
0010
0000
0000
0100
0010
0000
0000
0000
1000
0000
0000
0001
1000
0000
1000
0000
,
0100
0000
0000
0010
0100
0000
0000
0000
0001
0000
0000
1000
0001
0000
0000
0000
,
0010
0000
0000
0100
0010
0000
0000
0000
1000
0000
0000
0001
1000
0000
1000
0000
,
0002
0000
0000
0000
,
0000
0000
0003
0000
,
0000
0000
0000
0000
;
#NOTES:
     dance-single:
     :
     Challenge:
     12:
     :
0000
0000
0000
0000
,
0000
0000
0000
0000
,
0000
0000
0000
0000
,
1000
0100
0010
0100
0000
1000
0100
0010
,
0001
0000
1000
0100
0010
0100
0000
0000
,
0010
0000
0000
0100
0001
0100
0010
0000
1000
0000
0000
0001
1000
0000
0000
0000
,
0100
0000
0000
0010
0001
0010
0100
0000
1000
0000
0000
0001
1000
0000
0001
0000
,
0010
0000
0000
0100
1000
0100
0010
0000
0001
0000
0000
1000
0001
0000
0000
0000
,
0100
0000
0000
0010
0100
0010
0100
0000
0001
0000
0000
1000
0001
0000
1000
0000
,
0010
0000
0000
0100
1000
0100
0010
0000
0001
0000
0000
1000
0001
0000
0000
0000
,
0100
0000
0000
0010
1000
0010
0100
0000
0001
0000
0000
1000
0001
0000
1000
0000
,
0010
0000
0000
0100
0001
0100
0010
0000
1000
0000
0000
0001
1000
0000
0000
0000
,
0100
0000
0000
0010
0100
0010
0100
0000
1000
0000
0000
0001
1000
0000
0001
0000
,
0200
0000
0001
0000
0310
0000
0100
1000
,
0001
0000
0000
0100
0001
0000
0000
0000
0010
0000
0000
0001
0100
0000
0001
0000
,
0010
0000
0000
0001
0100
0000
0000
0000
0001
0000
0000
1000
0100
0000
0000
0000
,
0100
0000
0010
0000
0001
0100
0001
0100
,
0200
0000
1000
0000
0310
0000
0100
0001
,
1000
0000
0000
0100
1000
0000
0000
0000
1000
0000
0000
0001
0100
0000
0001
0000
,
0010
0000
0000
0100
1000
0000
0000
0000
0100
0000
0000
1000
0100
0000
0000
0000
,
1000
0000
0010
0000
1000
0100
1000
0100
,
1001
0000
0000
1000
0010
1000
0010
0000
1000
0000
0000
0001
0010
0000
0000
0000
,
0001
0100
0000
0000
1000
0100
0000
0000
0100
0010
0000
0000
0001
1000
0000
0000
,
1001
0000
0000
0001
0010
0001
0010
0000
0001
0000
0000
1000
0010
0000
0000
0000
,
0010
0001
0000
0000
1000
0010
0000
0000
0100
0010
0000
0000
1000
0001
0000
0000
,
0001
0000
0000
0100
0001
0000
0000
0000
0010
0000
0000
0001
0010
0000
0100
0000
,
1000
0011
0101
1010
,
1001
0000
0000
0001
0010
0001
0010
0000
0001
0000
0000
1000
0010
0000
0000
0000
,
1000
0100
0000
0000
0001
0100
0000
0000
0100
0010
0000
0000
1000
0001
0000
0000
,
1001
0000
0000
1000
0010
1000
0010
0000
1000
0000
0000
0001
0010
0000
0000
0000
,
0010
1000
0000
0000
0001
0010
0000
0000
0100
0010
0000
0000
0001
1000
0000
0000
,
1000
0000
0000
0100
1000
0000
0000
0000
0010
0000
0000
1000
0010
0000
0100
0000
,
0001
0000
0000
0000
1000
0000
0000
0000
0100
0000
0000
0001
0010
0000
0000
0000
,
0010
0000
0000
0000
0012
0000
0000
0000
1003
0000
0000
0001
0100
0000
0001
0000
,
0010
0000
0000
0000
0010
0001
0000
0000
1000
0100
0000
0001
0100
0000
0001
0000
,
0010
0000
0000
0000
0012
0000
0000
0000
1003
0000
0000
0001
0100
0000
0001
0000
,
0010
0000
0000
0000
0010
0001
0000
0000
1000
0010
0000
0001
1000
0000
0000
0000
,
0010
0000
0000
0000
2010
0000
0000
0000
3001
0000
0000
1000
0100
0000
1000
0000
,
0010
0000
0000
0000
0010
1000
0000
0000
0001
0100
0000
0010
0100
0000
0001
0000
,
0010
0000
0000
0000
2010
0000
0000
0000
3001
0000
0000
1000
0100
0000
1000
0000
,
0010
0000
0000
0000
0010
0001
0000
0000
1000
0010
0000
0100
0010
0000
0000
0000
,
1000
0100
0000
0000
0001
0010
0000
0000
1000
0100
0000
0000
0001
0010
0000
0000
,
0001
0100
0000
0000
1000
0010
0000
0000
0001
0100
0000
0000
0001
0000
1000
0000
,
0001
0010
0000
0000
0001
0010
0100
0001
0100
0010
0000
0000
0001
0000
0000
0000
,
1000
0010
0000
0000
1000
0010
0100
1000
0100
0010
0000
0000
1000
0000
0000
0000
,
1000
0010
0000
0000
1000
0010
0000
0000
1000
0100
0000
0000
1000
0100
0000
0000
,
0001
0000
0010
0000
0001
0000
0010
0000
0001
0000
0100
0000
0001
0100
0010
0100
,
0001
0000
0000
0100
0010
0000
0000
0000
1000
0000
0000
0001
0010
0000
0000
0000
,
0100
0000
0000
0010
0100
0000
0000
0000
1000
0000
0000
0001
1000
0000
0100
0000
,
0010
0000
0000
0100
0010
0000
0000
0000
0001
0000
0000
1000
0001
0000
0000
0000
,
0110
0000
0000
0000
1010
0000
0000
0000
0001
0000
0000
1000
0001
0000
1000
0000
,
0100
0000
0000
0010
0100
0000
0000
0000
1000
0000
0000
0001
1000
0000
0000
0000
,
0001
0000
0000
0100
0010
0000
0000
0000
1000
0000
0000
0001
1000
0000
0001
0000
,
0100
0000
0000
0010
0100
0000
0000
0000
0001
0000
0000
1000
0001
0000
1000
0000
,
0011
0000
0000
0000
1100
0000
0000
0000
1000
0000
0000
0001
1000
0000
0010
0000
,
0200
0001
1000
0001
,
2000
0000
3300
0000
,
0000
0000
0000
0000
;
#NOTES:
     dance-double:
     :
     Easy:
     5:
     :
00000000
00000000
00000000
00000000
,
00000000
00000000
00000000
00000000
,
00000000
00000000
00000000
00000000
,
00000000
00000000
00000000
00000000
,
00000000
00000000
00000000
00000000
,
10000000
01000000
00010000
00001000
,
00000100
00000001
00000010
00000000
,
00000001
00000100
00001000
00010000
,
01000000
10000000
00100000
00000000
,
10000000
00100000
00010000
00001000
,
00000010
00000001
00000100
00000000
,
00000001
00000010
00001000
00010000
,
00100000
10000000
01000000
00000000
,
10000000
01000000
00010000
00000000
,
00001000
00000100
00000001
00000000
,
00000001
00000010
00001000
00010000
,
00100000
10000000
01000000
00000000
,
10000000
01000000
00010000
00000000
,
00001000
00000100
00000001
00000000
,
00000001
00000010
00001000
00010000
,
00100000
10000000
01000000
00000000
,
10000000
00100000
00010000
00000000
,
00001000
00010000
00001000
00010000
,
00001000
00000100
00000001
00000000
,
00000001
00000010
00000001
00000010
,
00000001
00000100
00001000
00010000
,
01000000
10000000
01000000
00000000
,
10000000
00100000
00010000
00000000
,
00001000
00010000
00001000
00010000
,
00001000
00000100
00000001
00000000
,
00000001
00000010
00000001
00000010
,
00000001
00000100
00001000
00010000
,
01000000
10000000
01000000
00000000
,
10000000
01000000
00010000
00001000
,
00000010
00000001
00000010
00000001
,
00000001
00000100
00001000
00010000
,
00100000
10000000
00100000
10000000
,
10000000
00100000
00010000
00001000
,
00000100
00000001
00000100
00000001
,
00000001
00000010
00001000
00010000
,
01000000
10000000
01000000
10000000
,
10010000
00000000
00000000
00000000
,
00000000
00000000
00000000
00000000
,
00011000
00001000
00010000
00001000
,
00010000
00001000
00010000
00001000
,
00100000
00000000
00010000
00000000
,
10000000
01000000
00010000
00001000
,
00010000
00001000
00000100
00000001
,
00000001
00000100
00001000
00010000
,
00100000
01000000
00010000
10000000
,
01000000
00010000
00001000
00000100
,
00000001
00000000
00000000
00000000
,
00000100
00000000
00000000
00000000
,
00001000
00010000
00100000
10000000
,
10000000
01000000
00010000
00001000
,
00000200
00000000
00000000
00000000
,
00000000
00000000
00000300
00000000
,
00000000
00000000
00000000
00000000
;
#NOTES:
     dance-double:
     :
     Medium:
     6:
     :
00000000
00000000
00000000
00000000
,
00000000
00000000
00000000
00000000
,
00000000
00000000
00000000
00000000
,
00000000
00000000
00000000
00000000
,
00000000
00000000
00000000
00000000
,
10000000
01000000
00010000
00001000
,
00000100
00000001
00000010
00000001
,
00000010
00001000
00010000
01000000
,
10000000
10000000
01000000
00010000
,
00001000
00000100
00001000
00010000
,
01000000
10000000
00100000
10000000
,
00100000
00010000
00001000
00000100
,
00000001
00000001
00000100
00001000
,
00010000
00001000
00010000
00000000
01000000
00000000
10000000
00000000
,
01000000
10000000
01000000
00010000
,
00001000
00000110
00000001
00000001
,
00000001
00000100
00000001
00000000
00000100
00000000
00001000
00000000
,
00010000
00001000
00010000
00000000
00100000
00000000
10000000
00000000
,
00100000
10000000
00100000
00010000
,
00001000
00000110
00000001
00000001
,
00000001
00000010
00000001
00000000
00000010
00000000
00000000
00000000
,
00001000
00010000
01000000
11000000
,
10000000
01000000
00010000
00001000
,
00011000
00001000
00000100
00000011
,
00000001
00000100
00001000
00010000
,
01000000
10000000
01000000
00010000
,
01000000
10000000
01000000
00010000
,
00001000
00001000
00000100
00000110
,
00000001
00000100
00001000
00010000
,
00001000
00010000
01000000
01100000
,
10000000
01000000
00010000
00001000
,
00000100
00000001
00000100
00000000
,
00000001
00000100
00001000
00000000
,
00020000
00030100
00002000
00103000
,
00020000
00030010
00002000
01003000
,
00020000
00030100
00002000
00103000
,
00020000
00030010
00002000
01003000
,
00001000
01000000
00010000
00000010
,
00001000
01000000
00010000
00000100
,
00001000
00100000
00010000
00000010
,
00001000
01000000
00010000
00000100
,
00020000
00001000
00001000
00031000
,
00002000
00010000
00010000
00013000
,
00010000
00100000
10000000
01000000
,
00010000
00001000
00000100
00000001
,
00000011
00000000
00001100
00000000
,
00011000
00000000
00000000
00000000
00001000
00010000
01000000
10000000
,
00100000
00000000
10000000
00000000
01000000
00000000
00010000
00001000
,
00010000
00000100
00001000
00000000
,
00000001
00001000
00000001
00000100
,
00001000
00010000
01000000
10000000
,
02000000
00000000
00010000
00000000
00010000
00000000
03010000
00001000
,
00000100
00000000
00000001
00000010
00000001
00000000
00000000
00000000
,
00000001
00000010
00001000
00010000
,
01000000
10000000
00010000
10000000
,
00020000
00001000
00000000
00001000
,
00000000
00001000
00030000
00000000
,
00000000
00000000
00000000
00000000
;
#NOTES:
     dance-double:
     :
     Hard:
     9:
     :
00000000
00000000
00000000
00000000
,
00000000
00000000
00000000
00000000
,
00000000
00000000
00000000
00000000
,
00000000
00000000
00000000
00000000
,
00000000
00000000
00000000
00000000
,
00100000
10000000
01000000
00000000
00010000
00000000
00001000
00000000
,
00000100
00000001
00000010
00000001
,
00000010
00001000
00010000
00100000
00000000
10000000
01000000
10000000
,
00100000
00000000
10000000
01000000
00100000
01000000
00100000
00000000
,
00001000
00010000
00000100
00010000
00001000
00000000
00010000
00000000
,
01000000
10000000
00100000
10000000
,
01000000
00010000
00001000
00000100
00000000
00000010
00000100
00000001
,
00000100
00000000
00000001
00000010
00000100
00000010
00000001
00000000
,
00000010
00001000
00010000
00100000
10000000
00000000
10000000
00000000
,
00010000
10000000
01000000
00010000
,
00001000
00000100
00000010
00010000
00001000
00000000
00000100
00000000
,
00000001
00000001
00000100
00001000
,
00010000
00001000
00010000
01000000
00100000
00000000
00010000
00000000
,
00100000
10000000
00100000
00010000
,
00000100
00000010
00000100
00000001
00000010
00000000
00000001
00000000
,
00000001
00000010
00000001
00000000
00000010
00000000
00001000
00000000
,
00010000
00000000
00001000
00010000
01000000
10000000
01000000
00000000
,
10000000
01000000
00010000
00011000
,
00001000
00000000
00010000
00001000
00000100
00000001
00000100
00000000
,
00000001
00000100
00001000
00010000
,
01000000
00000000
10000000
00010000
01000000
00000000
00001000
00100000
,
01000000
10000000
01000000
00010000
,
00001000
00000000
00010000
00001000
00000100
00000001
00000100
00000000
,
00000001
00000100
00001000
00011000
,
00010000
00000000
00001000
00010000
01000000
10000000
01000000
00000000
,
10000000
01000000
00010000
00001000
,
00000100
00000000
00000001
00001000
00000100
00000000
00010000
00000010
,
00000100
00001000
00010000
00001000
,
00100000
00010000
10000000
01000000
00100000
00000000
00001000
00000000
,
00000100
00001000
00100000
10000000
,
00100000
10000000
00100000
00001000
,
00000100
00001000
00100000
10000000
,
00100000
00010000
10000000
01000000
00100000
00000000
00001000
00000000
,
00000100
00001000
00100000
10000000
,
00100000
10000000
00100000
00001000
,
00000100
00001000
00100000
10000000
,
10000000
01000000
00001000
00000010
,
00000001
00000010
00010000
01000000
,
10000000
01000000
00001000
00000010
,
00000001
00000010
00010000
01000000
,
10000000
00000000
01000000
00010000
00001000
00000000
00000100
00000001
,
00000010
00000001
00000010
00001000
00010000
00100000
01000000
10000000
,
01000000
00000000
00010000
00000000
01000000
00100000
01000000
00000000
,
00001000
00010000
00001000
00000100
00000010
00000000
00010000
00000010
,
00001000
00000000
00000001
00000000
00000010
00000100
00010000
00000000
,
00100000
00000000
00100000
00000000
10000000
01000000
10000000
00000000
,
10000000
01000000
00010000
00001000
00000100
00000001
00000100
00001000
,
00000100
00000000
00000001
00000010
00000001
00000000
00000100
00000010
,
00000001
00001000
00010000
10000000
,
00100000
00000000
10000000
00000000
01000000
00010000
00001000
00000100
,
00000002
00001000
00000000
00001000
,
00000000
00001000
00000000
00001003
,
00000000
00000000
00000000
00000000
;
#NOTES:
     dance-double:
     :
     Challenge:
     12:
     :
00000000
00000000
00000000
00000000
,
00000000
00000000
00000000
00000000
,
00000000
00000000
00000000
00000000
,
10000000
01000000
00100000
00010000
00000000
10000000
01000000
00010000
,
00001000
00000000
00000100
00001000
00010000
00100000
10000000
00000000
,
00100000
00000000
00000000
10000000
01000000
00000000
00000000
00000000
00010000
00000000
00000000
00000000
00001000
00000000
00000000
00000000
,
00000100
00000000
00000000
00000100
00000001
00000000
00000000
00000000
00000010
00000000
00000000
00000000
00000001
00000000
00000000
00000000
,
00000010
00001000
00010000
00100000
00000000
10000000
01000000
10000000
,
00100000
00000000
10000000
01000000
00100000
01000000
00100000
00000000
,
00001000
00000000
00000000
00010000
00000100
00010000
00001000
00000000
00010000
00000000
00000000
00000000
01000000
00000000
00000000
00000000
,
10000000
00000000
00000000
00010000
10000000
01000000
00100000
00000000
01000000
00000000
00000000
00000000
10000000
00000000
00000000
00000000
,
01000000
00010000
00001000
00000100
00000000
00000010
00000100
00000001
,
00000100
00000000
00000001
00000010
00000100
00000010
00000001
00000000
,
00000010
00000000
00000000
00001000
00010000
00000000
00000000
00000000
01000000
00000000
00000000
10000000
01000000
00000000
00000000
00000000
,
00010000
00000000
00000000
01000000
00100000
00000000
00000000
00000000
01000000
00000000
00000000
00000000
10000000
00000000
01000000
00000000
,
00010000
00000000
00001000
00000000
00000010
00000000
00000001
00000000
00000100
00000000
00000000
00000010
00001000
00000000
00000000
00000000
,
00000001
00000000
00000000
00000100
00001000
00000000
00000000
00000000
00010000
00000000
00000000
00100000
10000000
00000000
00000000
00000000
,
00010000
01000000
00001000
01000000
00100000
00000000
10000000
00000000
,
00100000
00000000
00000000
01000000
00010000
00000000
00000000
00000000
00100000
00000000
00000000
00001000
00010000
00000000
00000000
00000000
,
00001000
00000000
00000100
00000000
00000001
00000000
00000100
00000000
00000010
00000000
00000000
00001000
00000100
00000000
00000000
00000000
,
00000001
00000010
00000100
00010000
00001000
00100000
00010000
01000000
,
00010000
00000000
00000000
00000000
10000000
00010000
01000000
00010000
10000000
00000000
00000000
00010000
01000000
00000000
00000000
00000000
,
10000000
00000000
00000000
01000000
00010000
00000000
00000000
00000000
00001000
00000000
00000000
00000000
00011000
00000000
00000000
00000000
,
00001000
00000000
00000000
00000000
00010000
00001000
00010000
00001000
00000100
00000000
00000000
00000001
00000100
00000000
00000000
00000000
,
00000001
00000010
00000000
00000000
00000100
00001000
00000000
00000000
00001000
00010000
00000000
00000000
00010000
00100000
00000000
00000000
,
01000000
00000000
00000000
00000000
00001000
01000000
00001000
01000000
00001000
00000000
00000000
01000000
00010000
00000000
00000000
00000000
,
01000000
00000000
10000000
00000000
01000000
00100000
00010000
00001000
,
00000100
00000000
00000000
00000000
00000001
00001000
00000100
00001000
00000001
00000000
00000000
00001000
00000100
00000000
00000000
00000000
,
00000010
00001000
00010000
00011000
,
00010000
00000000
00000000
00000000
00001000
00010000
00001000
00010000
01000000
00000000
00000000
10000000
01000000
00000000
00000000
00000000
,
10000000
00100000
00000000
00000000
01000000
00010000
00000000
00000000
00010000
00001000
00000000
00000000
00001000
00000010
00000000
00000000
,
00000100
00000000
00000000
00000000
00010000
00000100
00010000
00000100
00010000
00000000
00000000
00000100
00001000
00000000
00000000
00000000
,
00000001
00001000
00000001
00000100
00001000
00010000
01000000
00000000
,
10000000
00000000
00000000
00000000
00010000
00000000
00000000
00000000
00001000
00000000
00000000
00000000
00000001
00000000
00000000
00000010
,
00001000
00000000
00000000
00000000
00010000
00000000
00000000
00000000
10000000
00000000
00000000
00100000
00010000
00000000
00000000
00000000
,
00001000
00000000
00000000
00000000
00000001
00000000
00000000
00000000
00001000
00000000
00000000
00000000
00010000
00000000
00000000
00100000
,
10000000
00000000
00000000
00000000
00010000
00000000
00000000
00000000
00001000
00000000
00000000
00000010
00000001
00000000
00000000
00000000
,
00000001
00000000
00000000
00000000
00001000
00000000
00000000
00000000
00010000
00000000
00000000
00000000
10000000
00000000
00000000
01000000
,
00010000
00000000
00000000
00000000
00001000
00000000
00000000
00000000
00000001
00000000
00000000
00000100
00001000
00000000
00000000
00000000
,
00010000
00000000
00000000
00000000
10000000
00000000
00000000
00000000
00010000
00000000
00000000
00000000
00001000
00000000
00000000
00000100
,
00000001
00000000
00000000
00000000
00001000
00000000
00000000
00000000
00010000
00000000
00000000
01000000
10000000
00000000
00000000
00000000
,
10000000
00000000
00000000
01000000
00010000
00000000
00000000
00000000
00001000
00000000
00000000
00000010
00000001
00000000
00000000
00000000
,
00000010
00000000
00000000
00000100
00000010
00000000
00000000
00000000
00000001
00000000
00000000
00000000
00000100
00000000
00001000
00010000
,
00001000
00000000
00000000
00000000
01000000
00000000
00010000
01000000
00010000
00000000
00000000
00000000
01000000
00000000
00001000
00010000
,
00001000
00000000
00000000
00000000
00010000
00000000
00001000
00010000
00001000
00000000
00000000
00000000
01000000
00000000
00000000
00000000
,
10000000
01000000
00010000
00001000
00000010
00000001
00000100
00000001
,
00000010
00000000
00000001
00000000
00000010
00000000
00001000
00000000
00010000
00000000
00100000
00000000
01000000
00100000
10000000
00100000
,
01000000
00000000
00000000
00010000
01000000
00000000
00000000
00000000
00010000
00000000
00000000
10000000
01000000
00000000
00000000
00000000
,
00010000
00001000
00000000
00000010
00000000
00000100
00000001
00000100
,
00001000
00000100
00001000
00000000
00010000
00000010
00010000
00000000
,
00011000
00000000
00000000
00000000
01000000
00000000
00100000
00000000
10000000
00000000
00000000
01000000
00000000
00000000
10000000
00000000
,
00100000
00000000
00001000
00000000
00000010
00000000
00000100
00000001
,
00000100
00000000
00000001
00000020
00000001
00000000
00000100
00000000
,
00000031
00000000
00001000
00000000
00100000
00000000
01000000
10000000
,
01000000
00000000
00010000
00000000
01000000
00010000
00000010
00000000
,
00000002
00000100
00000000
00000100
,
00000000
00000100
00000000
00000103
,
00000000
00000000
00000000
00000000
;
