
//----- song id: dong
#TITLE:Dong! Dong!;
#ARTIST:Star☆T 【愛知】;
#ARTISTTRANSLIT:Star☆T [Aichi];
#BANNER:Dong! Dong!.png;
#BACKGROUND:Dong! Dong!-bg.png;
#CDTITLE:./CDTitles/DDR (2014).png;
#MUSIC:Dong! Dong!.ogg;
#SAMPLESTART:58.286;
#SAMPLELENGTH:15;
#BPMS:0=210;
#NOTES:
     dance-single:
     :
     Beginner:
     4:
     :
0000
0000
0000
0000
,
0000
0000
0000
0000
,
0000
0000
0000
0000
,
0000
0000
0000
0000
,
0000
0000
0000
0000
,
0010
0010
0010
0000
,
0001
0001
0001
0000
,
0010
0010
0010
0000
,
1000
1000
1000
0000
,
0001
0000
0000
0000
,
0100
0000
0000
0000
,
0001
0000
0000
0000
,
0100
0100
0100
0000
,
1000
0000
0000
0000
,
0100
0000
0000
0000
,
0001
0000
0001
0000
,
0100
0100
0100
0000
,
0001
0001
0000
0001
,
0001
0001
0000
0000
,
0100
0100
0000
0100
,
0100
0100
0000
0000
,
1000
1000
0000
1000
,
1000
1000
0000
0000
,
0001
0001
0000
0001
,
0001
0001
0000
0000
,
1000
1000
0000
1000
,
1000
1000
0000
0000
,
0100
0100
0000
0100
,
0100
0100
0000
0000
,
0001
0001
0000
0001
,
0001
0001
0000
0000
,
1000
1000
0000
1000
,
1000
1000
1000
1000
,
2000
0000
0000
3000
,
0000
0000
0000
0000
,
0002
0000
0000
0003
,
0000
0000
0000
0000
,
2000
0000
0000
3000
,
0000
0000
0000
0000
,
1000
1000
1000
0000
,
0001
0001
0001
0000
,
0010
0010
0010
0000
,
0010
0010
0010
0000
,
0001
0001
0000
0000
,
0010
0010
0000
0000
,
0010
0010
0000
0000
,
0001
0001
0000
0000
,
0010
0010
0010
0010
,
0010
0010
0010
0000
,
0100
0100
0100
0100
,
0100
0100
0100
0000
,
1000
1000
1000
0000
,
0100
0100
0100
0000
,
0000
0001
0001
0000
,
1000
1000
1000
0000
,
0000
1000
0000
0001
,
0000
1000
0000
0001
,
0000
0010
0010
0010
,
0000
0000
0000
0000
,
0001
0001
0001
0000
,
0100
0100
0100
0000
,
0000
1000
1000
0000
,
0001
0001
0001
0000
,
0000
1000
0000
0001
,
0000
1000
0000
0001
,
0001
0001
0001
0001
,
0000
0001
0001
0000
,
1000
0000
0010
0000
,
0010
0000
1000
0000
,
0001
0001
0001
0000
,
0001
0000
0000
0100
,
0000
0000
0000
0000
;
#NOTES:
     dance-single:
     :
     Easy:
     6:
     :
0000
0000
0000
0000
,
0000
0000
0000
0000
,
0000
0000
0000
0000
,
0000
0000
0000
0000
,
0000
0000
0000
0000
,
0001
0001
0010
0000
,
0001
0100
0001
0000
,
1000
1000
0010
0000
,
0100
0010
0100
0000
,
0001
0000
0000
0000
,
0000
0100
0001
0001
,
0001
0000
0000
0000
,
0000
0100
0010
0100
,
1000
0000
0000
0000
,
0000
0100
1000
1000
,
0001
0000
0001
0000
,
1000
1000
1000
1000
,
1000
0001
0000
0001
,
0010
0001
0000
0010
,
0001
1000
0000
1000
,
0100
1000
0000
0100
,
1000
0001
0000
0001
,
0100
0001
0000
0100
,
0001
0001
0000
1000
,
0010
1000
0010
0000
,
1000
1000
0000
1000
,
0010
1000
0000
0010
,
1000
0001
0000
0001
,
0000
0001
0000
0001
,
0001
1000
0000
1000
,
0100
1000
0000
0100
,
1000
0000
0001
0000
,
1000
1000
1000
1000
,
1000
0000
0001
0000
,
1000
0000
1000
0000
,
0100
0001
0000
0001
,
0000
0001
0000
0001
,
1000
0000
1000
0000
,
0001
0100
0001
0000
,
1000
0000
0000
0000
,
0001
0000
0000
0000
,
1000
1000
0001
0001
,
0010
0100
0010
0000
,
0000
0001
0000
1000
,
0000
0010
0000
1000
,
0020
0000
0000
0030
,
0000
0000
0000
0000
,
1000
0100
0001
0100
,
0001
0001
0001
0001
,
0020
0030
0002
0003
,
0020
0030
2000
3000
,
1000
0001
1000
0000
,
0000
0100
1000
0000
,
1000
0001
0100
0000
,
0000
0001
1000
0000
,
0010
1000
1000
1000
,
1000
0100
1000
0000
,
1000
0001
0100
0001
,
0000
0000
0000
0000
,
0001
1000
0001
0000
,
0000
0100
0001
1000
,
0001
1000
0100
0000
,
0001
0001
0001
0001
,
0010
0001
0010
0001
,
0001
0100
0001
0000
,
0010
0000
0000
1000
,
0000
0010
0001
0000
,
1000
0100
0010
0000
,
0010
0100
1000
1000
,
0000
1000
0010
0100
,
0001
0100
0100
0100
,
0000
0000
0000
0000
;
#NOTES:
     dance-single:
     :
     Medium:
     9:
     :
0000
0000
0000
0000
,
0000
0000
0000
0000
,
0000
0000
0000
0000
,
0000
0000
0000
0000
,
0000
0000
0000
0000
,
0001
0100
0010
1000
,
0001
0100
0001
1000
,
0010
0000
0001
0000
0010
0000
0000
1000
,
0000
0001
0010
0000
0100
0000
0000
0000
,
0001
0000
1000
0000
1000
0000
0000
0001
,
0000
1000
0100
0000
0101
0000
0001
0000
,
0010
0000
0100
0000
1000
0000
0000
0010
,
0000
1000
0100
0000
0010
0000
0100
0000
,
1000
0000
0100
0000
0001
0000
0000
1000
,
0000
0001
0100
0000
1000
0000
1000
0000
,
0001
1000
0001
1000
,
1010
0011
0101
1100
,
1001
0001
0100
0001
,
0010
0000
0001
0000
0000
1000
0010
0000
,
0001
1000
0010
1000
,
0100
0000
1000
0000
0000
0001
0100
0000
,
1000
0001
0010
0001
,
0100
0000
0001
0000
0000
1000
0100
0000
,
0001
0001
0100
1000
,
0010
1001
0100
1001
,
1001
1000
0100
1000
,
0010
0000
1000
0000
0000
0001
0010
0000
,
1000
0001
0010
0001
,
0100
0000
0001
0000
0000
1000
0100
0000
,
0001
1000
0010
1000
,
0100
0000
1000
0000
0000
0001
0100
0000
,
1000
1000
0100
0001
,
0010
1001
0100
1001
,
0001
0010
0001
0010
,
1000
0100
1000
0011
,
0100
0001
0200
0301
,
1100
0101
0210
0310
,
1000
0010
1000
0010
,
0001
0100
0001
0010
,
2000
0000
3001
1000
,
0001
0100
0010
0001
,
1000
0100
0101
0001
,
0010
0100
0010
1100
,
0001
0001
0100
1000
,
0010
0000
0010
0000
1000
0000
0001
0100
,
0000
0020
1000
1000
,
1000
1000
1000
1030
,
1001
0010
1001
0100
,
1001
0010
0010
0100
,
0100
0100
0010
0010
,
0101
0101
1100
1100
,
1000
0001
1000
0001
,
0001
0100
1000
0101
,
1000
0000
0001
0000
0100
0000
0001
0100
,
0000
0101
1000
0002
,
0010
0010
0010
0010
,
1000
1000
1000
0103
,
1000
1001
0100
1000
,
0002
0100
0100
0103
,
1001
1000
0001
1000
,
1000
0100
0001
1100
,
0001
1000
0100
1000
,
1000
1000
0001
2000
,
0010
0010
0010
0010
,
0001
0001
0001
3100
,
0010
0001
0100
1000
,
0000
0010
0001
0000
,
1000
0000
0100
0000
0011
0000
0000
0001
,
0000
1000
0100
0000
1000
0000
0100
0000
,
0001
1000
0010
0100
,
0001
1000
0000
0010
0000
0000
1001
0000
,
0000
0000
0000
0000
;
#NOTES:
     dance-single:
     :
     Hard:
     12:
     :
0000
0000
0000
0000
,
0000
0000
0000
0000
,
0000
0000
0000
0000
,
0000
0000
0000
0000
,
0000
0000
0000
0000
,
0001
0000
0000
0101
0000
0000
0010
0000
0000
0000
0000
1000
,
0000
0000
0001
0100
0000
0000
0001
0000
0000
1100
0000
0000
,
0010
0000
0000
1001
0000
0000
0010
0000
0000
0000
0000
1000
,
0000
0000
0001
0010
0000
0000
0100
0000
0000
0100
0000
0010
,
0001
0000
0000
1100
0000
0000
1000
0000
0000
0000
0000
0001
,
0000
0000
1000
0100
0000
0000
0101
0000
0000
0001
0000
0000
,
0011
0000
0000
0110
0000
0000
1001
0000
0000
0000
0000
0010
,
0000
0000
1000
0100
0000
0000
0010
0000
0000
0100
0000
0000
,
1010
0000
0000
0101
0000
0000
0001
0000
0000
0000
0000
1000
,
0000
0000
0001
0100
0000
0000
1100
0000
0000
1000
0000
0000
,
0011
1100
0011
1100
,
1010
0011
0101
1100
,
1001
0000
0000
0001
0000
0000
0000
0000
0100
0001
0000
0000
,
0010
0000
0000
0001
0000
0000
0000
0000
1000
0010
0000
1000
,
0001
0000
0000
1100
0000
0000
0000
0000
0010
1000
0000
0000
,
0100
0000
0000
1000
0000
0000
0000
0000
0001
0100
0000
0001
,
1000
0000
0000
0001
0000
0000
0000
0000
0010
0001
0000
0000
,
0100
0000
0000
0001
0000
0000
0000
0000
1000
0100
0000
1000
,
0001
0000
0000
0011
0000
0000
0000
0000
0100
1000
0000
0000
,
0001
0000
0010
0100
0000
1000
0100
0000
0010
0001
0000
0010
,
1000
0000
0000
1000
0000
0000
0000
0000
0100
1000
0000
0000
,
0010
0000
0000
1000
0000
0000
0000
0000
0001
0010
0000
0001
,
1000
0000
0000
0101
0000
0000
0000
0000
0010
0001
0000
0000
,
0100
0000
0000
0001
0000
0000
0000
0000
1000
0100
0000
1000
,
0001
0000
0000
1000
0000
0000
0000
0000
0010
1000
0000
0000
,
0100
0000
0000
1000
0000
0000
0000
0000
0001
0100
0000
0001
,
1000
0000
0000
1010
0000
0000
0000
0000
0100
0001
0000
0000
,
0101
1100
0101
1100
,
0001
0000
1000
0010
0000
0000
1000
0000
0000
0001
0000
0010
,
0100
0000
0000
0110
0000
0000
1100
0000
0000
0010
0000
0001
,
0100
0000
0000
0001
0000
0200
0000
0000
0000
0301
0000
0000
,
1100
0101
0210
0310
,
1000
0000
0001
0010
0000
0000
0001
0000
0000
0010
0000
0100
,
1000
0200
0001
0310
,
0002
0023
0032
2003
,
3001
0000
0010
0100
0000
1000
0010
0000
0100
0001
0000
0000
,
1000
0000
0000
1100
0000
0000
0001
0000
0100
0001
0000
0000
,
0010
0000
0000
0100
0000
0000
0010
0000
1000
0100
0000
0000
,
0001
0000
0000
0101
0000
0000
0100
0000
0010
1000
0000
0000
,
0010
0000
0000
0110
0000
0000
1000
0000
0000
0001
0000
0100
,
0000
0000
0100
0020
0000
0000
0001
0000
0000
0100
0000
0000
,
0001
0100
0001
0130
,
1000
0000
0000
0110
0000
0000
0001
0000
1000
0100
0000
0010
,
0001
0000
0000
1100
0000
0000
0010
0000
0001
0100
0000
0000
,
0110
0110
0011
0011
,
0101
0101
0110
0110
,
1001
0000
0000
0001
0000
0000
1000
0000
0100
0010
0000
0001
,
0000
0000
0001
0100
0000
0000
1000
0000
0000
0101
0000
0000
,
1000
0000
0000
0001
0000
1000
0100
0000
0010
0001
0000
0100
,
0000
0000
0000
0101
0000
0000
1000
0000
0002
0000
0000
0000
,
0010
1000
0010
1000
,
1000
0100
1000
0103
,
1000
1001
0100
0011
,
0001
0000
0010
0100
0000
1000
0100
0000
1000
0100
0000
0000
,
1001
0000
0000
1000
0000
0100
0010
0000
0000
0001
0000
1000
,
0000
0000
1000
0100
0000
0000
0001
0000
0000
1100
0000
0000
,
0001
0000
0000
1000
0000
0001
0100
0000
0010
1000
0000
0100
,
0000
0000
0000
1100
0000
0000
0001
0000
2000
0000
0000
0000
,
0010
0001
0010
0001
,
0001
0100
0001
3100
,
0010
1001
0100
1001
,
1000
0000
0001
0100
0000
0000
1001
0000
0000
0001
0000
1000
,
0100
0000
0001
0100
0000
0000
0010
0000
0000
0000
0000
0001
,
0000
0000
1000
0100
0000
0000
1000
0000
0000
0101
0000
0000
,
0001
0000
1000
0001
0000
0000
0011
0000
0000
1100
0000
0000
,
0001
0000
1000
0000
0000
0010
0100
0000
0000
1001
0000
0000
,
0000
0000
0000
0000
;
#NOTES:
     dance-double:
     :
     Easy:
     7:
     :
00000000
00000000
00000000
00000000
,
00000000
00000000
00000000
00000000
,
00000000
00000000
00000000
00000000
,
00000000
00000000
00000000
00000000
,
00000000
00000000
00000000
00000000
,
00001000
00001000
00000010
00000000
,
00000000
00000100
00001000
00000001
,
00000010
00000001
00000010
00000000
,
00000000
00000010
00000100
00000000
,
00001000
00010000
00010000
00000000
,
00000000
01000000
00010000
00010000
,
00010000
01000000
00010000
00000000
,
00000000
01000000
00100000
01000000
,
10000000
01000000
00010000
00000000
,
00000000
00010000
00001000
00010000
,
00010000
00000000
00001000
00000000
,
00010000
00001000
00010000
00001000
,
00000100
00000001
00000000
00000001
,
00000010
00000001
00000000
00000010
,
00001000
00000001
00000000
00000001
,
00000100
00001000
00000000
00010000
,
00100000
10000000
00000000
00010000
,
01000000
00010000
00000000
01000000
,
00010000
00010000
00000000
10000000
,
10000000
01000000
00010000
00001000
,
00000100
00000001
00000000
00000001
,
00000010
00000001
00000000
00000010
,
00001000
00000001
00000000
00000001
,
00000100
00001000
00000000
00010000
,
00100000
10000000
00000000
00010000
,
01000000
00010000
00000000
01000000
,
00010000
00010000
00000000
10000000
,
10000000
01000000
00010000
00001000
,
00000100
00000010
00001000
00000010
,
00000100
00000100
00000001
00000010
,
00001000
00010000
00000000
00100000
,
10000000
01000000
00100000
00000000
,
10000000
00100000
10000000
01000000
,
00010000
00001000
00000100
00000010
,
00000001
00000000
00000100
00000001
,
00001000
00000100
00000010
00000001
,
00000000
00000001
00000001
00000001
,
00000010
00001000
00010000
01000000
,
10000000
10000000
01000000
10000000
,
00100000
00100000
10000000
00010000
,
00100000
00001000
00000000
00000000
,
00001000
00010000
00001000
00000100
,
00000001
00000100
00001000
00000100
,
00001000
00000001
00000010
00000100
,
00000100
00000000
00010000
00000000
,
01000000
00000000
11000000
00000000
,
10000000
00010000
10000000
00000000
,
00000000
10000000
01000000
00010000
,
00001000
00000010
00000001
00000001
,
00000000
00000001
00001000
00000000
,
00000010
00001000
00000010
00001000
,
00010000
00001000
00010000
00001000
,
01000000
00010000
01000000
00010000
,
00010000
01000000
01000000
01000000
,
00020000
00130000
00002000
00013000
,
00000000
00010000
00000100
00001000
,
00002000
00003001
00000200
00000301
,
00000100
00000001
00001000
00000000
,
00000010
00001000
00000010
00001000
,
00010000
00001000
00010000
00001000
,
00100000
01000000
10000000
01000000
,
00000000
00100000
00010000
00000000
,
00100000
00001000
00010000
00001000
,
00010000
00001000
00000100
00000001
,
00000010
00000001
00001000
00000100
,
00000001
00000100
00001000
00011000
,
00000000
00000000
00000000
00000000
;
#NOTES:
     dance-double:
     :
     Medium:
     9:
     :
00000000
00000000
00000000
00000000
,
00000000
00000000
00000000
00000000
,
00000000
00000000
00000000
00000000
,
00000000
00000000
00000000
00000000
,
00000000
00000000
00000000
00000000
,
00000001
00000000
00000100
00000000
00001000
00000000
00000000
00000001
,
00000000
00000100
00001000
00000000
00010000
00000000
01000000
00000000
,
10000000
00000000
01000000
00000000
00010000
00000000
00000000
10000000
,
00000000
01000000
10000000
00000000
01000000
00000000
00000000
00000000
,
10000000
00000000
01000000
00000000
00010000
00000000
00000000
00001000
,
00000000
00000100
00000001
00000000
00000011
00000000
00000000
00000000
,
00000010
00000000
00000100
00000000
00001000
00000000
00000000
00000010
,
00000000
00001000
00000100
00000000
00000010
00000000
00000001
00000000
,
00000001
00000000
00000100
00000000
00001000
00000000
00000000
00010000
,
00000000
01000000
10000000
00000000
10000000
00000000
10000000
00000000
,
00100000
00000000
00010000
00000000
,
00001000
00000100
00000001
00000010
,
00000001
00000000
00000001
00000000
00000000
00000100
00000001
00000000
,
00000010
00000001
00000100
00001000
,
00010000
00000000
01000000
00000000
00000000
00100000
00010000
00000000
,
01000000
00100000
10000000
01000000
,
00010000
00000000
00001000
00000000
00000000
00000100
00000001
00000000
,
00000100
00000010
00001000
00000100
,
00001000
00000000
00001000
00000000
00000000
00000100
00000001
00000000
,
00000100
00001000
00010000
00100000
,
10000000
00000000
10000000
00000000
00000000
01000000
10000000
00000000
,
00100000
10000000
10000000
01000000
,
00010000
00000000
00001000
00000000
00000000
00010000
00001000
00000000
,
00000100
00000001
00000010
00000100
,
00001000
00000000
00001000
00000000
00000000
00000010
00001000
00000000
,
00000100
00010000
00001000
00010000
,
00100000
00000000
00100000
00000000
00000000
10000000
01000000
00000000
,
10000000
01000000
00010000
00000000
,
00010000
00001000
00010000
00001000
,
00010000
01000000
10000000
00100000
,
01000000
00010000
02000000
03010000
,
11000000
01010000
00011000
00001010
,
00000001
00000010
00000001
00000010
,
00001000
00000100
00001000
00000010
,
00000001
00000000
00000100
00001000
,
00010000
01000000
00100000
00010000
,
10000000
01000000
00010000
00010000
,
00100000
01000000
00100000
10000000
,
10000000
01000000
00010000
00001000
,
00000010
00000000
00000010
00000000
00000001
00000000
00001000
00000100
,
00000000
00000020
00000001
00000001
,
00000001
00000001
00000001
00000031
,
00000011
00000000
00001100
00000000
,
00011000
00000000
00001000
00010000
,
00001000
00010000
00100000
10000000
,
10100000
10100000
11000000
11000000
,
10000000
00000000
00010000
00000000
10000000
00000000
00000000
00010000
,
00000000
10000000
01000000
00000000
10000000
00000000
10000000
00000000
,
00100000
00000000
00010000
00000000
00001000
00000000
00000100
00000001
,
00000000
00000100
00000001
00000000
00000001
00000000
00002000
00000000
,
00000010
00000010
00000010
00000010
,
00000001
00000001
00000001
00003100
,
00000001
00000100
00001000
00010000
,
00020000
01000000
01000000
01030000
,
11000000
00000000
10000000
00000000
00010000
00000000
00000000
10000000
,
00000000
00010000
01000000
00000000
00010000
00000000
10000000
00000000
,
01000000
00010000
00001000
00000100
,
00000001
00000001
00000001
00000002
,
00000010
00000010
00000010
00000010
,
00001000
00001000
00001000
00000103
,
00000001
00000100
00001000
00011000
,
00000000
00100000
00010000
00000000
,
10000000
00000000
01000000
00000000
00100000
00000000
00000000
00010000
,
00000000
10000000
00010000
00000000
10000000
00000000
01000000
00000000
,
00010000
00001000
00000100
00000001
,
00000010
00000001
00000000
00000100
00000000
00000000
00000110
00000000
,
00000000
00000000
00000000
00000000
;
#NOTES:
     dance-double:
     :
     Hard:
     13:
     :
00000000
00000000
00000000
00000000
,
00000000
00000000
00000000
00000000
,
00000000
00000000
00000000
00000000
,
00000000
00000000
00000000
00000000
,
00000000
00000000
00000000
00000000
,
00001000
00000000
00000000
00110000
00000000
00000000
00100000
00000000
00000000
00000000
00000000
10000000
,
00000000
00000000
00010000
01000000
00000000
00000000
00010000
00000000
00000000
11000000
00000000
00000000
,
00100000
00000000
00000000
10010000
00000000
00000000
00100000
00000000
00000000
00000000
00000000
10000000
,
00000000
00000000
00010000
00100000
00000000
00000000
00011000
00000000
00000000
00010000
00000000
00001000
,
00010000
00000000
00000000
00001100
00000000
00000000
00001000
00000000
00000000
00000000
00000000
00000001
,
00000000
00000000
00001000
00000100
00000000
00000000
00000101
00000000
00000000
00000001
00000000
00000000
,
00000011
00000000
00000000
00001100
00000000
00000000
00011000
00000000
00000000
00000000
00000000
00100000
,
00000000
00000000
10000000
01000000
00000000
00000000
00100000
00000000
00000000
01000000
00000000
00000000
,
10100000
00000000
00000000
01010000
00000000
00000000
00011000
00000000
00000000
00000000
00000000
00001000
,
00000000
00000000
00000100
00000010
00000000
00000000
00000101
00000000
00000000
00000001
00000000
00000000
,
00001010
00000000
00001010
00000000
,
00001100
00011000
01010000
11000000
,
10010000
00000000
00000000
00010000
00000000
00000000
00000000
00000000
01000000
00010000
00000000
00000000
,
00100000
00000000
00000000
00010000
00000000
00000000
00000000
00000000
10000000
01000000
00000000
00010000
,
00001000
00000000
00000000
00001100
00000000
00000000
00000000
00000000
00000100
00001000
00000000
00000000
,
00000100
00000000
00000000
00001000
00000000
00000000
00000000
00000000
00000001
00000100
00000000
00000001
,
00000100
00000000
00000000
00001000
00000000
00000000
00000000
00000000
00010000
01000000
00000000
00000000
,
10000000
00000000
00000000
00010000
00000000
00000000
00000000
00000000
10000000
01000000
00000000
10000000
,
00010000
00000000
00000000
00110000
00000000
00000000
00000000
00000000
01000000
10000000
00000000
00000000
,
10000000
00000000
00100000
00010000
00000000
00000000
00001000
00000000
00000100
00000001
00000000
00000000
,
00001001
00000000
00000000
00001000
00000000
00000000
00000000
00000000
00000100
00001000
00000000
00000000
,
00000010
00000000
00000000
00001000
00000000
00000000
00000000
00000000
00000001
00000100
00000000
00001000
,
00010000
00000000
00000000
01010000
00000000
00000000
00000000
00000000
01000000
00010000
00000000
00000000
,
01000000
00000000
00000000
00010000
00000000
00000000
00000000
00000000
10000000
01000000
00000000
10000000
,
01000000
00000000
00000000
00010000
00000000
00000000
00000000
00000000
00001000
00000100
00000000
00000000
,
00000001
00000000
00000000
00001000
00000000
00000000
00000000
00000000
00000001
00000100
00000000
00000001
,
00001000
00000000
00000000
00001010
00000000
00000000
00000000
00000000
00000100
00000001
00000000
00000000
,
00000001
00000000
00000010
00001000
00000000
00000000
00010000
00000000
01000000
10000000
00000000
00000000
,
00010000
00000000
10000000
00100000
00000000
00000000
10000000
00000000
00000000
00010000
00000000
00100000
,
01000000
00000000
00000000
01100000
00000000
00000000
11000000
00000000
00000000
01000000
00000000
00010000
,
00001000
00000000
00010000
00002000
00000000
00000000
00013000
00000000
,
00011000
00001100
00000210
00000310
,
00001000
00000000
00000001
00000010
00000000
00000000
00000001
00000000
00000000
00000010
00000000
00000100
,
00001000
00000001
00000100
00001000
,
00020000
00230000
20300000
31000000
,
00010000
01000000
00100000
00010000
,
10000000
00000000
00000000
11000000
00000000
00000000
10000000
00000000
01000000
00010000
00000000
00000000
,
00001000
00000000
00000000
00000100
00000000
00000000
00000001
00000000
00001000
00000100
00000000
00000000
,
00000001
00000000
00000000
00000101
00000000
00000000
00000100
00000000
00000010
00001000
00000000
00000000
,
00000100
00000000
00000000
00000110
00000000
00000000
00001000
00000000
00000000
00000001
00000000
00000100
,
00000000
00002000
00010000
00000000
,
00010000
00000000
00010000
01003000
,
00100000
01000000
00010000
01000000
,
00010000
00000000
00000000
11000000
00000000
00000000
00100000
00000000
00010000
01000000
00000000
00000000
,
11000000
01100000
00110000
00011000
,
00010100
00000101
00000110
00000110
,
00001001
00000000
00000000
00000001
00000000
00000000
00000001
00000000
00000100
00001000
00000000
00000000
,
00010000
00000000
01000000
10000000
00000000
00000000
10000000
00000000
00000000
01010000
00000000
00000000
,
10000000
00000000
00000000
00010000
00000000
10000000
01000000
00000000
00100000
00010000
00000000
01000000
,
00100000
00000000
00000000
01100000
00000000
00000000
10000000
00000000
00010000
00000000
00000000
00000000
,
00100000
00001000
00100000
00001000
,
00010000
00000100
00010000
00000100
,
00001000
00001001
00000100
00000011
,
00000001
00000000
00000010
00000100
00000000
00001000
00000001
00000000
00000100
00000010
00000000
00000100
,
00000001
00000000
00000000
00000100
00000000
00001000
00010000
00000000
00000000
01000000
00000000
10000000
,
00000000
00000000
01000000
10000000
00000000
00000000
00010000
00000000
00000000
11000000
00000000
00000000
,
00010000
00000000
00000000
10000000
00000000
01000000
00010000
00000000
00000000
00001000
00000000
00000000
,
00000010
00000000
00000000
00000011
00000000
00000000
00000001
00000000
00001000
00000001
00000000
00000000
,
00000010
00000001
00000010
00000001
,
00000001
00000100
00001000
00010000
,
00100000
10000000
01000000
10010000
,
10000000
00000000
00000000
01000000
00000000
00000000
00010000
00000000
00000000
00001000
00000000
00000100
,
00000001
00000000
00000000
00000100
00000000
00000000
00000010
00000000
00000000
00000000
00000000
00001000
,
00000000
00000000
00000001
00000100
00000000
00000000
00000001
00000000
00000000
00000101
00000000
00000000
,
00000001
00000000
00001000
00000001
00000000
00000000
00000011
00000000
00000000
00001010
00000000
00000000
,
00010000
00000000
00001000
00000000
00000000
00010000
01000000
00000000
00000000
11000000
00000000
00000000
,
00000000
00000000
00000000
00000000
;
