
//----- song id: dkdk
#TITLE:ドキドキ☆流星トラップガール!!;
#ARTIST:流星トラップボーイズ;
#TITLETRANSLIT:Dokidoki ryuusei trap girl!!;
#ARTISTTRANSLIT:Ryuusei Trap Boys;
#BANNER:Dokidoki ryuusei trap girl!!.png;
#BACKGROUND:Dokidoki ryuusei trap girl!!-bg.png;
#CDTITLE:./CDTitles/SOUND VOLTEX FLOOR.png;
#MUSIC:Dokidoki ryuusei trap girl!!.ogg;
#SAMPLESTART:58.286;
#SAMPLELENGTH:15;
#BPMS:0=140;
#NOTES:
     dance-single:
     :
     Beginner:
     3:
     :
0000
0000
0000
0000
,
0000
0000
0000
0000
,
0000
0000
0000
0000
,
0000
0000
0000
0000
,
0000
0000
0000
0000
,
0001
0001
0001
0000
,
0010
0010
0010
0000
,
1000
0000
0001
0000
,
1001
0000
0000
0000
,
1000
1000
1000
0000
,
0001
0001
0001
0000
,
1000
1000
1000
0000
,
0001
0001
0001
0000
,
1000
1000
1000
1000
,
1000
1000
1000
0000
,
0001
0001
0001
0001
,
0001
0001
0001
0000
,
1001
1001
0000
0000
,
0001
0000
1000
0000
,
0001
0000
1000
0000
,
0001
0000
1000
0000
,
0001
0000
1000
0000
,
1000
0000
0001
0000
,
1000
0000
0010
0000
,
0001
0001
0001
0001
,
0001
0001
0001
0000
,
0100
0100
0100
0000
,
0001
0001
0001
0000
,
0010
0010
0010
0000
,
1000
1000
1000
0000
,
0010
0010
0010
0000
,
1000
1000
1000
1000
,
1000
0000
1001
0000
,
0000
0000
0000
0000
,
0010
0000
0010
0000
,
0100
0000
0100
0000
,
1000
0000
0001
0000
,
1000
0000
1000
0000
,
0010
0000
0010
0000
,
0100
0000
0100
0000
,
1000
0000
0001
0000
,
1000
0000
0001
0000
,
0001
0000
0000
0000
,
0001
0000
1000
0000
,
1000
0000
0000
0000
,
0010
0010
0010
0000
,
1000
1000
1000
0000
,
0001
0001
0001
0001
,
0001
0000
0000
0000
,
1001
0000
0000
0000
,
0010
0000
0000
0000
,
0000
0000
0000
0000
,
1000
0000
0001
0000
,
1000
0000
0000
0000
,
0010
0000
0010
0000
,
0100
0000
0100
0000
,
1000
0000
0001
0000
,
1000
0000
0001
0000
,
0000
0020
0000
0000
,
0000
0030
0000
0000
,
0000
0100
0000
0100
,
0000
0010
0000
0010
,
0000
0001
0000
0001
,
0000
1000
0000
0001
,
0000
1000
0000
0001
,
0000
1000
0000
0000
,
1001
0000
0000
0000
,
0000
0000
0000
0000
;
#NOTES:
     dance-single:
     :
     Easy:
     6:
     :
0000
0000
0000
0000
,
0000
0000
0000
0000
,
0000
0000
0000
0000
,
0000
0000
0000
0000
,
0000
0000
0000
0000
,
0001
0001
1000
1000
,
0010
0001
1000
0100
,
1001
0000
0110
0000
,
0001
1000
0110
0000
,
1000
0100
1000
0100
,
0001
0010
0001
0010
,
1000
0010
1000
0010
,
0001
0100
0001
0100
,
1000
0100
1000
1000
,
1000
0010
1000
1000
,
0001
0010
0001
0001
,
0001
0100
0001
0001
,
0000
1001
1000
0010
,
0001
0010
1000
0010
,
0001
0010
1000
0010
,
0001
0010
1000
1000
,
0001
0100
1000
0100
,
0001
0100
1000
0100
,
1001
0000
0110
0000
,
1001
0110
1001
0110
,
0001
0100
0001
0001
,
0010
0001
1000
0100
,
0001
0100
0001
0001
,
0010
0100
0100
0000
,
1000
0100
1000
0100
,
0010
0001
0100
0001
,
1000
0001
1000
0001
,
1000
0100
0220
0330
,
0002
0000
0000
0003
,
0010
1001
0010
1001
,
0010
0010
0100
0100
,
1000
0100
0001
0100
,
1000
0100
0001
0100
,
0010
1001
0010
1001
,
0010
0010
0100
0100
,
1000
0100
0001
0100
,
1000
0100
0001
0100
,
0020
0000
0100
0000
,
0130
0000
1000
0000
,
1000
0000
0001
0000
,
1000
1000
1000
0010
,
1000
0100
0000
0001
,
0001
0001
0100
0000
,
1000
0000
0001
0000
,
0110
0000
0000
0100
,
0010
0000
0000
0000
,
0000
0000
0000
0000
,
0100
0000
0100
0000
,
0100
0000
0100
0000
,
0010
1000
0010
1000
,
0001
0100
0001
0100
,
0001
0100
1000
0100
,
0001
0100
1000
0010
,
0001
1100
0001
1100
,
0010
0001
0100
0001
,
2000
3100
0002
0103
,
2000
3010
0002
0013
,
1000
0101
1000
0101
,
0010
0010
0010
0010
,
2000
3010
0002
0013
,
2000
3100
0002
0103
,
1001
0000
0000
0000
,
0000
0000
0000
0000
;
#NOTES:
     dance-single:
     :
     Medium:
     9:
     :
0000
0000
0000
0000
,
0000
0000
0000
0000
,
0000
0000
0000
0000
,
0000
0000
0000
0000
,
0000
0000
0000
0000
,
0001
0010
0001
0100
0001
0010
0001
0000
,
1000
0010
1000
0100
1000
0010
1000
0000
,
1000
0100
0110
0000
0001
0100
0110
0000
,
1000
0001
0100
0001
0010
0100
1000
0000
,
1000
0000
0100
0000
1000
0100
0001
0000
,
0001
0000
0100
0000
0001
0100
1000
0000
,
1000
0000
0100
0000
1000
0100
0001
0000
,
0001
0000
0100
0000
0001
0100
1000
0000
,
0001
0000
0010
0000
0001
0010
1000
0000
,
1000
0000
0010
0000
1000
0010
0001
0000
,
0001
0000
0010
0000
0001
0010
1000
0000
,
1000
0000
0010
0000
1000
0010
0001
0000
,
1000
0000
1100
0000
1000
0001
0100
0000
,
0001
0000
0101
0000
0001
1000
0100
0000
,
1000
0000
1010
0000
0100
1000
0010
0000
,
0001
0000
0011
0000
0100
0001
0010
0000
,
0100
0000
0110
0000
1000
0001
0100
0000
,
0010
0000
0110
0000
0010
1000
0001
0000
,
0010
0001
0100
0010
1000
0100
0010
0001
,
1000
0110
1000
0110
,
0001
0000
0100
0000
0001
0010
0100
0000
,
1100
0000
1001
0000
0001
1000
0001
0000
,
1000
0110
0001
0110
,
0010
0001
0100
0010
1000
0001
0100
0000
,
1000
0000
0101
0000
0010
0100
0010
0000
,
1000
0010
0001
0100
,
1000
0001
0010
0001
1000
0001
0010
0001
,
1000
0010
0100
0010
0200
0000
0300
0000
,
0010
1000
0010
1000
0001
0010
0001
0000
,
0001
0000
0000
0001
0100
0000
0000
0000
0010
0000
0000
0010
0100
0000
0000
0000
,
1000
0100
0010
0001
1000
0000
0001
0000
,
0100
0001
0100
0000
0010
1000
0001
0000
,
0010
0001
0100
0000
1100
0000
0101
0000
,
1000
0000
0000
1000
0100
0000
0000
0000
0010
0000
0000
0010
0100
0000
0000
0000
,
1000
0100
0010
0001
0100
0010
1000
0000
,
0100
1100
0100
0101
,
0010
1010
0010
0011
,
0020
0000
0100
0000
,
0130
0000
0000
0001
0000
0000
0100
0000
0001
0000
0000
0000
0000
0000
0000
0000
,
0001
0000
0000
0100
0001
0001
0001
0000
,
1000
0100
1000
0100
1000
0000
0010
0000
,
1000
0000
0100
0000
0001
1000
0001
1000
,
0001
0001
0110
0001
,
1000
0001
1000
1001
,
1010
0000
0000
0110
0000
0000
0011
0000
,
1000
0000
0101
0000
,
1000
0100
1000
0001
,
1000
0100
0001
0010
,
0100
1000
0011
1100
,
0002
0100
1000
0103
,
0001
1000
0100
0010
0001
1000
0010
0000
,
0001
0010
1000
0010
,
0100
0100
1000
0101
,
1000
0110
1000
0110
,
1000
0001
1000
0001
0020
0000
0130
0000
,
1000
0001
0100
0001
1000
0001
0010
0001
,
1000
0100
0010
0100
1000
0100
1000
0000
,
0001
0000
0000
0001
0100
0000
0000
0000
0010
0000
0000
0010
0100
0000
0000
0000
,
0010
1000
0010
0100
0001
0100
1000
0000
,
0100
0001
0010
0000
0100
1000
0010
0000
,
1000
0010
0100
0000
1001
0000
0110
0000
,
1000
0001
0000
0010
0000
0010
0000
0010
,
0000
0000
0000
0000
;
#NOTES:
     dance-single:
     :
     Hard:
     14:
     :
0000
0000
0000
0000
,
0000
0000
0000
0000
,
0000
0000
0000
0000
,
0000
0000
0000
0000
,
0000
0000
0000
0000
,
0001
0100
0001
0000
1000
0100
1000
0000
0001
0010
0001
0000
1000
0010
1000
0000
,
0010
0100
0010
0000
1000
0001
1000
0000
0100
0010
0100
0000
0010
0000
0001
0000
,
1000
0001
0100
0001
1000
0000
0000
0000
0001
1000
0100
1000
0001
0000
0000
0000
,
1000
0000
0001
0000
0100
0000
0001
0000
1000
0010
0100
0001
0100
0000
0000
0000
,
1000
0000
0001
0000
0100
0000
0000
0000
1000
0001
0000
0010
0100
0000
1000
0000
,
0001
0000
1000
0000
0010
0000
0000
0000
0001
1000
0000
0100
0010
0000
0001
0000
,
1000
0000
0001
0000
0010
0000
0000
0000
1000
0001
0000
0100
0010
0000
1000
0000
,
0001
0000
1000
0000
0100
0000
0000
0000
0001
1000
0000
0010
0100
0000
0100
0000
,
0001
0000
1000
0000
0100
0000
0000
0000
0001
1000
0000
0010
0100
0000
0001
0000
,
1000
0000
0001
0000
0010
0000
0000
0000
1000
0001
0000
0100
0010
0000
1000
0000
,
0001
0000
1000
0000
0010
0000
0000
0000
0001
1000
0000
0100
0010
0000
0001
0000
,
1000
0000
0001
0000
0100
0000
0000
0000
1000
0001
0010
0100
1000
0100
0010
0001
,
1000
0000
0100
0000
1100
0000
0000
0000
1000
0001
0000
0010
0100
0000
1000
0000
,
0001
0000
1000
0000
0110
0000
0000
0000
0001
1000
0000
0100
0010
0000
0001
0000
,
1000
0000
0001
0000
0110
0000
0000
0000
1000
0001
0000
0100
0010
0000
1000
0000
,
0001
0000
1000
0000
0110
0000
0000
0000
0001
1000
0000
0010
0100
0000
0100
0000
,
0110
0000
1000
0000
0100
0000
0000
0000
0001
1000
0000
0010
0100
0000
0001
0000
,
1001
0000
0001
0000
0010
0000
0000
0000
1000
0001
0000
0100
0010
0000
1000
0000
,
1001
0001
0100
0010
1001
0001
0100
0010
,
1000
0001
0100
0001
1000
0100
1000
0010
0001
0010
1000
0001
,
1000
0100
0010
0000
0101
1000
0001
1000
,
0100
0000
1000
0000
0001
0100
0000
0000
0001
0000
1000
0000
0100
0000
1000
0000
,
0001
0010
0100
1000
0001
0010
0100
1000
,
0010
0000
0100
0001
0000
1000
0010
0000
0100
0000
0010
0000
1000
0000
0100
0000
,
1000
0001
0100
0010
0200
0010
0000
0310
,
0010
0000
0100
0001
0000
1000
0010
0000
0100
0000
0010
0000
1000
0000
0100
0000
,
0001
0010
1000
0010
0001
0100
1000
0100
,
1000
0000
0010
0000
0100
0000
0001
0000
1000
0010
0100
0001
0200
0000
0300
0000
,
0001
0000
0100
0000
0010
0000
1000
0100
0010
0100
1000
0000
0011
0000
0000
0000
,
1000
0000
0000
0001
1000
0100
1000
0000
1000
0000
0000
0001
1000
0100
1000
0000
,
1000
0000
0100
0000
0010
0000
0001
0000
1000
0100
0000
0000
0010
0001
0000
0000
,
0100
0000
0010
0000
0100
0000
0001
1000
0100
0000
0010
0000
0001
0000
0010
0001
,
1000
0000
0100
0000
0010
0000
0001
0100
0010
0000
1000
0000
0001
0000
0000
0000
,
0001
0000
0000
1000
0001
0100
0001
0000
0001
0000
0000
1000
0001
0100
0001
0000
,
0011
0000
0110
0000
1100
0000
1001
0000
0001
0100
0000
0000
0010
1000
0000
0000
,
0100
0000
0010
0000
0100
0000
1000
0001
0100
0000
0010
0000
1000
0000
0001
0000
,
0010
0001
1000
0010
1000
0100
1000
0100
0010
0000
0001
0000
1000
0000
0100
0000
,
0020
0000
0000
0000
0100
0000
0000
0030
,
1100
0000
0000
0011
0000
0000
0110
0000
1001
0000
0001
0010
0001
0010
0001
0000
,
1000
0000
0000
0001
0000
0000
0100
0000
0001
0010
0001
1000
0002
0000
0003
0000
,
1000
0000
0100
0000
1000
0000
0001
0000
1000
0100
0010
0001
0020
0000
0030
0000
,
0001
1000
0020
0000
0100
0100
0030
0000
0000
0001
0100
0001
0100
0001
0100
0001
,
0100
0000
0001
0000
1000
0000
0001
1000
0100
0000
1000
0000
0101
0000
0000
0000
,
1100
0000
0001
0010
0000
0000
0110
0000
0000
1000
0000
0000
1001
0000
0001
0000
,
0011
0000
0000
1001
0000
0000
0110
0000
0000
1100
0000
0000
0010
0000
0100
0000
,
0010
0000
0000
0000
,
0000
0000
0000
0000
0000
0000
0000
1000
,
0001
0000
0000
0000
,
0000
0000
0000
1001
,
0001
0000
0000
0010
0000
0000
0100
0000
1000
0000
0000
0010
0000
0000
0100
0000
,
0001
1000
0100
0010
0002
0103
2000
3100
,
0001
0000
1000
0000
0100
0000
0010
0100
1000
0000
0100
0000
0010
0000
0100
0010
,
0100
1000
0001
0100
1000
0010
0100
0001
,
1000
0001
0100
0001
2000
0000
0000
0000
0010
0000
0000
0000
0010
0000
3000
0000
,
1000
0100
0010
0001
0010
0100
1000
0100
0020
0000
0100
0000
0130
0000
0010
0100
,
2000
0000
0100
0000
3100
0000
0100
0010
0002
0000
0100
0000
0103
0000
0100
0010
,
1000
0000
0110
0000
0110
0000
0011
0000
1000
0000
0001
0100
0010
0000
0100
0001
,
1000
0000
0000
0010
0000
0000
0100
0000
0001
0000
0000
0010
0000
0000
0100
0000
,
1100
0000
1100
0000
0011
0000
0011
0000
0110
0000
0110
0000
1000
0001
0100
0010
,
2000
0000
0000
3010
0120
0000
0100
0030
,
1000
0000
0100
0000
0010
0000
0001
0000
1000
0100
0010
0001
0010
0100
1000
0100
,
1000
0000
0001
0100
0000
0001
0010
0001
0000
2000
0000
3001
0000
1000
0100
1000
,
0000
0000
0000
0000
;
#NOTES:
     dance-double:
     :
     Easy:
     6:
     :
00000000
00000000
00000000
00000000
,
00000000
00000000
00000000
00000000
,
00000000
00000000
00000000
00000000
,
00000000
00000000
00000000
00000000
,
00000000
00000000
00000000
00000000
,
00000001
00000100
00001000
00001000
,
00010000
00100000
10000000
10000000
,
10010000
00000000
01100000
00000000
,
00010000
00001000
00011000
00000000
,
00001000
00000100
00001000
00001000
,
00010000
00100000
00010000
00010000
,
10000000
00100000
10000000
10000000
,
00010000
01000000
00010000
00010000
,
00001000
00000100
00001000
00001000
,
00001000
00100000
00001000
00001000
,
00010000
00100000
00010000
00010000
,
00001000
00010000
00001000
00000000
,
00000000
00011000
00100000
10000000
,
00010000
00100000
10000000
00100000
,
00010000
00100000
10000000
00010000
,
10000000
00100000
00010000
00001000
,
00000010
00000001
00000010
00001000
,
00000001
00000010
00001000
00010000
,
00011000
00000000
01100000
00000000
,
11000000
01100000
00110000
00011000
,
00001000
00000100
00000001
00000100
,
00000010
00010000
00001000
00100000
,
00010000
10000000
01000000
01000000
,
00100000
00010000
01000000
00000000
,
10000000
01000000
00100000
00010000
,
10000000
01000000
00010000
00001000
,
00010000
00010000
00001000
00000100
,
00000002
00000000
00000000
00000003
,
00000010
00001000
00010000
00011000
,
00100000
10010000
00100000
10010000
,
00100000
01000000
00100000
01000000
,
10000000
01000000
00010000
00001000
,
00000100
00000001
00000100
00001000
,
00000010
00001001
00000010
00001001
,
00000010
00000100
00000010
00000100
,
00000001
00000100
00001000
00010000
,
01000000
10000000
01000000
00010000
,
00200000
00000000
01000000
00000000
,
01300000
01000000
10000000
00000000
,
10000000
00000000
00010000
00000000
,
00001000
00001000
00001000
00000010
,
00001000
00000100
00000000
00010000
,
00010000
00010000
00001000
00000000
,
00100000
00000000
00010000
00000000
,
01100000
00000000
00000000
00010000
,
00011000
00000000
00000000
00000000
,
00000000
00000000
00000000
00000000
,
00000000
10000000
00000000
00010000
,
00000000
00001000
00000000
00000001
,
00000010
00001001
00000010
00001001
,
00000100
00000100
00000100
00000100
,
00000001
00000100
00001000
00010000
,
01000000
10000000
01000000
00100000
,
00010000
01100000
10000000
01100000
,
00010000
01000000
00010000
01000000
,
10000000
01000000
00010000
00001000
,
00000010
00001000
00010000
00001000
,
00100000
00011000
00000010
00011000
,
00001000
00010000
01000000
10000000
,
20000000
30100000
00020000
00130000
,
10000000
00100000
00010000
00001000
,
00011000
00000000
00000000
00000000
,
00000000
00000000
00000000
00000000
;
#NOTES:
     dance-double:
     :
     Medium:
     10:
     :
00000000
00000000
00000000
00000000
,
00000000
00000000
00000000
00000000
,
00000000
00000000
00000000
00000000
,
00000000
00000000
00000000
00000000
,
00000000
00000000
00000000
00000000
,
00001000
00000100
00000010
00000000
00000001
00000100
00000001
00000000
,
00001000
00000001
00000010
00000000
00000001
00000100
00001000
00000000
,
00010000
00010000
00100000
00000000
10000000
10000000
00100000
00000000
,
01000000
00100000
10000000
01000000
00100000
00010000
00001000
00000000
,
00000100
00000000
00000010
00000000
00000001
00000100
00000001
00000000
,
00001000
00000000
00000010
00000000
00000001
00000010
00000001
00000000
,
00000010
00000000
00001000
00000000
00010000
00001000
00010000
00000000
,
01000000
00000000
00100000
00000000
10000000
00010000
10000000
00000000
,
01000000
00000000
00010000
00000000
00001000
00010000
00001000
00000000
,
00010000
00000000
01000000
00000000
10000000
00100000
10000000
00000000
,
00010000
00000000
00100000
00000000
01000000
00100000
01000000
00000000
,
10000000
00000000
01000000
00000000
00010000
00001000
00010000
00000000
,
00001000
00000000
00001100
00000000
00001000
00000010
00000100
00000000
,
00000001
00000000
00001001
00000000
00000001
00000100
00001000
00000000
,
00010000
00000000
00110000
00000000
10000000
00100000
10000000
00000000
,
00010000
00000000
01010000
00000000
10000000
01000000
00010000
00000000
,
00001000
00000000
00001100
00000000
00000001
00000100
00001000
00000000
,
00000010
00000000
00000110
00000000
00001000
00000100
00001000
00000000
,
00000001
00000100
00000010
00001000
00010000
01000000
00100000
10000000
,
00010000
00110000
01000000
11000000
,
00010000
00000000
01000000
00000000
00100000
01000000
00010000
00000000
,
20000000
30020000
00032000
00003001
,
00001000
00000000
00000010
00000000
00000001
00000100
00000010
00000000
,
00000002
00002003
00023000
10030000
,
00010000
00000000
01100000
00000000
00100000
10000000
00100000
00000000
,
20000000
30020000
00032000
00003001
,
00000010
00000001
00000010
00000001
00001000
00000100
00001000
00000100
,
00010000
00001000
00010000
00001000
00020000
00000000
00030000
00000000
,
00001000
00010000
00100000
01000000
00100000
10000000
00100000
00000000
,
00010000
11000000
00010000
11000000
,
10000000
01000000
00100000
00010000
00100000
00001000
00010000
00000000
,
00000100
00010000
00001000
00000000
00000010
00010000
00001000
00000000
,
00001000
00000100
00000001
00000000
00000010
00000000
00001000
00000000
,
00010000
00011000
00100000
11000000
,
00100000
10000000
00010000
01000000
00100000
10000000
01000000
00000000
,
00100000
00001000
00010000
00000000
00000010
00010000
00001000
00000000
,
01000000
00001000
00010000
00000000
00001000
00000000
00010000
00000000
,
00200000
00000000
01000000
00000000
,
01300000
00000000
00000000
10000000
00000000
00000000
01000000
00000000
10000000
00000000
00000000
00000000
01000000
00000000
00000000
00000000
,
00010000
00000000
00001000
00000000
00000010
00000010
00000010
00000000
,
00000001
00000100
00000010
00000100
00000001
00000000
00000010
00000000
,
00001000
00000000
00000100
00000000
00010000
00001000
00100000
00001000
,
00010000
00100000
01100000
00010000
,
10000000
00000000
00010000
00000000
00100000
01000000
10000000
00000000
,
01100000
00000000
00000000
00011000
00000000
00000000
00000110
00000000
,
00001000
00000000
00000101
00000000
,
00001000
00000001
00000100
00001000
,
00010000
01000000
10000000
00100000
,
01000000
10000000
00100000
00010000
,
00001000
00010000
00000100
00000000
00000010
00000001
00000100
00000000
,
00000001
00001000
00000100
00000010
00000001
00000100
00001000
00000000
,
00010000
00010000
01000000
10000000
,
00100000
00100000
10000000
01010000
,
00001000
00011000
00000010
00001010
,
00000001
00000010
00000100
00001000
00000020
00000000
00000130
00000000
,
00000010
00001000
00000010
00001000
00000001
00000100
00000001
00000100
,
00001000
00010000
00001000
00010000
00100000
01000000
00100000
00000000
,
00010000
11000000
00010000
11000000
,
00100000
10000000
01000000
00100000
00001000
00010000
00001000
00000000
,
00010000
00001000
00000010
00000000
00000001
00001000
00000100
00000000
,
00000010
00000100
00001000
00000000
00000101
00000000
00001100
00000000
,
00000010
00010000
00000000
00001000
00000000
00001000
00000000
00001000
,
00000000
00000000
00000000
00000000
;
#NOTES:
     dance-double:
     :
     Hard:
     14:
     :
00000000
00000000
00000000
00000000
,
00000000
00000000
00000000
00000000
,
00000000
00000000
00000000
00000000
,
00000000
00000000
00000000
00000000
,
00000000
00000000
00000000
00000000
,
00000001
00000100
00000001
00000000
00001000
00000100
00001000
00000000
00000001
00000010
00000001
00000000
00001000
00000010
00001000
00000000
,
00000010
00000100
00000010
00000000
00001000
00000001
00001000
00000000
00000100
00010000
00000100
00000000
00010000
00001000
00010000
00000000
,
00001000
01000000
00010000
01000000
00001000
00000000
00000000
00000000
00100000
00010000
10000000
00010000
00100000
00000000
00000000
00000000
,
10000000
00000000
00010000
00000000
01000000
00000000
00100000
00000000
10000000
01000000
00100000
00010000
00100000
00000000
00000000
00000000
,
00001000
00000000
00010000
00000000
00000010
00000000
00000000
00000000
00001000
00000001
00000000
00000010
00000100
00000000
00001000
00000000
,
00000001
00000000
00001000
00000000
00000010
00000000
00000000
00000000
00000001
00001000
00000000
00000001
00000010
00000000
00001000
00000000
,
00010000
00000000
01000000
00000000
10000000
00000000
00000000
00000000
10000000
00010000
00000000
01000000
00100000
00000000
10000000
00000000
,
00010000
00000000
10000000
00000000
01000000
00000000
00000000
00000000
10000000
01000000
00000000
00100000
01000000
00000000
00010000
00000000
,
00001000
00000000
00000100
00000000
00000001
00000000
00000000
00000000
00000001
00001000
00000000
00000010
00000100
00000000
00000001
00000000
,
00001000
00000000
00000001
00000000
00000010
00000000
00000000
00000000
00000001
00001000
00000000
00000001
00000010
00000000
00001000
00000000
,
00010000
00000000
01000000
00000000
10000000
00000000
00000000
00000000
00010000
10000000
00000000
01000000
00100000
00000000
00010000
00000000
,
10000000
00010000
01000000
00000000
10000000
01000000
00010000
00001000
,
00000100
00000001
00000100
00000001
00000100
00000000
00000000
00000000
00001000
00000001
00000000
00000010
00000100
00000000
00001000
00000000
,
00000001
00000000
00001000
00000000
00000110
00000000
00000000
00000000
00000001
00001000
00000000
00000001
00000100
00000000
00001000
00000000
,
00010000
00000000
01000000
00000000
10000000
00000000
00000000
00000000
10000000
00010000
00000000
01000000
00100000
00000000
10000000
00000000
,
00010000
00000000
10000000
00000000
01000000
00000000
00000000
00000000
10000000
00010000
00000000
10000000
01000000
00000000
00010000
00000000
,
00001000
00000000
00010000
00000000
00010000
00000000
00000000
00000000
00000010
00001000
00000000
00000001
00000100
00000000
00000001
00000000
,
00001000
00000000
00000001
00000000
00000010
00000000
00000000
00000000
00000001
00001000
00000000
00000001
00000010
00000000
00001000
00000000
,
00010000
01000000
10000000
00100000
10000000
00010000
01000000
00100000
,
10000000
01000000
00010000
00001000
00010000
00001000
00000100
00000001
00000010
00000100
00000000
00000000
,
00001000
00000100
00000010
00000000
00001000
00010000
00001000
00010000
,
01000000
00000000
10000000
00000000
00010000
01000000
00000000
00000000
00010000
00000000
10000000
00000000
01000000
00000000
00010000
00000000
,
00001000
00000010
00000001
00001000
00000001
00000100
00001000
00010000
,
00100000
00000000
10000000
01000000
00000000
10000000
00100000
00000000
01000000
00000000
10000000
00000000
01000000
00000000
00010000
00000000
,
00001000
00010000
00001000
00000010
00000200
00000010
00000000
00000310
,
00001000
00000000
00000100
00000010
00000000
00000100
00010000
00000000
00001000
00000000
00010000
00000000
00001000
00000000
00010000
00000000
,
00000100
00000010
00001000
00000010
00000001
00000100
00001000
00010000
,
00100000
00000000
10000000
00000000
01000000
00000000
00100000
00000000
00010000
01000000
00100000
01000000
00020000
00000000
00030000
00000000
,
00100000
00000000
00010000
00000000
00001000
00000000
00000100
00000010
00000100
00000010
00000001
00000000
00000101
00000000
00000000
00000000
,
00000001
00000000
00000000
00000100
00001000
00000000
00000000
00000000
00010000
00000000
00000000
01000000
10000000
00000000
00000000
00000000
,
10000000
00000000
01000000
00000000
00100000
00000000
00010000
00000000
10000000
01000000
00000000
00000000
00010000
00001000
00000000
00000000
,
00000100
00000000
00000010
00000000
00000100
00000000
00000001
00001000
00000100
00000000
00000001
00000000
00000100
00000000
00010000
00001000
,
00100000
00010000
00100000
01000000
11000000
00000000
01010000
00000000
,
00001000
00000000
00000000
00010000
00100000
00000000
00000000
00000000
10000000
00000000
00000000
01000000
10000000
00000000
00000000
00000000
,
00100000
00000000
00010000
00000000
00001000
00000000
00000100
00000000
00000010
00001000
00000000
00000000
00000100
00001000
00000000
00000000
,
00000100
00000000
00000010
00000000
00000100
00000000
00001000
00000001
00000100
00000000
00000001
00000000
00000100
00000000
00001000
00010000
,
00001000
00010000
00001000
00010000
00001000
00010000
00001000
00010000
00000010
00000000
00010000
00000000
00001000
00000000
00100000
00000000
,
00002000
00000000
00000000
00000000
00010000
00000000
00000000
00003000
,
00011000
00000000
00000000
00110000
00000000
00000000
01100000
00000000
10010000
00000000
00010000
00100000
00010000
00100000
00010000
00000000
,
00001000
00000000
00000000
00000100
00000000
00000000
00000010
00000000
00000001
00001000
00000010
00001000
00000002
00000000
00000003
00000000
,
00000100
00000000
00001000
00000000
00010000
00000000
01000000
00000000
10000000
01000000
00100000
00010000
00200000
00000000
00300000
00000000
,
00001000
00010000
00001000
00000000
00010000
00010000
00000000
00000000
00000000
00000100
00001000
00000100
00001000
00000100
00001000
00000100
,
00010000
00000000
00000010
00000000
00010000
00000000
00000100
00010000
00001000
00000000
00010000
00000000
00011000
00000000
00000000
00000000
,
00001000
00000000
00000100
00000001
00000000
00000000
00000110
00000000
00000000
00001000
00000000
00000000
00001001
00000000
00000001
00000000
,
00000011
00000000
00000000
00001000
00000000
00000000
00011000
00000000
00000000
01000000
00000000
00000000
00100000
00000000
01000000
00000000
,
11000000
00000000
00000000
00000000
,
00000000
00000000
00000000
00000000
00000000
00000000
00000000
00010000
,
00001000
00000000
00000000
00000000
,
00000000
00000000
00000000
00001001
,
00000001
00000000
00000000
00000010
00000000
00000000
00001000
00000000
00010000
00000000
00000000
00100000
00000000
00000000
01000000
00000000
,
00010000
10000000
01000000
00100000
10000000
01000000
00010000
00001000
,
00000100
00000000
00000001
00000000
00000100
00000000
00000010
00000100
00001000
00000000
00000100
00000000
00000001
00000000
00000100
00000001
,
00000100
00001000
00010000
01000000
20000000
30000000
01000000
00010000
,
00001000
00010000
00001000
00010000
00002000
00000000
00000000
00000000
00010000
00000000
00000000
00000000
00010000
00000000
00003000
00000000
,
00001000
00010000
00100000
01000000
00100000
01000000
00010000
01000000
00200000
00000000
01000000
00000000
01300000
00000000
00100000
00010000
,
00002000
00000000
00000100
00000000
00003100
00000000
00000100
00000010
00002000
00000000
00000100
00000000
00003100
00000000
00000100
00001000
,
00000100
00000000
00011000
00000000
00100000
00000000
01100000
00000000
10000000
00000000
00010000
01000000
00100000
00000000
01000000
00000000
,
00001000
00000000
00000000
00010000
00000000
00000000
00000010
00000000
00000100
00000000
00000000
00000001
00000000
00000000
00000010
00000000
,
00000100
00000000
00001100
00000000
00010000
00000000
00011000
00000000
00100000
00000000
01100000
00000000
10000000
00010000
01000000
00100000
,
20000000
00000000
00000000
30100000
01200000
00000000
01000000
00300000
,
10000000
00000000
01000000
00000000
00100000
00000000
00010000
00000000
10000000
01000000
00100000
00010000
10000000
01000000
00100000
00000000
,
00001000
00000000
00010000
00000010
00000000
00000100
00000001
00000100
00000000
00000020
00000000
00001030
00000000
00000001
00001000
00000100
,
00000000
00000000
00000000
00000000
;
