#TITLE:Do The Evolution;
#ARTIST:TAG feat. ERi;
#BANNER:Do The Evolution.png;
#BACKGROUND:Do The Evolution-bg.png;
#CDTITLE:./CDTitles/DanceEvolution.png;
#MUSIC:Do The Evolution.ogg;
#SAMPLESTART:56.756;
#SAMPLELENGTH:15;
#BPMS:0=148;
#NOTES:
     dance-single:
     :
     Beginner:
     1:
     :
0000
0000
0000
0000
,
0000
0000
0000
0000
,
0000
0000
0000
0000
,
0000
0000
0000
0000
,
0000
0000
0000
0000
,
1000
0000
0000
0000
,
0001
0000
0000
0000
,
1000
0000
0000
0000
,
0001
0000
0000
0000
,
1000
0000
1000
0000
,
1000
0000
0000
0000
,
0001
0000
0001
0000
,
0001
0000
0000
0000
,
1000
0000
1000
0000
,
1000
0000
0000
0000
,
0100
0000
0100
0000
,
0100
0000
0000
0000
,
0010
0000
0010
0000
,
0010
0000
0000
0000
,
0100
0000
0100
0000
,
0100
0000
0000
0000
,
0001
0000
0001
0000
,
0001
0000
0000
0000
,
0010
0000
0010
0000
,
0010
0000
0000
0000
,
1001
0000
0000
0000
,
0000
0000
0000
0000
,
1000
0000
0000
0000
,
0100
0000
0000
0000
,
0010
0000
0000
0000
,
0001
0000
0000
0000
,
0100
0000
0100
0000
,
0100
0000
0000
0000
,
1001
0000
0000
0000
,
0000
0000
0000
0000
,
0001
0001
0001
0000
,
0010
0000
0010
0000
,
0001
0000
0001
0000
,
0001
0000
0000
0000
,
1000
1000
1000
0000
,
0010
0000
0010
0000
,
0100
0000
0100
0000
,
0100
0100
0100
0000
,
1000
0000
0000
0000
,
0001
0000
0000
0000
,
1000
0000
0000
0000
,
0001
0000
0000
0000
,
0100
0000
0000
0000
,
0000
0000
0000
0000
,
1000
0000
0000
0000
,
0001
0000
0000
0000
,
0010
0000
0010
0000
,
0010
0000
0000
0000
,
0100
0000
0100
0000
,
0100
0000
0000
0000
,
1000
1000
1000
0000
,
0001
0000
0001
0000
,
0010
0000
0010
0000
,
0010
0010
0010
0000
,
0001
0001
0001
0000
,
1000
0000
1000
0000
,
0010
0000
0010
0000
,
0100
0100
0100
0000
,
0001
0000
1000
0000
,
0001
0001
0001
0000
,
1001
0000
0000
0000
,
0000
0000
0000
0000
;
#NOTES:
     dance-single:
     :
     Easy:
     4:
     :
0000
0000
0000
0000
,
0000
0000
0000
0000
,
0000
0000
0000
0000
,
0000
0000
0000
0000
,
0000
0000
0000
0000
,
1000
0000
1000
0000
,
0001
0000
0001
0000
,
1000
0000
1000
0000
,
0001
0000
0000
0000
,
1000
0001
0100
0000
,
1000
1000
0100
0000
,
0001
0000
0001
0000
,
1000
0000
1000
0000
,
0001
1000
1000
0000
,
1000
0001
1000
0000
,
0100
0000
0100
0000
,
0001
0000
1000
0000
,
0100
0010
0000
0010
,
1000
0001
0100
0000
,
0100
0010
0000
0010
,
0001
1000
0100
0000
,
0001
0000
1000
0000
,
0010
1001
1000
0000
,
0001
0100
1000
0000
,
0001
1000
0010
0000
,
0200
0000
0000
0000
,
0300
0000
0010
0000
,
0100
0000
1000
0000
,
0010
0000
0001
0000
,
0002
0000
0000
0003
,
2000
3000
0002
0003
,
1000
0000
0001
0000
,
0100
0100
0100
0000
,
1001
0000
0000
0000
,
0100
0010
0000
0000
,
0001
1000
1001
0000
,
0100
0001
1000
0000
,
0001
0001
0100
0010
,
1000
1000
0100
0000
,
0001
0010
0100
0000
,
0001
1000
0001
0000
,
0100
0000
0010
0000
,
0001
1000
1001
0000
,
1000
0000
1000
0000
,
0001
0000
0001
0000
,
1000
0000
1000
0000
,
0001
0000
0000
0000
,
0002
0000
0000
0000
,
0000
0000
0000
0003
,
2000
0000
0000
3000
,
0200
0000
0000
0300
,
0010
0000
0010
0000
,
0001
0000
0100
0000
,
0010
0000
1000
0000
,
0100
0100
0100
0000
,
1000
0001
1001
0000
,
0001
0100
1000
0000
,
0010
0010
0100
0110
,
0001
1000
1001
0000
,
1000
0010
0100
0000
,
0001
1000
0001
0000
,
0100
0000
0010
0000
,
1000
0001
1001
0000
,
0010
0000
0100
0000
,
0001
0100
1000
0000
,
1001
0000
0000
0000
,
0000
0000
0000
0000
;
#NOTES:
     dance-single:
     :
     Medium:
     7:
     :
0000
0000
0000
0000
,
0000
0000
0000
0000
,
0000
0000
0000
0000
,
0000
0000
0000
0000
,
0000
0000
0000
0000
,
0020
1000
0000
1030
,
0020
0001
0000
0031
,
0200
0010
0000
0310
,
1000
0001
1001
0000
,
0100
0000
0001
1000
0000
0000
0010
0000
,
1000
0000
0001
0100
0000
0000
0010
0000
,
1000
0000
0100
0010
0000
0000
0100
0000
,
1000
0001
0100
0010
,
1000
0000
0100
0001
0000
0100
1000
0000
,
0001
0100
1010
0100
,
0010
0010
1000
0100
,
0001
0000
0001
0100
1000
0000
0000
0000
,
0001
0000
0001
1000
0000
1000
0001
0000
,
1001
1000
0001
1000
,
0100
0000
0010
0001
0000
1000
0010
0000
,
0100
0000
0001
0000
1000
0001
1000
0000
,
0100
0100
0010
0000
,
0010
0000
0010
0010
0010
0000
0000
0000
,
1000
0100
0010
0001
,
1000
0010
0100
0000
,
0001
0100
0001
0100
0001
0100
0000
0010
,
0000
0100
0000
0000
0000
0000
0000
0000
,
0010
0000
0001
0100
0001
0000
1000
0000
,
1000
0000
0100
0001
0100
0000
0010
0000
,
0002
0000
1003
0000
,
0100
0100
0010
0000
,
0100
0000
0000
1000
0100
0000
0000
0001
,
1000
0010
1000
0100
,
0220
0000
0000
0000
0000
0330
0000
1001
,
0000
0100
0010
0000
0000
0000
0000
0000
,
1100
0012
0100
0013
,
1000
0000
0001
0100
0010
0000
0000
0010
,
1000
0100
0010
0100
,
1000
0010
0001
0000
,
1000
0000
0011
0000
0100
0001
1000
0000
,
0001
0000
1000
0100
0010
0000
0100
0000
,
1001
0000
0110
0000
,
1001
0100
0010
0000
,
0002
0010
0010
0103
,
2000
0010
0010
3100
,
0002
0000
0010
0000
1003
0000
0010
0100
,
0000
0001
1000
0000
0000
0000
0000
0000
,
2000
0000
0000
0000
,
3200
0000
0000
0000
,
0302
0000
0000
0000
,
0023
0000
0000
0000
,
1030
0000
0100
0000
,
0001
0000
0010
0000
,
0100
0000
0001
0000
,
1000
0001
1001
0000
,
1100
0010
0201
1300
,
0001
0000
0100
0000
0010
0000
0000
1000
,
0001
0100
1000
0001
,
0120
0000
0030
1000
0002
0000
0003
0000
,
0010
0000
1100
0000
0001
0010
0100
0000
,
1000
0000
0001
0000
0100
0000
0010
1000
,
0100
0000
0010
0001
0100
0000
0000
0000
,
1000
0001
0100
0010
1000
0000
0000
0000
,
1001
0000
0000
0010
0100
0000
0000
1000
,
0001
0000
0000
0100
0000
0000
0010
0000
0200
0000
0000
0000
0300
0000
0000
0000
,
1001
0000
0000
0000
,
0000
0000
0000
0000
;
#NOTES:
     dance-single:
     :
     Hard:
     10:
     :
0000
0000
0000
0000
,
0000
0000
0000
0000
,
0000
0000
0000
0000
,
0000
0000
0000
0000
,
0000
0000
0000
0000
,
0020
0000
1000
0000
0130
0001
0100
0001
,
0020
0000
0001
0000
0130
1000
0100
1000
,
0020
0000
1000
0000
0130
0001
0100
0001
,
0000
0000
1000
0000
0000
0001
0000
0000
0010
0000
0010
0000
0100
0000
0000
0000
,
1000
0000
0100
0000
0001
0100
0100
0000
,
1000
0100
0010
0001
0000
1000
0001
0000
,
0100
0000
1000
0000
0100
0001
0001
0000
,
1000
0100
0010
0000
0001
0010
0100
1000
,
0001
1000
0001
0100
,
0010
1000
0001
0000
0100
0000
0010
0000
,
1000
0100
0001
0000
0010
0001
0100
0000
,
1000
0100
0001
0100
1000
0000
0000
0100
,
0010
1000
0010
0100
,
2001
3002
2003
3002
,
0103
0010
1000
0000
0001
1000
0010
0000
,
0100
0001
1000
0000
1000
0100
1000
0100
,
0010
0010
0001
0100
,
0010
1000
0100
1000
0010
0000
0000
0000
,
0001
0010
1000
0100
,
0001
0010
0100
1000
0002
0000
0003
0000
,
0100
0100
0100
0010
0100
0001
0000
1000
,
0000
0110
0000
0000
0000
0000
1001
0000
,
0001
0000
0010
1000
0001
0000
1000
0001
,
0100
0000
0001
0100
0010
0000
1000
0100
,
0010
0000
0010
0001
0000
1000
0001
0100
,
0001
0000
0010
1000
0000
0100
1000
0001
,
1001
0000
0110
0000
,
1010
0101
1010
0101
,
1000
0100
0010
0001
0100
0010
0010
0100
,
0000
0010
1001
0000
0000
0000
0000
0000
,
0100
0000
0001
0000
1000
0000
0100
0000
0010
0000
0000
0011
0000
0000
0001
0000
,
1000
0000
0000
0010
0000
0000
0100
0000
0020
0000
0000
0000
0130
0000
0001
0000
,
1000
1100
0010
0101
,
0100
0001
1000
0010
0100
0000
0010
0000
,
1200
0000
0301
0000
1000
0100
0001
0000
,
0010
0001
0100
1000
0100
0000
0010
0000
,
0101
0000
0000
1000
0010
0000
0000
0001
,
0010
0000
0000
0010
0000
0000
0100
0000
0220
0000
0000
0000
0330
0000
0000
0000
,
0100
0011
0100
1010
,
0100
0011
0100
1010
,
1000
0100
0010
0001
0100
0010
1000
0001
,
0000
0100
0100
0000
0000
0000
0000
0000
,
1200
0000
0002
0300
,
0020
0000
0000
0033
,
0201
0000
2000
0300
,
0020
0000
0000
3030
,
0002
1000
0000
1000
,
0203
0010
0000
0010
,
2300
0001
0000
0001
,
3010
0100
2002
3003
,
0100
0000
1000
0000
0001
0000
0100
0000
0010
0000
0000
1010
0000
0000
1000
0000
,
0100
0000
0000
0001
0000
0000
1000
0000
0020
0000
0000
0000
0031
0000
0100
0000
,
0010
0000
1010
0000
0101
0000
0100
0001
,
0010
0100
1000
0010
0100
0100
0010
0000
,
2010
0000
3100
0000
0001
0010
1000
0000
,
0010
0001
0100
0010
0100
0000
0001
0100
,
1000
0000
1000
0100
0001
0000
0100
0000
,
0010
1000
0001
0010
0001
1000
0010
0000
,
0110
0000
0000
1000
1001
0000
0000
0010
,
0100
0000
0000
1000
0000
0000
0001
0000
0100
0000
0010
0000
0110
0000
0000
0000
,
1001
0000
0000
0000
,
0000
0000
0000
0000
;
#NOTES:
     dance-double:
     :
     Easy:
     5:
     :
00000000
00000000
00000000
00000000
,
00000000
00000000
00000000
00000000
,
00000000
00000000
00000000
00000000
,
00000000
00000000
00000000
00000000
,
00000000
00000000
00000000
00000000
,
00010000
00000000
00010000
00000000
,
00001000
00000000
00001000
00000000
,
00010000
00000000
00010000
00000000
,
00001000
00000000
00000000
00000000
,
00000100
00000000
00000100
00000000
,
00000001
00000001
00000001
00000000
,
00000100
00000000
00000100
00000000
,
00000010
00000001
00000100
00001000
,
00010000
00000000
00001000
00000000
,
00100000
00010000
01000000
00000000
,
00100000
00000000
00100000
00000000
,
10000000
10000000
10000000
00000000
,
00010000
00000000
10000000
00000000
,
00010000
00010000
10000000
10000000
,
01000000
00000000
01000000
00000000
,
00010000
00000000
00001000
00010000
,
00001000
00000000
00000100
00000000
,
00000010
00000010
00000010
00000000
,
00001000
00000000
00001000
00000000
,
00000001
00000100
00001000
00000000
,
00011000
00011000
00011000
00000000
,
00000000
00000000
00000000
10000000
,
00100000
00000000
01000000
00000000
,
00010000
00100000
00001000
00000000
,
00000010
00000000
00000001
00000000
,
00001000
00000100
00000010
00000000
,
00000001
00000000
00001000
00000000
,
00000010
00001000
00010000
00100000
,
00010000
00010000
00010000
00020000
,
00000000
00030000
10010000
00000000
00000000
00000000
00000000
00000000
,
10000000
00010000
01100000
00000000
,
00010000
00001000
00010000
00000000
,
00000010
00000000
00000100
00000000
,
00000001
00000001
00000001
00000000
,
00000010
00000000
00000100
00000000
,
00010000
00001000
00010000
00000000
,
01000000
00000000
10000000
00000000
,
00010000
10000000
10010000
00000000
,
00100000
00000000
10000000
00000000
,
01000000
00010000
00001000
00010000
,
00000010
00000000
00000100
00000000
,
00000010
00000100
00000000
00000000
,
00002002
00000000
00000000
00000000
,
00003003
00000000
00000000
00000000
,
00002000
00000000
00000000
00003000
,
00020000
00000000
00000000
00030000
,
01000000
00000000
01000000
00000000
,
00100000
00000000
00100000
00000000
,
10000000
00000000
00010000
00000000
,
00001000
00010000
00011000
00000000
,
00001000
00000010
00000001
00000001
,
00000100
00001000
00010000
00000000
,
00010000
01000000
10000000
10000000
,
00100000
00010000
00001000
00000000
,
00000010
00000100
00000010
00000000
,
00000001
00001000
00000001
00000100
,
00001000
00000000
00010000
00000000
,
00001000
00010000
00011000
00000000
,
00100000
00000000
01000000
00000000
,
10000000
00100000
00010000
00001000
,
00011000
00000000
00000000
00000000
,
00000000
00000000
00000000
00000000
;
#NOTES:
     dance-double:
     :
     Medium:
     9:
     :
00000000
00000000
00000000
00000000
,
00000000
00000000
00000000
00000000
,
00000000
00000000
00000000
00000000
,
00000000
00000000
00000000
00000000
,
00000000
00000000
00000000
00000000
,
10000000
10100000
00010000
00001000
,
00000010
00000011
00000100
00001000
,
00010000
01010000
10000000
00100000
,
00010000
00001000
00011000
00000000
,
00000100
00000000
00000001
00001000
00000000
00000100
00000010
00000000
,
00001000
00000000
00010000
01000000
00000000
10000000
00100000
00000000
,
01000000
00000000
00010000
10000000
00000000
01000000
00100000
00000000
,
00010000
00001000
00000100
00000001
,
00000001
00000000
00000100
00001000
00010000
00000000
00100000
00000000
,
10000000
00000000
00010000
01000000
00100000
00000000
10000000
00000000
,
00010000
00100000
00001000
00000010
,
00000001
00000000
00000001
00000100
00000010
00000000
00000000
00000000
,
00000100
00000000
00001000
00010000
00000000
00010000
00001000
00000000
,
00010000
00001000
00010000
00001000
,
01000000
00000000
00100000
10000000
00000000
00010000
00100000
00000000
,
00001000
00010000
00000100
00000001
,
00001000
00000010
00000001
00000100
,
00001000
00000000
01000000
00010000
00200000
00000000
01300000
00000000
,
10000000
01000000
00010000
00001000
,
00000010
00000001
00001001
00000000
,
00000100
00000010
00010000
00001000
00100000
01000000
00000000
00010000
,
00000000
00001000
00000000
00000000
00000000
00000000
00011000
00000000
,
00020000
01000000
00001000
00100000
,
00032000
00000100
00010000
00000010
,
00013000
00000000
00100000
10000000
00000000
01000000
00010000
00000000
,
00001000
00000000
00000010
00000001
00000000
00000100
00001000
00000000
,
00010000
00000000
00000000
00100000
00010000
00000000
00000000
10000000
,
00100000
00010000
00100000
10000000
,
20020000
00000000
00000000
00000000
00000000
30030000
00000000
01100000
,
00000000
00010000
00001000
00000000
00000000
00000000
00000000
00000000
,
00000010
00000001
00001000
00000100
00020000
00000000
01000000
00000000
,
00031000
00000000
00000100
00001000
00010000
00000000
00100000
01000000
,
00100000
10000000
00010000
10000000
,
01000000
00010000
00100000
00000000
,
10000000
00110000
00101000
00010000
,
00001000
00000100
00000010
00000100
00000001
00000000
00001000
00000000
,
00000101
00000000
00011000
00000000
,
10100000
01000000
00100000
00000000
,
00020000
01000000
10000000
00100000
,
00032000
00000100
00000001
00000010
,
00023000
00000000
01000000
00000000
10000000
00000000
00130000
01000000
,
00000000
00010000
00001000
00000000
00000000
00000000
00000000
00000000
,
00000200
00000000
00000001
00000000
,
00000320
00000000
00001000
00000000
,
00020030
00000000
00001000
00000000
,
00230000
00000000
10000000
00000000
,
00310000
00001000
00001000
00000000
,
00000010
00001000
00010000
00000000
,
00100000
00100000
01000000
00000000
,
00010000
10000000
10010000
00000000
,
00100000
10000000
00010000
01000000
00002000
00000000
00000100
00000000
,
00013000
00000000
01000000
00010000
00001000
00000000
00000010
00000100
,
00000010
00000001
00001000
00000110
,
00001000
00010000
00100000
01000000
20000000
00000000
30000000
00000000
,
00010000
00000000
11000000
00000000
00100000
00001000
00010000
00000000
,
01000000
10000000
01000000
00010000
00001000
00000000
00010000
00000000
,
00011000
00000000
00000110
00000000
,
00000001
00000000
00000000
00000010
00000000
00000000
00001000
00000000
00020000
00000000
00000000
00000000
00030000
00000000
00000000
00000000
,
00011000
00000000
00000000
01000000
00100000
00000000
00000000
01000000
,
10000000
00000000
00000000
00100000
00000000
00000000
00010000
00000000
00002000
00000000
00000000
00000000
00013000
00000000
00000000
00000000
,
00011000
00000000
00000000
00000000
,
00000000
00000000
00000000
00000000
;
#NOTES:
     dance-double:
     :
     Hard:
     13:
     :
00000000
00000000
00000000
00000000
,
00000000
00000000
00000000
00000000
,
00000000
00000000
00000000
00000000
,
00000000
00000000
00000000
00000000
,
00000000
00000000
00000000
00000000
,
00001000
00000000
00000000
01000000
00000000
00000000
00001000
00000000
00010000
00000000
00000000
00000010
00000000
00000000
00010000
00000000
,
00001000
00000000
00000000
00000100
00000000
00000000
00001000
00000000
00010000
00000000
00000000
00100000
00000000
00000000
00010000
00000000
,
00001000
00000000
00000000
00010000
00000000
00000000
01000000
00000000
00100000
00000000
00000000
00001000
00000000
00000000
00010000
00001000
,
00000000
00000000
00011000
00000000
00000000
00001100
00000000
00000001
00000100
00000000
00000010
00000000
00001000
00000000
00010000
00000000
,
00200000
10000000
00320000
01000000
,
00230000
00000000
10000000
00000000
01300000
00010000
00001000
00000000
,
00000200
00000001
00002300
00010000
,
00003020
00000000
00000001
00000000
00001030
00010000
01000000
10000000
,
00010000
00000000
00000000
10000000
01000000
00000000
00100000
00000000
01000000
00000000
00000000
00000000
00010000
00000000
00000000
00000000
,
00001000
00000000
00000000
00010000
00000100
00000000
00001000
00000000
00000020
00000000
00000000
00000000
00000031
00000000
00000000
00000000
,
00001000
00000100
00000001
00000100
,
00000010
00001000
00000001
00000010
00001000
00000000
00011000
00000000
,
00020000
01000000
00032000
00000100
,
00013000
00001000
00010000
00001000
00010000
00001000
00010000
00000000
,
00100000
10000000
01000000
10000000
,
00100000
00000000
10010000
00000000
00100000
01000000
00010000
00001000
,
00010000
00000000
00000000
00010000
00000100
00000000
00000010
00000000
00000001
00000000
00000000
00000000
00000200
00000000
00000000
00000000
,
00001000
00000001
00001000
00000301
,
00000100
00001000
00010000
00100000
,
10000000
00010000
20020000
30030000
,
01000000
01000000
00010000
00010000
00001000
00001000
00000000
00000100
,
00000000
00000000
00001000
00000000
00000000
00000000
00000000
00000000
00000000
00000000
00010000
00001000
00010000
00000000
00000000
00000000
,
01000000
00000000
00110000
00000000
00010000
00001000
00000010
00000000
,
00000100
00000000
00000000
00000000
00000011
00000000
00000000
00000001
00000100
00000000
00000010
00000000
00001000
00000100
00001000
00000100
,
00001000
00000000
00010100
00000000
00010000
01000000
00100000
00000000
,
00010000
00000000
11000000
00000000
00100000
10000000
00010000
00000000
,
00102000
00013000
00020010
00031000
,
00000100
00000001
00001000
00000001
,
00001000
00000000
00000100
00000000
00000010
00000000
00000001
00000000
00000100
00000010
00000100
00000010
00000100
00000010
00000100
00000000
,
00000000
00000000
00001000
00000000
00011000
00000000
00000000
00000000
00000000
00000000
00010000
01000000
00100000
00000000
00000000
00000000
,
11000000
00000000
00010000
00000000
01000000
00000000
00100000
00000000
00010000
00000000
00000000
00011000
00000000
00000000
00000100
00000000
,
00000010
00000000
00000000
00001001
00000000
00000000
00000001
00000000
00000001
00000000
00000010
00000000
00000100
00000000
00001000
00000100
,
00001000
00000010
00000100
00000001
00000010
00001000
00010000
00001000
,
01000000
00000000
00000000
01000000
00000000
00000000
00100000
00000000
10000000
00000000
00010000
00000000
01000000
00010000
01000000
00000000
,
00100000
00000000
10000000
00000000
01000000
00000000
00000000
00000000
00100000
00000000
00010000
00000000
10000000
00000000
01000000
00100000
,
01000000
00010000
00001000
00010000
00000100
00000000
00000001
00000100
,
00002000
00000000
00003010
00000001
00000010
00000000
00000100
00000000
,
00000010
00000000
00000000
00001000
00000000
00000000
00010000
00000000
00022000
00000000
00000000
00000000
00033000
00000000
00000000
00000000
,
00010000
00000000
00000000
00100000
00000000
00000000
00100000
00000000
00010000
00000000
00000000
00000100
00000000
00000000
00000100
00000000
,
00001000
00000000
00000000
00000010
00000000
00000000
00000010
00000000
00001000
00000000
00000000
01000000
00000000
00000000
01000000
00000000
,
00010000
00000000
00000000
00001000
00000000
00000000
00000100
00000000
00001000
00000000
00010000
00000000
00100000
00000000
01100000
00000000
,
00000000
01000000
10010000
00000000
00000000
00000000
00000000
00000000
,
01020000
00000000
10000000
00000000
,
00002000
00000000
00000000
00030000
,
00000100
00000000
00000001
00000000
,
00020000
00000000
00000000
00033000
,
01000000
01000000
00100000
00010000
,
00000100
00000100
00000010
00001000
,
00010000
00000000
00001000
00010000
00100000
00000000
00010000
00001000
,
00000010
00000000
00000000
00000001
00000000
00000000
00000100
00000000
00001000
00000000
00010000
00001000
00010000
00000000
00000000
00000000
,
00011000
00000000
01000000
00000000
00100000
00000000
10000000
00000000
00010000
00000000
00000000
00011000
00000000
00000000
00000100
00000000
,
00000010
00000000
00000000
00000011
00000000
00000000
00000100
00000000
00001000
00000000
00000001
00000000
00000100
00000000
00000010
00001000
,
00000001
00000010
00001000
00010000
01000000
10000000
10000000
01000000
,
00010000
00000000
00001000
00000000
00000010
00000000
00000001
00001000
00000001
00000000
00000100
00000000
00000010
00001000
00000010
00001000
,
00000001
00000000
00000000
00000000
00001001
00000000
00000000
00000000
00000100
00000000
00000010
00000000
00010000
00000000
00001000
00010000
,
00001000
00100000
00010000
01000000
00100000
00000000
10000000
01000000
,
00020000
00000000
00031000
00010000
00200000
00000000
10300000
01000000
,
00010000
00000000
00000000
00011000
00000000
00000000
00001100
00000000
00000010
00000000
00000001
00000000
00001000
00000100
00001000
00000000
,
00000010
00000000
00000000
00001000
00010000
00000000
00000000
10000000
,
00010000
00000000
00000000
00010000
00000000
00000000
00001000
00000000
00000100
00000000
00000010
00000100
00000010
00000000
00000000
00000000
,
00001001
00000000
00000000
00000000
,
00000000
00000000
00000000
00000000
;
