#TITLE:デッドボヲルdeホームラン;
#ARTIST:猫叉Masterβ2;
#TITLETRANSLIT:Deadball de homerun;
#ARTISTTRANSLIT:Nekomata Master β2;
#BANNER:Deadball de homerun.png;
#BACKGROUND:Deadball de homerun-bg.png;
#CDTITLE:./CDTITLES/DDR (2014).png;
#MUSIC:Deadball de homerun.ogg;
#SAMPLESTART:18.207;
#SAMPLELENGTH:15;
#BPMS:0=145;
#NOTES:
     dance-single:
     :
     Beginner:
     3:
     :
0000
0000
0000
0000
,
0000
0000
0000
0000
,
0000
0000
0000
0000
,
0010
0000
1000
0000
,
0010
0000
1000
0000
,
0010
0000
0001
0000
,
0010
0000
0001
0000
,
0100
0000
1000
0000
,
0100
0000
1000
0000
,
0100
0000
0001
0000
,
0100
0000
0000
0000
,
0010
0000
0001
0000
,
0001
0001
0001
0000
,
0010
0000
1000
0000
,
0010
0010
0010
0000
,
0100
0000
1000
0000
,
1000
1000
1000
0000
,
0100
0000
0001
0000
,
0100
0100
0100
0000
,
0001
0000
1000
0000
,
0001
0001
0001
0000
,
0100
0000
0010
0000
,
0100
0100
0100
0000
,
0001
0000
0010
0000
,
1000
1000
1000
0000
,
1000
0000
0100
0000
,
0001
0001
0001
0000
,
0010
0000
0000
0000
,
1000
0000
1000
0000
,
0010
0000
0000
0000
,
0001
0001
0001
0000
,
0100
0000
0100
0000
,
1000
0000
1000
0000
,
0100
0000
0100
0000
,
0001
0001
0001
0000
,
1001
0000
0000
0000
,
0100
0100
0000
0000
,
1001
0000
0000
0000
,
0100
0100
0000
0000
,
1001
0000
0000
0000
,
0010
0010
0000
0000
,
1001
0000
0000
0000
,
0010
0010
0000
0000
,
1000
0000
0000
0000
,
1000
0000
0000
0000
,
0001
0000
0000
0000
,
0001
0000
0000
0000
,
0100
0000
0000
0000
,
0100
0000
0000
0000
,
0010
0000
0010
0000
,
0010
0010
0010
0000
,
1000
0000
0100
0000
,
0001
0000
0100
0000
,
1000
0000
0001
0000
,
1000
1000
1000
0000
,
0001
0000
0010
0000
,
1000
0000
0010
0000
,
0001
0001
0001
0000
,
0001
0001
0001
0000
,
0100
0000
0000
0100
,
0000
0000
0010
0000
,
0000
0010
0000
0000
,
1000
1000
1000
1000
,
0001
0001
0001
0001
,
0000
0000
0100
0000
,
0000
0000
0000
0000
;
#NOTES:
     dance-single:
     :
     Easy:
     6:
     :
0000
0000
0000
0000
,
0000
0000
0000
0000
,
0000
0000
0000
0000
,
1000
0001
1000
0001
,
1000
1000
0001
0001
,
0100
0010
0100
0010
,
0100
0100
0010
0010
,
1000
0100
1000
0100
,
1000
1000
0010
0010
,
0001
0100
0001
0100
,
0010
0010
0100
0000
,
0001
0100
0001
0010
,
0001
0100
0010
0100
,
1000
0100
1000
0010
,
1000
0001
0001
0000
,
0100
1000
0100
0001
,
1000
0001
1000
0001
,
0010
0001
0010
1000
,
0001
0010
0010
0000
,
1001
0000
0100
0100
,
0100
0010
0010
0010
,
1001
0000
0100
0100
,
0010
0010
0010
0010
,
1001
0000
0010
0010
,
0010
0100
0100
0100
,
1001
0000
0010
0010
,
0100
0100
0100
0100
,
0001
0000
0001
0000
,
0001
0010
1000
0001
,
0010
0000
0010
0000
,
0010
1000
0001
0010
,
1000
0000
1000
0000
,
1000
0100
0001
1000
,
0100
0000
0100
0000
,
0100
0001
1000
0100
,
0110
0000
0000
0000
,
1001
0110
0000
0000
,
0110
0000
0000
0000
,
1001
0110
0000
0000
,
1001
0000
0000
0000
,
0110
1001
0000
0000
,
1001
0000
0000
0000
,
0110
1001
0000
0000
,
0210
0000
0000
0000
,
0000
0000
0000
0300
,
1002
0000
0000
0000
,
0000
0000
0000
0003
,
1001
0010
0000
0010
,
0100
0001
0000
1000
,
1001
0000
0110
0000
,
1001
0000
0110
0000
0100
0100
0100
0000
,
0001
0010
0001
0010
,
1000
0010
1000
0100
,
1000
0100
0001
0100
,
0001
0001
0001
1000
,
0010
0001
0010
0001
,
0100
0001
0100
1000
,
0100
1000
0010
1000
,
0010
0010
0110
0000
,
2002
0000
0000
3003
0000
0000
2002
0000
,
0000
3003
0000
0000
0220
0000
0000
0330
,
0000
0000
0220
0000
0000
0330
0000
0000
,
1000
1001
0100
0110
,
0001
1001
0010
0110
,
0000
0000
0200
0000
,
0000
0000
0000
0300
,
0000
0000
0000
0000
;
#NOTES:
     dance-single:
     :
     Medium:
     9:
     :
0000
0000
0000
0000
,
0000
0000
0000
0000
,
0000
0000
0000
0000
,
0012
1000
0010
1003
,
2100
0001
0100
3001
,
1020
0100
1000
0130
,
0201
0010
0001
0310
,
2000
0000
3100
0000
0001
0100
0010
0000
,
0002
0000
0103
0000
1000
0100
0010
0000
,
2000
0000
3001
0000
0010
0001
0100
0000
,
1001
0000
0000
0000
1000
0010
0010
0000
,
0010
0100
0001
0000
0010
0100
1000
0000
,
0210
0001
1000
0301
,
0010
0100
1000
0000
0010
0100
0001
0000
,
1000
0100
0001
0000
0001
0100
1000
0000
,
1000
0010
0100
0000
0001
0010
0100
0000
,
1020
0001
1000
0031
,
1000
0100
0010
0000
0001
0100
0010
0000
,
0010
1000
0100
0000
0010
0001
0100
0000
,
2002
0000
0000
3003
0000
0100
0001
0100
,
0001
0101
1001
0101
,
2002
0000
0000
3003
0000
1000
0100
0010
,
0002
0203
0320
1030
,
1001
0000
0100
0000
0000
0001
0010
0001
,
0010
0100
1000
0010
,
2002
0000
0000
3003
0000
0000
0000
0100
,
0010
1000
0001
0100
0010
1000
0001
0000
,
1000
1000
0000
1000
0000
1000
0000
1000
,
0000
0001
0000
0001
0000
0001
1000
0001
,
0100
0100
0000
0100
0000
0100
0000
0100
,
0000
0010
0000
0010
0000
0010
0010
0010
,
1000
0001
0000
1000
0000
0001
0000
1000
,
0001
0010
0000
0100
0000
0010
0100
1000
,
0001
0001
0000
1000
0000
0001
0000
1000
,
0010
0100
0000
0010
0000
0100
0100
0010
,
0110
0000
0000
0000
0000
0000
0000
0100
,
1100
0101
0000
0000
,
1001
0000
0000
0000
0000
0000
0000
0010
,
1010
0011
0000
0000
,
0110
0000
1000
0000
0001
0000
1000
0100
,
1100
0011
0001
0100
,
0110
0000
1000
0000
0001
0000
1000
0001
,
0101
0000
0000
0000
1010
0000
0000
0000
0001
0000
0001
0000
0000
0001
0000
0000
,
0200
0010
0000
0010
,
0302
0010
0000
0010
,
2003
0010
0000
0010
,
3200
0301
0020
1030
,
1100
0000
0001
0010
0100
0000
0001
0010
,
0100
1000
0001
0100
,
0010
1000
0100
0000
0010
0001
0100
0000
,
0010
1000
0100
0010
0001
1000
0001
0000
,
0100
1100
0101
1100
,
0201
0000
1000
0000
0301
1000
0001
0000
,
0100
1000
0010
0001
,
0100
0010
0100
0010
1000
0001
1000
0000
,
2000
3200
0320
0032
,
2003
3020
0230
0302
,
1003
0010
1000
0010
1000
0010
1000
0010
,
1000
0001
1001
0000
,
0101
0000
0000
0101
0000
0000
1001
0000
,
0000
1001
0000
0000
0011
0000
0000
0011
,
0000
0000
1001
0000
0000
1001
0000
0000
,
1100
1100
1001
1001
,
1010
1010
0110
1001
,
0000
0000
0200
0000
,
0000
0000
0000
0300
,
0000
0000
0000
0000
;
#NOTES:
     dance-single:
     :
     Hard:
     13:
     :
0000
0000
0000
0000
,
0000
0000
0000
0000
,
0000
0000
0000
0000
,
0100
0001
0010
0000
0100
0001
0010
0001
,
0100
0010
1000
0000
0100
1000
0010
1000
,
0100
0010
0001
0000
0100
0001
0010
0001
,
1000
0100
1000
0000
1000
0100
0010
0100
,
1000
0000
0011
0000
1000
0100
0010
0001
,
0100
0000
1010
0000
0001
0100
0010
1000
,
0100
0000
1001
0000
0001
0100
1000
0100
,
0001
0000
0110
0000
0000
0100
1001
0000
,
0010
1000
0001
0000
0010
0001
0100
0000
,
0100
0000
0000
0001
0000
0000
1000
0000
0001
1000
0000
0000
0001
0000
0000
0100
0000
0001
0100
0000
0000
0000
0000
0000
,
0100
0000
0000
0001
0000
0000
1000
0000
0000
0000
0000
0000
0010
0000
0000
1000
0000
0000
0001
0000
1000
0001
0000
0000
,
0100
0000
0000
0010
0000
1000
0010
0000
1000
0010
0000
0000
0100
0000
0001
0100
0000
0001
0100
0000
0000
0000
0000
0000
,
0100
0001
1000
0000
0100
1000
0001
0000
,
0010
0000
0000
1000
0000
0000
0001
0000
1000
0001
0000
0000
1000
0000
0000
0010
0000
1000
0010
0000
0000
1000
0000
0000
,
0100
0000
0000
0010
0000
0000
0001
0000
0000
0000
0000
0000
0100
0000
0000
0010
0000
0000
1000
0000
0001
1000
0000
0000
,
0010
0000
0000
0100
0000
0010
0100
0000
0010
0100
0000
0000
0001
0000
1000
0001
0000
1000
0001
0000
0000
0100
0000
0000
,
0020
0000
0030
0000
0000
0100
0100
0010
,
0100
0000
0000
0001
0000
0100
0001
0000
0100
0001
0000
0000
1000
0000
0100
1000
0000
0100
1000
0000
0000
0010
0000
0000
,
0200
0000
0300
0000
0000
0010
0010
0010
,
1000
0000
0010
1000
0000
0000
0001
0000
0100
0001
0000
0000
0010
0000
0100
0010
0000
0000
0001
0000
1000
0001
0000
0000
,
0200
0000
0300
0000
0000
0010
0010
0100
,
0010
0000
0000
1000
0000
0000
0001
0000
0010
0001
0000
0010
0001
0000
0000
1000
0000
0010
1000
0000
0010
1000
0000
0000
,
0002
0000
0000
0000
0000
0003
0000
0100
,
1000
0010
1000
0100
0010
0010
0100
0000
,
1000
0010
0100
0001
1000
0100
0010
0001
,
1000
0000
0000
0010
0000
0000
0100
0000
0100
0010
0000
0000
1000
0000
0001
1000
0000
0001
1000
0000
0000
0100
0000
0000
,
0010
0000
0000
0001
0000
0000
1000
0000
0000
0010
0000
0000
0100
0000
0000
0001
0000
0000
0010
0000
0100
0010
0000
0000
,
0001
0000
0000
1000
0000
0010
1000
0000
0010
1000
0000
0000
1000
0000
0010
1000
0000
0010
1000
0000
0000
0100
0000
0000
,
0010
0001
0100
1000
0100
0010
1000
0100
,
1000
0000
0000
0001
0000
0000
0100
0000
0100
0010
0000
0000
1000
0000
0001
1000
0000
0001
1000
0000
0000
0100
0000
0000
,
0001
0000
0000
0100
0000
0000
0010
0000
0000
0100
0000
0000
0001
0000
0000
0100
0000
0000
1000
0000
0001
1000
0000
0000
,
0100
0000
0000
0010
0000
0100
0010
0000
0100
0010
0000
0000
0010
0000
0100
0010
0000
0100
0010
0000
0000
0001
0000
0000
,
0202
0000
0000
0000
0000
0000
0303
0000
0000
0000
0000
0000
0000
0000
0000
0000
0000
0000
0000
0000
1000
0010
0000
0000
,
1001
0000
0000
0000
0000
0000
2002
0000
0000
0000
0000
0000
3003
0000
0000
0000
0000
0000
0000
0000
0001
0010
0000
0000
,
2002
0000
0000
0000
0000
0000
3003
0000
0000
0000
0000
0000
0000
0000
0000
0000
0000
0000
0000
0000
0100
0001
0000
0000
,
1001
2002
3003
0000
,
0120
0000
0000
1000
0000
0000
0030
0000
0000
1000
0000
0000
0000
0000
0000
1000
0000
0000
0000
0000
0100
1000
0000
0000
,
1100
0000
0000
0010
0000
0000
0021
0000
0000
0001
0000
0000
0030
0000
0000
0001
0000
0000
0000
0000
0010
0001
0000
0000
,
0102
0000
0000
1000
0000
0000
0003
0000
0000
1000
0000
0000
0000
0000
0000
1000
0000
0000
0000
0000
0010
1000
0000
0000
,
1010
0000
0000
0100
0000
0000
0201
0000
0000
0001
0000
0000
0301
0000
0000
1000
0000
0000
0000
0000
0001
0000
0000
0000
,
0020
0100
0000
0100
,
0030
0001
0100
0010
1000
0000
0001
0000
,
0200
0010
0000
0010
,
0300
1000
0001
0100
0010
0000
0100
0000
,
0001
0100
1000
0000
0010
0000
0100
0000
,
0001
0010
1000
0000
0100
0000
0001
0000
,
1000
0100
1000
0001
0100
0010
0100
0001
,
0010
0100
0010
0001
2000
0001
3001
0000
,
0100
0010
0000
0010
0001
0010
0000
0010
,
0001
0000
0000
1000
0000
0000
0100
0000
0000
0001
0000
0000
0100
0000
0000
0010
0000
0100
0000
0000
0010
0100
0000
0000
,
1000
0001
0000
0001
0010
0100
1000
0001
,
0100
0001
0010
0001
0100
0010
1000
0000
,
0001
0100
0010
0100
0001
0100
1000
0100
,
0010
0001
0100
1000
0100
0001
0010
0100
,
0010
0000
0100
0010
0000
0000
0010
0000
0100
0010
0000
0000
0010
0000
0100
0010
0000
0000
0010
0000
0100
0010
0000
0000
,
0100
0000
0020
0000
0000
0000
0031
0000
0000
0100
0000
0000
1000
0000
0000
0000
0000
0000
0110
0000
0000
0000
0000
0000
,
1010
0000
0000
0000
0000
0001
0000
0000
0000
1010
0000
0000
0000
0000
0001
0000
0000
0000
1100
0000
0000
0000
0000
0001
,
0000
0000
0000
1100
0000
0000
0000
0000
0001
0000
0000
0000
0011
0000
0000
0000
0000
1000
0000
0000
0000
0011
0000
0000
,
0000
0000
1000
0000
0000
0000
0101
0000
0000
0000
0000
1000
0000
0000
0000
0101
0000
0000
0000
0000
1000
0000
0000
0000
,
0110
1100
0101
1100
,
0011
1010
0011
1001
,
0000
0000
0200
0000
,
0000
0000
0000
0300
,
0000
0000
0000
0000
;
#NOTES:
     dance-double:
     :
     Easy:
     5:
     :
00000000
00000000
00000000
00000000
,
00000000
00000000
00000000
00000000
,
00000000
00000000
00000000
00000000
,
00010000
00000000
00001000
00000000
,
00100000
00000000
00000010
00000000
,
00010000
00000000
00001000
00000000
,
01000000
00000000
00000100
00000000
,
00010000
00011000
00000000
00000000
,
00000010
00000110
00000000
00000000
,
00001000
00011000
00000000
00000000
,
01000000
01100000
00000000
00000000
,
10000000
00000000
10000000
00000000
,
01000000
00010000
00001000
00000100
,
00000001
00000000
00000001
00000000
,
00000100
00000010
00000010
00000010
,
00000001
00000000
00000001
00000000
,
00000010
00001000
00010000
01000000
,
10000000
00000000
10000000
00000000
,
01000000
00100000
00100000
00100000
,
02200000
03300000
00000000
00000000
,
10000000
01000000
01000000
01000000
,
00010000
00000000
00000000
00000000
,
00000100
00001000
00000010
00000100
,
00000001
00000000
00000000
00000000
,
00000001
00000010
00000010
00000010
,
00001000
00000000
00000000
00000000
,
00010000
00001000
00010000
00001000
,
00100000
00000000
00100000
00000000
,
10000000
01000000
00010000
00001000
,
00100000
00000000
00100000
00000000
,
00010000
00001000
00001000
00001000
,
00000010
00000000
00000010
00000000
,
00000001
00000100
00001000
00010000
,
00000010
00000000
00000010
00000000
,
00001000
00010000
00010000
00010000
,
00011000
00000000
00000000
00000000
,
01000000
01100000
00000000
00000000
,
10010000
00000000
00000000
00000000
,
00100000
01100000
00000000
00000000
,
00011000
00000000
00000000
00000000
,
00000100
00000110
00000000
00000000
,
00001001
00000000
00000000
00000000
,
00000010
00000110
00000000
00000000
,
00000002
00000000
00000000
00000003
,
00002000
00000000
00000000
00003000
,
00020000
00000000
00000000
00030000
,
20000000
00000000
00000000
30000000
,
10000000
01000000
00000000
01000000
,
00100000
01000000
00000000
01000000
,
00010000
00001000
00010000
00001000
,
00000100
00000010
00000100
00000000
,
00000001
00000010
00000010
00000010
,
00000001
00000100
00001000
00010000
,
00001000
00000000
00010000
00000000
,
00001000
00010000
01000000
00000000
,
10000000
00010000
10000000
00010000
,
00100000
00001000
00100000
00001000
,
00010000
00010000
00010000
00010000
,
00000010
00001000
00000010
00000000
,
00002002
00000000
00000000
00003003
00000000
00000000
00002002
00000000
,
00000000
00003003
00000000
00000000
00000220
00000000
00000000
00000330
,
00000000
00000000
00000220
00000000
00000000
00000330
00000000
00000000
,
00000100
00001000
00010000
01000000
,
10000000
00010000
10010000
10010000
,
00000000
00000000
00002000
00000000
,
00000000
00000000
00000000
00003000
,
00000000
00000000
00000000
00000000
;
#NOTES:
     dance-double:
     :
     Medium:
     8:
     :
00000000
00000000
00000000
00000000
,
00000000
00000000
00000000
00000000
,
00000000
00000000
00000000
00000000
,
00020000
00100000
00001000
00100000
,
00032000
00000100
00010000
00000100
,
00023000
01000000
00001000
01000000
,
00032000
00000010
00010000
00003010
,
00000100
00000000
00001001
00000000
00000000
00000100
00000000
00001000
,
00010000
00000000
00011000
00000000
00000000
01000000
00000000
10000000
,
00100000
00000000
10010000
00000000
00000000
00100000
00000000
00010000
,
00002000
00000000
00010000
00000000
00000000
00000100
00003100
00000000
,
00000001
00000100
00010000
00000100
,
00000001
00000000
00000100
00001000
00010000
00001000
00000100
00000000
,
00001000
00100000
00001000
01000000
,
00001000
00010000
00100000
00000000
00001000
00010000
01000000
00000000
,
10000000
01000000
00001000
01000000
,
10000000
00000000
01000000
00010000
00001000
00010000
01000000
00000000
,
00010000
00000100
00010000
00000010
,
00010000
00001000
00000010
00000100
00000010
00000100
00000010
00000000
,
00002002
00000000
00000000
00003003
00000000
00001000
00000001
00001000
,
00000001
00000100
00001000
00010000
,
02002000
00000000
00000000
03003000
00000000
00100000
00100000
00100000
,
10000000
01000000
00010000
00100000
,
22000000
00000000
00000000
33000000
00000000
10000000
00010000
10000000
,
00010000
00100000
00001000
00000100
,
00002020
00000000
00000000
00003030
00000000
00000000
00000000
00000000
,
00000001
00000100
00000001
00000100
00000001
00000000
00001000
00000000
,
00000200
00000010
00020300
00000010
,
00032000
00000010
00013000
00011000
,
00200000
01000000
00302000
01000000
,
00023000
00000000
00100000
00000000
00130000
01000000
00100000
00000000
,
20000000
01000000
30200000
01000000
,
00320000
01000000
00031000
00011000
,
00000200
00010000
00002300
00010000
,
00003020
00010000
00001000
00000130
,
00002002
00003003
00000000
00000000
,
00011000
00011000
00000000
00000000
,
20020000
30030000
00000000
00000000
,
00011000
00011000
00000000
00000000
,
00001001
00000010
00010000
00001000
,
00011000
00011000
00001000
00100000
,
10010000
01000000
00001000
00010000
,
00011000
00011000
00001000
00000100
,
00000002
00000000
00000100
00000000
,
00002003
00000000
00000100
00000000
,
00023000
00000000
00100000
00000000
,
20030000
00000000
00100000
00000000
,
30010000
00000000
01000000
00000000
00100000
00000000
10000000
01000000
,
00010000
00001000
00010000
00000100
,
00000010
00000001
00001000
00000010
,
00000001
00000100
00001000
00000000
00020000
00000000
00030000
00000000
,
01000000
00101000
01000000
00101000
,
00010000
00001000
00100000
00000000
01000000
00000000
10000000
00000000
,
00100000
01000000
00001000
01000000
,
00001000
00000000
00100000
00000000
00001000
00010000
00000100
00000000
,
00000010
00000001
00000100
00001000
,
00000010
00000000
00000001
00000000
00000100
00000000
00001000
00010000
,
00100000
00100000
01100000
01100000
,
10100000
00000000
10000000
01000000
00100000
00000000
00000000
00000000
,
11000000
00000000
00000000
11000000
00000000
00000000
00110000
00000000
,
00000000
00110000
00000000
00000000
00011000
00000000
00000000
00011000
,
00000000
00000000
00001100
00000000
00000000
00001100
00000000
00000000
,
00000011
00000011
00001001
00001001
,
00001010
00001010
00010010
00010010
,
00000000
00000000
00002000
00000000
,
00000000
00000000
00000000
00003000
,
00000000
00000000
00000000
00000000
;
#NOTES:
     dance-double:
     :
     Hard:
     13:
     :
00000000
00000000
00000000
00000000
,
00000000
00000000
00000000
00000000
,
00000000
00000000
00000000
00000000
,
00000010
00100000
00000010
00100000
,
00000010
00010000
00100000
00001000
,
00000100
01000000
00000100
01000000
,
00000100
00010000
01000000
00001000
,
00002010
00103000
00000010
00100000
,
01002000
00003100
01000000
00000100
,
00020010
00130000
00000010
00100000
,
00001000
00000000
00000100
00000000
00000001
00001001
00001001
00000000
,
00000100
00001000
00010000
00000000
00000010
00001000
00010000
00000000
,
00000100
00000000
00000000
00001000
00000000
00000000
00010000
00000000
00001000
00010000
00000000
00000000
01000000
00000000
00000000
10000000
00000000
00000000
00010000
00000000
00000000
00000000
00000000
00000000
,
01000000
00000000
00000000
00010000
00000000
00000000
00001000
00000000
00000000
00000000
00000000
00000000
00100000
00000000
00000000
00010000
00000000
00000000
00001000
00000000
00010000
00001000
00000000
00000000
,
00000100
00000000
00000000
00000010
00000000
00000100
00000010
00000000
00000100
00000010
00000000
00000000
00001000
00000000
00000001
00001000
00000000
00000001
00001000
00000000
00000000
00000000
00000000
00000000
,
00000001
00000010
00001000
00000000
00000001
00000100
00001000
00000100
,
00010000
00000000
00000000
00001000
00000000
00000000
01000000
00000000
00010000
01000000
00000000
00000000
00010000
00000000
00000000
10000000
00000000
00000000
00100000
00000000
00000000
00000000
00000000
00000000
,
00010000
00000000
00000000
00001000
00000000
00000000
01000000
00000000
00000000
00000000
00000000
00000000
00010000
00000000
00000000
00100000
00000000
00000000
00001000
00000000
00010000
00001000
00000000
00000000
,
00010000
00000000
00000000
00000100
00000000
00010000
00000100
00000000
00010000
00000100
00000000
00000000
00000100
00000000
00001000
00000100
00000000
00001000
00000100
00000000
00000000
00000010
00000000
00000000
,
00000002
00000000
00001003
00000000
00000000
00010000
00000010
00010000
,
00000010
00000000
00000000
00000100
00000000
00000000
00000001
00000000
00001000
00000100
00000000
00000000
00010000
00000000
00000000
00001000
00000000
00000000
01000000
00000000
00010000
01000000
00000000
00000000
,
00200000
00000000
01300000
00000000
00000000
10000000
10000000
10000000
,
01000000
00000000
00100000
01000000
00000000
00000000
00010000
00000000
00000000
00001000
00000000
00000000
00000100
00000000
00000010
00000100
00000000
00000000
00000002
00000000
00000000
00000000
00000000
00000000
,
00001003
00000000
00000101
00000000
00000000
00000010
00010000
00000010
,
00010000
00000000
00000000
00000100
00000000
00000000
00001000
00000000
00000100
00001000
00000000
00000100
00001000
00000000
00000000
00000100
00000000
00010000
00000100
00000000
00010000
00000100
00000000
00000000
,
00020000
00000000
00031000
00000000
00000000
00010000
00001000
00010000
,
00001000
00100000
00001000
00000010
00001000
00010000
00011000
00000000
,
00001000
00100000
00010000
01000000
00100000
10000000
01000000
10000000
,
00100000
00000000
00000000
01000000
00000000
00000000
00010000
00000000
00100000
00010000
00000000
00000000
10000000
00000000
00010000
10000000
00000000
00010000
10000000
00000000
00000000
00010000
00000000
00000000
,
00100000
00000000
00000000
00001000
00000000
00000000
00010000
00000000
00000000
00000100
00000000
00000000
00001000
00000000
00000000
00000010
00000000
00000000
00000100
00000000
00000001
00000100
00000000
00000000
,
00000001
00000000
00000000
00000010
00000000
00000001
00000010
00000000
00000001
00000010
00000000
00000000
00000010
00000000
00001000
00000010
00000000
00001000
00000010
00000000
00000000
00000000
00000000
00000000
,
00000001
00000100
00001000
00010000
00000100
00001000
00000010
00010000
,
00001000
00000000
00000000
01000000
00000000
00000000
00010000
00000000
01000000
00010000
00000000
00000000
10000000
00000000
01000000
10000000
00000000
01000000
10000000
00000000
00000000
01000000
00000000
00000000
,
00100000
00000000
00000000
00010000
00000000
00000000
01000000
00000000
00000000
10000000
00000000
00000000
01000000
00000000
00000000
00010000
00000000
00000000
10000000
00000000
00010000
10000000
00000000
00000000
,
01000000
00000000
00000000
00100000
00000000
00010000
00100000
00000000
00010000
00100000
00000000
00000000
00001000
00000000
00010000
00001000
00000000
00010000
00001000
00000000
00000000
00000100
00000000
00000000
,
00000002
00000000
00000000
00000000
00000000
00000000
00000003
00000000
00000000
00000000
00000000
00000000
00000000
00000000
00000000
00000000
00000000
00000000
00000000
00000000
00000010
00001000
00000000
00000000
,
00001010
00000000
00000000
00010010
00000000
00000000
00000000
00000000
00000000
00000000
00001000
00000000
,
00101000
00000000
00000000
00000000
00000000
00000000
00000000
00000000
00000000
00000000
00000000
00000000
00000000
00000000
00000000
00000000
00000000
00000000
00000000
00000000
01000000
00010000
00000000
00000000
,
01010000
10010000
00000000
00000000
,
11000000
00010000
00000000
01000000
00000000
00000100
00000000
00001000
,
00001100
00000000
00000000
00000000
00000000
00000000
00000101
00000000
00000000
00000000
00000000
00000000
00000100
00000000
00000000
00000010
00000000
00000000
00000000
00000000
00000100
00000001
00000000
00000000
,
00000101
00001000
00000000
00000010
00000000
00100000
00000000
00010000
,
00110000
00000000
00000000
00000000
00000000
00000000
10100000
00000000
00000000
00000000
00000000
00000000
01000000
00000000
00000000
00100000
00000000
00000000
00000000
00000000
01000000
00000000
00000000
00000000
,
00200000
01000000
00000000
01300000
,
00020000
10000000
00000000
00130000
,
00002000
00000100
00000000
00003100
,
00000200
00000001
00000010
00001300
,
00000010
00000001
00000100
00001000
,
00000100
00000000
00000010
00000000
00001000
00000100
00001000
00000000
,
00000010
00001000
00000100
00000000
00010000
00000100
00001000
00000000
,
00000010
00001000
00100000
00010000
00001000
00001000
00010000
00010000
,
00001000
00100000
10000000
00100000
00010000
01000000
00100000
00010000
,
00001000
00000000
00000000
00010000
00000000
00000000
00000100
00000000
00000000
00010000
00000000
00000000
00000010
00000000
00000000
00000100
00000000
00000010
00000000
00000000
00000100
00000010
00000000
00000000
,
00001000
00000100
00000010
00000001
00001000
00000010
00000100
00001000
,
00000100
00000000
00000010
00000100
00000000
00000000
00001000
00000000
00010000
00001000
00000000
00000000
00010000
00000000
01000000
00010000
00000000
00000000
01000000
00000000
00100000
01000000
00000000
00000000
,
10000000
00000000
00000000
00010000
00000000
00000000
00100000
00000000
00100000
00010000
00000000
00000000
01000000
00000000
00000000
00010000
00000000
00000000
00100000
00000000
00000000
00001000
00000000
00000000
,
00000100
00000000
00000000
00000010
00000000
00000000
00001000
00000000
00001000
00000001
00000000
00000000
00000010
00000000
00000000
00000001
00000000
00000000
00000100
00000000
00000000
00001000
00000000
00000000
,
00010000
00000000
00010000
00001000
00000000
00000000
00001000
00000000
00001000
00010000
00000000
00000000
00010000
00000000
00010000
01000000
00000000
00000000
01000000
00000000
01000000
00100000
00000000
00000000
,
00010000
00000000
10000000
00000000
00000000
00000000
10000000
00000000
00000000
01000000
00000000
00000000
00010000
00000000
00000000
00000000
00000000
00000000
00001000
00000000
00000000
00000000
00000000
00000000
,
00010100
00000000
00000000
00000000
00000000
00001000
00000000
00000000
00000000
00010010
00000000
00000000
00000000
00000000
00001000
00000000
00000000
00000000
00010100
00000000
00000000
00000000
00000000
00001000
,
00000000
00000000
00000000
00010010
00000000
00000000
00000000
00000000
00001000
00000000
00000000
00000000
00101000
00000000
00000000
00000000
00000000
00010000
00000000
00000000
00000000
01001000
00000000
00000000
,
00000000
00000000
00010000
00000000
00000000
00000000
00101000
00000000
00000000
00000000
00000000
00010000
00000000
00000000
00000000
01001000
00000000
00000000
00000000
00000000
00010000
00000000
00000000
00000000
,
00010100
00010010
00001100
00011000
,
00101000
01001000
01010000
00110000
,
00000000
00000000
22000000
00000000
,
00000000
00000000
00000000
33000000
,
00000000
00000000
00000000
00000000
;
